#TITLE:サヨナラ・ヘヴン (かめりあ's NEKOMATAelectroRMX);
#SUBTITLE:;
#ARTIST:Remixed by かめりあ;
#TITLETRANSLIT:Sayonara Heaven (Camelia's NEKOMATAelectroRMX);
#SUBTITLETRANSLIT:;
#ARTISTTRANSLIT:Remixed by Camelia;
#GENRE:;
#CREDIT:Silverhawke;
#MENUCOLOR:;
#METERTYPE:DDR;
#BANNER:Sayonara Heaven (Camelia's NEKOMATAelectroRMX).png;
#BACKGROUND:Sayonara Heaven (Camelia's NEKOMATAelectroRMX)-bg.png;
#LYRICSPATH:;
#CDTITLE:cdtitle.png;
#MUSIC:Sayonara Heaven (Camelia's NEKOMATAelectroRMX).mp3;
#OFFSET:-0.028;
#SAMPLESTART:79.608;
#SAMPLELENGTH:15.000;
#SELECTABLE:YES;
#LISTSORT:;
#BPMS:0.000=150.000;
#STOPS:;
#BGCHANGES:;
#ATTACKS:;

//---------------dance-single - ----------------
#NOTES:
     dance-single:
     :
     Hard:
     13:
     0.633,0.770,0.304,0.329,0.317:
0000
0000
0000
0000
,
0000
0000
0000
0000
,
0000
0000
0000
0000
,
0000
0000
0000
0000
,
0000
0000
0000
0000
0000
0000
0100
0010
,
0001
0000
0000
0001
0100
0000
0010
0000
1000
0000
0000
1000
0100
0000
0010
0000
,
0001
0000
0000
0001
0100
0000
0010
0000
1000
0000
0000
0000
0100
0000
0010
0000
,
0001
0000
0000
0001
0100
0000
0010
0000
0100
0000
0001
0000
1000
0000
0100
0000
,
0120
0031
1100
0102
,
0023
0130
1200
0320
,
0032
0103
1020
0230
,
0310
1000
0100
0001
1000
0010
0100
1000
,
1002
0013
1200
2300
,
3020
0130
1002
0023
,
0230
1300
0210
2300
,
3001
0100
1000
0100
0010
0000
0110
0000
,
1000
1000
0100
0100
,
0001
0001
0010
0010
,
1000
1000
0100
0100
,
0001
0000
0001
0000
0010
0100
0010
0000
,
0001
0001
0100
0100
,
1000
1000
0010
0010
,
0001
0001
0100
0100
,
1000
0000
0000
0000
1000
0000
0000
0000
0010
0100
0010
0100
0000
0000
0010
0000
,
0000
1000
0100
0010
0001
0010
0100
1000
,
0001
0000
0000
0001
0000
0000
0001
0000
0100
0000
0000
0100
0000
0000
0100
0000
,
0010
0000
0000
0010
0000
0000
0010
0000
1000
0000
0000
1000
0000
0000
1000
0000
,
0100
0000
0000
0010
0000
0000
0100
0000
1000
0000
0000
0001
0000
0000
1000
0000
,
0001
0100
0010
1000
0001
1000
0010
0100
,
0001
0000
0000
0001
0000
0000
0001
0000
1000
0000
0000
1000
0000
0000
1000
0000
,
0100
0000
0000
0100
0000
0000
0100
0000
0010
0000
0000
0010
0100
0000
0010
0000
,
0001
0000
0000
0001
1000
0000
0001
0000
0010
0000
0100
0000
1000
0000
0010
0100
,
0010
0000
0000
0010
0000
0000
1000
0000
0100
0000
0000
0100
0010
0000
0001
0000
,
1000
0000
0010
0000
0010
0000
0100
0000
0001
0000
0000
0001
0010
0000
0100
0000
,
1100
0000
0000
0101
0000
0000
1000
0000
0100
0000
0000
0001
0000
0000
0100
0000
,
1000
0000
0000
0001
0000
0000
0010
0000
0200
0000
0000
0000
0300
0000
0010
0100
,
0010
0000
0000
0010
0000
0000
0001
0000
0100
0000
0000
0100
0010
0000
1000
0000
,
0001
0000
0010
0000
0010
0000
0100
0000
1000
0000
0000
1000
0010
0000
0100
0000
,
0101
0000
0000
1100
0000
0000
0001
0000
0100
0000
0000
1000
0000
0000
0100
0000
,
0001
0000
0000
1000
0000
0000
0010
0000
0200
0000
0000
0000
0300
0000
0001
0010
,
0100
0000
0000
0100
0000
0000
1000
0000
0020
0000
0001
0000
0031
0000
0010
1000
,
0001
0000
0000
0010
0000
0000
0001
0000
0200
0000
1000
0000
1300
0000
0100
0010
,
1000
0000
0000
1000
0000
0000
0100
0000
0010
0000
0000
0010
0001
0000
0100
0000
,
0110
0000
0000
0000
1010
0000
0000
0000
0101
0000
0000
0000
1001
0000
0001
0100
,
0010
0000
0000
0010
0000
0000
1000
0000
0200
0000
0001
0000
1300
0000
0001
0100
,
0010
0000
0000
0010
0000
0000
1000
0000
0020
0000
0001
0000
1030
0000
0100
0010
,
0001
0000
0000
0001
0000
0000
1000
0000
0100
0000
0000
0100
0010
0000
0100
0000
,
2000
0000
0010
3000
0002
0000
0100
0003
,
1100
0000
0202
0303
1000
1100
0001
0101
,
1000
0000
0100
0000
0010
0000
0001
0000
0100
0000
0010
0000
2000
0000
0000
0000
0000
0000
3001
0000
0000
0100
0000
0000
,
0010
0000
0000
0010
1000
0000
0100
0000
0010
0000
0000
0010
0001
0000
0100
0000
,
0010
0000
0000
0010
1000
0000
0100
0000
0010
0000
0000
0000
0001
0000
1000
0000
,
0100
0000
0000
0010
0100
0000
1000
0000
0001
0000
0100
0000
1000
0000
0100
0000
,
0001
0010
0100
1000
1001
0000
0001
0100
,
0010
0000
0000
0010
1000
0000
0100
0000
0010
0000
0000
0010
0001
0000
0100
0000
,
0010
0000
0000
0010
1000
0000
0100
0000
0010
0000
0000
0000
0001
0000
0100
0000
,
0010
0000
0000
1000
0100
0000
0010
0000
0001
0000
0100
0000
1000
0000
0100
0000
,
0001
1000
0100
0010
0110
0000
1000
0100
,
0010
0000
0000
0010
0001
0010
0001
0000
1000
0000
0000
0010
1000
0010
1000
0000
,
0001
0000
0000
0010
0001
0010
0001
0000
1000
0000
0000
0000
0010
0000
1000
0000
,
0100
0000
0000
0010
0001
0010
0001
0000
0100
0000
0010
0000
1000
0000
0001
0000
,
0100
1000
0100
0001
1001
0100
0010
1000
,
1100
0000
0000
0101
0000
0000
0011
0000
0110
0000
0000
1100
0000
0000
1001
0000
,
0101
0000
0000
0110
0000
0000
1010
0000
1001
0000
0000
0000
0200
0000
0320
0000
,
1030
0000
0000
0100
0010
0100
0010
0000
0001
0000
0100
0000
1000
0000
0100
0010
,
0200
0000
0310
0000
1000
0001
0020
0000
,
0230
0000
1300
0000
0001
0100
1000
0100
,
0020
0000
1030
0000
0100
1000
0002
0000
,
0103
1000
0100
0010
0001
0010
1000
0100
,
0020
0000
0031
0000
1000
0100
0001
0100
,
0020
0000
0031
0000
1000
0010
0001
0010
,
1000
1000
0001
0001
0010
0010
0100
0100
,
1000
0001
1000
0001
1000
0001
1000
0001
0100
0000
0000
0000
0220
0000
0000
0000
,
0330
0000
0000
0000
;

//---------------dance-double - ----------------
#NOTES:
     dance-double:
     :
     Hard:
     13:
     0.637,0.709,0.346,0.203,0.308:
00000000
00000000
00000000
00000000
,
00000000
00000000
00000000
00000000
,
00000000
00000000
00000000
00000000
,
00000000
00000000
00000000
00000000
,
00000000
00000000
00000000
00000000
00000000
00000000
10000000
00100000
,
00010000
00000000
00000000
00010000
00001000
00000000
00000010
00000000
00000001
00000000
00000000
00000001
00000100
00000000
00001000
00000000
,
00010000
00000000
00000000
00010000
01000000
00000000
10000000
00000000
00100000
00000000
00000000
00000000
10000000
00000000
01000000
00000000
,
00010000
00000000
00000000
00010000
00001000
00000000
00000010
00000000
00000001
00000000
00000100
00000000
00000010
00000000
00000100
00000000
,
00001001
00001100
00010100
00011000
,
01001000
01100000
10100000
11000000
,
10000000
01000000
00100000
00000000
00010000
01000000
00001000
00000000
,
00000100
00000010
00001000
00000100
00000001
00000100
00010000
00001000
,
02000000
00000000
03100000
00000000
10000000
01000000
00100000
00010000
,
02000000
00000000
03001000
00000000
00010000
00000100
00000010
00000001
,
00000200
00000000
00001300
00000000
00000100
00000001
00001000
00000000
,
00000001
00000100
00001000
00010000
00011000
00000000
00001000
00001000
,
01000000
01000000
10000000
10000000
,
00100000
00100000
00001000
00001000
,
00000100
00000100
00000001
00000001
,
00000010
00000010
00001000
00001000
,
00010000
01000000
10000000
00100000
,
01000000
10000000
00010000
00100000
,
00001000
00000010
00000001
00000100
,
00010000
00000000
00000000
00000000
01000000
00000000
00000000
00000000
10000000
00010000
10000000
00010000
00000000
00000000
01100000
00000000
,
10000000
01000000
00100000
00010000
00001000
00001000
00000100
00000010
,
00001000
00000000
00000000
00001000
00000100
00000000
00010000
00000000
00001000
00000000
00000000
00001000
01000000
00000000
00001000
00000000
,
00010000
00000000
00000000
00000100
00010000
00000000
00000100
00000000
00000010
00000000
00000000
00000010
00000001
00000000
00000100
00000000
,
00000010
00001000
00000100
00001000
00000010
00000100
00001000
00010000
,
00001000
00000100
00000010
00000001
00001000
00001000
00000010
00010000
,
01000000
00000000
00000000
01000000
10000000
00000000
00100000
00000000
01000000
00000000
00000000
01000000
00001000
00000000
00010000
00000000
,
00000100
00000000
00000000
00010000
00000010
00000000
00000100
00000000
00000001
00000000
00000000
00000001
00001000
00000000
00000100
00000000
,
00010000
00000000
00001000
01000000
00001000
00000000
00010000
00000000
01000000
00000000
10000000
00000000
00100000
00000000
01000000
00010000
,
10000000
00000000
00000000
11000000
00000000
00000000
01000000
00000000
00010000
00000000
00000000
00001000
00000100
00000000
00000010
00000000
,
00001000
00000000
00000001
00000000
00000001
00000000
00000010
00000000
00000100
00000000
00000000
00000100
00010000
00000000
00001000
00000000
,
01001000
00000000
00000000
01100000
00000000
00000000
10000000
00000000
01000000
00000000
00000000
00100000
00000000
00000000
01000000
00000000
,
10000000
00000000
00000000
00100000
00000000
00000000
00010000
00000000
00000200
00000000
00000000
00000000
00000300
00000000
00000100
00001000
,
00000001
00000000
00000000
00000101
00000000
00000000
00000100
00000000
00001000
00000000
00000000
00010000
01000000
00000000
00100000
00000000
,
00010000
00000000
10000000
00000000
10000000
00000000
00100000
00000000
01000000
00000000
00000000
01000000
00001000
00000000
00010000
00000000
,
00010100
00000000
00000000
00000110
00000000
00000000
00000001
00000000
00000100
00000000
00000000
00000010
00000000
00000000
00000100
00000000
,
00000001
00000000
00000000
00000010
00000000
00000000
00001000
00000000
02000000
00000000
00000000
00000000
03000000
00000000
00100000
10000000
,
01000000
00000000
00000000
00010000
00000000
00000000
00001000
00000000
00200000
00000000
00010000
00000000
00301000
00000000
00010000
00000100
,
00000010
00000000
00000000
00000001
00000000
00000000
00000100
00000000
00000020
00000000
00010000
00000000
00001030
00000000
00000100
00010000
,
00001000
00000000
00000000
01000000
00000000
00000000
00100000
00000000
10000000
00000000
00000000
10000000
01000000
00000000
00100000
00000000
,
01100000
00000000
00000000
00000000
00011000
00000000
00000000
00000000
00000220
00000000
00000000
00000000
00000330
00000000
00000010
00000001
,
00000100
00000000
00000000
00001000
00000000
00000000
00010000
00000000
00000010
00000000
00011000
00000000
00011000
00000000
00001000
01000000
,
00100000
00000000
00000000
10000000
00000000
00000000
01000000
00000000
00100000
00000000
00011000
00000000
00011000
00000000
01000000
00001000
,
00010000
00000000
00000000
00000100
00000000
00000000
00000010
00000000
00000001
00000000
00000000
00000001
00000100
00000000
00000010
00000000
,
00000220
00000330
00011000
01100000
,
11000000
00000000
00000000
00000000
01010000
00000000
00020000
00000000
10030000
00000000
02000000
03000000
00010000
00000000
00002000
00003000
,
00000100
00000000
00000001
00000000
00000010
00000000
00000100
00000000
00010000
00000000
00001000
00000000
02000000
00000000
00000000
00000000
00000000
00000000
03100000
00000000
00000000
10000000
00000000
00000000
,
01000000
00000000
00000000
01000000
00100000
00000000
00010000
00000000
01000000
00000000
00000000
01000000
00001000
00000000
00010000
00000000
,
00000100
00000000
00000000
00000100
00000010
00000000
00000001
00000000
00000100
00000000
00000000
00000000
00000001
00000000
00000010
00000000
,
00000100
00000000
00000000
00000100
00010000
00000000
00001000
00000000
01000000
00000000
00100000
00000000
01000000
00000000
00001000
00010000
,
00000100
00000010
00000001
00000010
00000110
00000000
00000010
00000001
,
00000100
00000000
00000000
00000100
00000010
00000000
00001000
00000000
00000100
00000000
00000000
00000100
00010000
00000000
00001000
00000000
,
01000000
00000000
00000000
01000000
00100000
00000000
10000000
00000000
01000000
00000000
00000000
00000000
10000000
00000000
00100000
00000000
,
01000000
00000000
00000000
01000000
00001000
00000000
00010000
00000000
00000100
00000000
00000010
00000000
00000100
00000000
00010000
00001000
,
01000000
00100000
10000000
00100000
01100000
00000000
10000000
01000000
,
00200000
00000000
00000000
00310000
01000000
00010000
01000000
00000000
00002000
00000000
00000000
00013000
00000100
00010000
00000100
00000000
,
00000020
00000000
00000000
00000031
00000100
00000001
00000100
00000000
00000010
00000000
00000000
00000000
00001000
00000000
00000100
00000000
,
00020000
00000000
00000000
00031000
01000000
00001000
01000000
00000000
00100000
00000000
10000000
00000000
01000000
00000000
00010000
00001000
,
01000000
00001000
00000100
00000010
00001000
00000001
00000001
00000001
,
00000010
00000000
00000000
00000110
00000000
00000000
00010000
00000000
00001000
00000000
00000000
01010000
00000000
00000000
10000000
00000000
,
01000000
00000000
00000000
00101000
00000000
00000000
00010000
00000000
00000010
00000000
00000000
00000000
00000200
00000000
00000302
00000000
,
00000023
00000000
00000000
00000130
00010000
00000100
00010000
00000000
00001000
00000000
01000000
00000000
10000000
00000000
01000000
00100000
,
10000000
11000000
00001000
01001000
,
00010000
00010100
00000001
00000101
,
00000001
00000010
00000100
00000000
00001000
00000010
00000100
00000000
,
00000001
00000000
00000100
00000000
00001000
00000000
00010000
00000000
01000000
00000000
00100000
00010000
00100000
00000000
01000000
00000000
,
10000000
00000000
11000000
00000000
00010000
01000000
00001000
00000000
,
00010000
00000000
00000100
00000010
00000001
00000100
00000010
00000000
,
00010000
00010000
00001000
00001000
00010000
00001000
00011000
00000000
,
00100000
00010000
00000100
00001000
00011000
00000000
02000200
00000000
,
03000300
00000000
00000000
00000000
;

//---------------dance-single - ----------------
#NOTES:
     dance-single:
     :
     Medium:
     9:
     0.492,0.493,0.152,0.279,0.097:
0000
0000
0000
0000
,
0000
0000
0000
0000
,
0000
0000
0000
0000
,
0000
0000
0000
0000
,
0000
0000
0000
0000
0000
0000
1000
0100
,
0010
0000
0010
0001
0100
0000
0010
1000
,
0100
0000
0010
0001
0100
0000
0001
0100
,
0010
0000
0010
1000
0100
0010
0001
0000
,
1001
1001
1001
0100
,
0110
0110
0020
2030
,
3001
0000
0010
0000
0100
1000
0001
0000
,
2000
3100
0002
0013
,
2000
0000
3010
0000
0100
0001
1000
0000
,
0002
0000
0013
0000
0100
1000
0001
0000
,
2000
3200
0320
0032
,
1003
0010
0100
0000
0220
0000
0330
0000
,
1000
0100
1000
0100
,
0010
0001
0010
0001
,
1000
0010
1000
0010
,
0100
0001
0100
0001
,
1000
0100
1000
0100
,
0001
0010
0001
0010
,
0100
1000
0100
1000
,
0010
0001
0010
0001
,
1000
0100
0010
0000
0001
0010
0100
0000
,
1000
0000
0001
0000
1000
0010
0100
0000
,
0001
0001
0100
0100
,
0010
1000
0100
0000
0010
0000
0001
0000
,
1000
0010
0100
0000
0001
0100
0010
0000
,
1000
0000
0001
0000
0100
0010
0100
0000
,
0001
0000
1000
0100
0010
0000
0001
0100
,
0010
0000
0100
0000
0001
1000
0100
0000
,
0010
0000
0000
0010
0000
0000
0001
0000
1000
0000
0000
0000
1001
0000
0000
0000
,
0010
0000
0000
0010
0000
0000
1000
0000
0001
0000
0000
0000
1001
0000
0000
0000
,
1000
0000
0000
0100
0000
0000
0000
0000
1000
0000
0000
0000
0001
0000
0000
0000
,
0100
0010
0100
0000
2002
0000
3003
0000
,
0100
0000
0000
0100
0000
0000
0001
0000
1000
0000
0000
0000
1001
0000
0000
0000
,
0100
0000
0000
0100
0000
0000
1000
0000
0001
0000
0000
0000
1001
0000
0000
0000
,
1000
0000
0000
0010
0000
0000
0000
0000
1000
0000
0000
0000
0001
0000
0000
0000
,
0010
0100
0010
0000
2002
0000
3003
0001
,
0001
0000
0000
0001
0000
0000
0100
0000
0020
0000
0000
0000
0030
0000
1000
0000
,
1000
0000
0000
1000
0000
0000
0100
0000
0020
0000
0000
0000
0030
0000
0001
0000
,
0001
0000
0000
0100
0000
0000
0010
0000
1000
0000
0000
0000
0001
0000
0000
0000
,
1100
0101
2002
3003
,
1000
0000
0000
0100
0000
0000
0010
0000
0001
0000
1000
0000
1000
0000
0000
0000
,
0001
0000
0000
0100
0000
0000
0010
0000
1000
0000
0001
0000
0001
0000
0000
0000
,
1000
0000
0000
0100
0000
0000
0010
0000
0001
0000
0000
0000
0100
0000
0010
0000
,
2000
0010
3002
0100
,
1003
1100
0001
0101
,
1000
0000
0001
0000
1000
0000
0000
0000
0001
0000
1000
0000
0002
0000
0000
0000
0000
0000
1003
0000
0000
0100
0000
0000
,
0010
0000
0010
0001
0100
0000
0010
1000
,
0100
0000
0010
0001
0100
0000
0001
0100
,
0010
0000
0010
1000
0100
0000
0010
0001
,
0100
1000
0100
0001
0010
0000
0100
1000
,
0010
0000
0010
0100
0001
0000
0010
0100
,
1000
0000
0010
0100
0001
0000
0100
0001
,
0010
0000
0010
0100
1000
0010
0001
0010
,
1000
0100
0010
0001
1000
0000
0001
0100
,
0010
0000
0000
0010
1000
0000
0001
0000
1000
0000
0000
0010
1000
0000
0001
0000
,
1000
0000
0000
0010
1000
0000
0001
0000
1000
0000
0000
0000
0100
0000
0010
0000
,
0001
0000
0000
0010
0001
0000
1000
0000
0001
0000
0010
0000
0100
0000
1000
0000
,
0001
0001
1000
1000
0001
0000
0100
0000
,
0001
0000
0000
0010
0000
0000
0001
0000
1000
0000
0000
0010
0000
0000
1000
0000
,
0001
0000
0000
0100
0000
0000
0001
0000
1000
0000
0000
0000
0100
0000
0010
0000
,
0001
0000
0100
0010
1000
0100
0001
0100
,
2000
3010
0002
0103
,
0010
0000
1000
0000
0100
0010
0001
0000
,
2000
3100
0020
0031
,
1000
0100
0010
0000
0001
0100
0010
0000
,
2000
3010
0002
0013
,
0200
1300
0002
0103
,
0001
1000
0001
1000
0001
1000
0010
0000
,
1000
0100
0010
0001
1000
0000
2002
0000
,
3003
0000
0000
0000
;

//---------------dance-single - ----------------
#NOTES:
     dance-single:
     :
     Easy:
     4:
     0.213,0.247,0.000,0.017,0.000:
0000
0000
0000
0000
,
0000
0000
0000
0000
,
0000
0000
0000
0000
,
0000
0000
0000
0000
,
0000
0000
0000
0001
,
1000
0000
0100
0000
,
0010
0001
1000
0000
,
0010
0000
0100
0001
,
0010
0000
0000
0100
,
0010
0000
0001
0100
,
0010
0000
1000
0010
,
0100
0000
0100
0000
,
1000
0000
0001
0010
,
0001
0000
1000
0100
,
1000
0000
0001
0100
,
0001
0000
0010
0000
,
1000
0000
0100
0000
,
0001
0000
0010
0000
,
1000
0000
0100
0000
,
0001
0000
0010
0000
,
1000
0000
0010
0000
,
0001
0000
0100
0000
,
1000
0000
0010
0000
,
0001
0000
0100
0000
,
1000
1000
1000
0000
,
0001
0000
0010
0000
,
0001
0001
0001
0000
,
1000
0000
0010
0000
,
1000
0100
1000
0000
,
0001
0000
0100
0000
,
0001
0010
0001
0000
,
1000
0000
0010
0000
,
0100
0100
0100
0000
,
0001
0000
0010
0000
,
1000
0000
0001
0000
,
1000
0100
0010
0000
,
0001
0001
0001
0000
,
0100
0000
1000
0000
,
0100
0000
0010
0000
,
0001
1000
0100
0000
,
0010
0010
0010
0000
,
0001
0000
0001
0000
,
0100
0010
1000
0001
,
0200
0000
0300
0000
,
0001
0000
0001
0000
,
1000
0001
1000
0000
,
0100
0010
0001
1000
,
0100
0000
0010
0000
,
0001
0001
0001
0001
,
1000
1000
0001
0000
,
0100
0000
0100
0000
,
0100
0010
0100
0000
,
0001
1000
0100
0000
,
1000
0001
0100
0000
,
0010
0000
0100
0000
,
0010
0001
0100
0000
,
0100
0001
0010
0000
,
0100
1000
0010
0000
,
1000
0000
0010
0000
,
1000
0100
0010
0000
,
0001
0100
0000
0000
,
0001
0100
0010
0000
,
1000
0000
0001
0000
,
1000
0001
1000
0000
,
0001
0100
0010
0000
,
1000
0000
0000
0010
,
0100
0000
1000
0010
,
0100
0000
0001
0000
,
0010
0000
0100
0000
,
0001
0000
1000
0100
,
0010
0000
0001
0100
,
0010
0000
0010
0000
,
0100
0001
1000
0200
,
0300
0000
0000
0000
;

//---------------dance-single - ----------------
#NOTES:
     dance-single:
     :
     Beginner:
     2:
     0.115,0.154,0.008,0.000,0.000:
0000
0000
0000
0000
,
0000
0000
0000
0000
,
0000
0000
0000
0000
,
0000
0000
0000
0000
,
0000
0000
0000
0000
,
1000
0000
1000
0000
,
1000
0000
1000
0000
,
1000
0000
1000
0000
,
1000
0000
0000
0000
,
0001
0000
0000
0000
,
0100
0000
0000
0000
,
0010
0000
0010
0000
,
0010
0000
0000
0000
,
1000
0000
0000
0000
,
0100
0000
0100
0000
,
0100
0000
0000
0000
,
0010
0000
0000
0000
,
0001
0000
0000
0000
,
0100
0000
0000
0000
,
1000
0000
0000
0000
,
0010
0000
0000
0000
,
0001
0000
0000
0000
,
0100
0000
0000
0000
,
1000
0000
0000
0000
,
0010
0000
0000
0000
,
0001
0000
0000
0000
,
1000
0000
1000
0000
,
1000
0000
0000
0000
,
0010
0000
0000
0000
,
0100
0000
0000
0000
,
0001
0000
0001
0000
,
0001
0000
0000
0000
,
1000
0000
0000
0000
,
0001
0001
0001
0000
,
0000
0000
1000
0000
,
1000
0000
0001
0000
,
0001
0000
0000
0000
,
0100
0100
0100
0000
,
0000
0000
0010
0000
,
0010
0000
1000
0000
,
1000
0000
0000
0001
,
0000
0000
0000
1000
,
0000
0000
0000
0000
,
0100
0100
0100
0000
,
0000
0000
0000
0010
,
0000
0000
0000
0001
,
0001
0000
0001
0000
,
0001
0000
0000
0000
,
1001
0000
0000
0000
,
0000
0000
0000
0000
,
1000
0000
0000
0000
,
0001
0000
0000
0000
,
1000
0000
0000
0000
,
0100
0100
0100
0000
,
0100
0000
0000
0000
,
1000
0000
0000
0000
,
0001
0000
0000
0000
,
0100
0100
0100
0000
,
0100
0000
0000
0000
,
0001
0000
0000
0000
,
1000
0000
0000
0000
,
0010
0010
0010
0000
,
0010
0000
0000
0000
,
0100
0000
0000
0000
,
0010
0000
0010
0000
,
0010
0000
0000
0000
,
1000
0000
0000
0000
,
0001
0000
0000
0000
,
0010
0000
0010
0000
,
0010
0000
0000
0000
,
0100
0000
0000
0000
,
1000
0000
0000
0000
,
0001
0001
0001
0001
;

//---------------dance-double - ----------------
#NOTES:
     dance-double:
     :
     Medium:
     10:
     0.457,0.493,0.068,0.194,0.076: // measure 1
00000000
00000000
00000000
00000000
,  // measure 2
00000000
00000000
00000000
00000000
,  // measure 3
00000000
00000000
00000000
00000000
,  // measure 4
00000000
00000000
00000000
00000000
,  // measure 5
00000000
00000000
00000000
00000000
00000000
00000000
00001000
00010000
,  // measure 6
00000100
00000000
00000100
00010000
00001000
00000000
00100000
00001000
,  // measure 7
00010000
00000000
00010000
00001000
01000000
00000000
00010000
00100000
,  // measure 8
01000000
00000000
10000000
01000000
00100000
00010000
01000000
00000000
,  // measure 9
01200000
10000000
01300000
00010000
,  // measure 10
20000000
01000000
30010000
00100000
,  // measure 11
00002000
00013000
00020000
00030100
,  // measure 12
00000010
00000001
00000100
00000001
00000010
00000000
00001001
00000000
,  // measure 13
00000010
00000000
00010000
00000000
00001000
00100000
00010000
00000000
,  // measure 14
01000000
00000000
00100000
00000000
10000000
01000000
00100000
00000000
,  // measure 15
00010000
00000000
10000000
00000000
00100000
01000000
00010000
00000000
,  // measure 16
01000000
00001000
00010000
00001000
01000000
00000000
01100000
00000000
,  // measure 17
00100000
10000000
00100000
10000000
,  // measure 18
01000000
00010000
01000000
00010000
,  // measure 19
00001000
00000100
00001000
00000100
,  // measure 20
00000001
00000010
00000001
00000010
,  // measure 21
00001000
00010000
00001000
00010000
,  // measure 22
00100000
10000000
00100000
10000000
,  // measure 23
01000000
00010000
01000000
00010000
,  // measure 24
00001000
00000000
00000100
00000000
00000010
00001000
00000001
00000000
,  // measure 25
00001000
00000000
00000100
00000000
00010000
00001000
00010000
00000000
,  // measure 26
00001000
00000000
00100000
00000000
00010000
01000000
00010000
00000000
,  // measure 27
10000000
00000000
00000000
00010000
00000000
00000000
00000000
00000000
10000000
00000000
00000000
00000000
00010000
00000000
00000000
00000000
,  // measure 28
10000000
01000000
00100000
00000000
00001000
00000000
00010000
00000000
,  // measure 29
00000100
00000000
00001000
00000000
00000010
00000100
00000010
00000000
,  // measure 30
00001000
00000001
00001000
00000100
,  // measure 31
00010000
00000000
00001000
00000000
00100000
00010000
01000000
00000000
,  // measure 32
00100000
00000000
00100000
00000000
10000000
01000000
00100000
00000000
,  // measure 33
00010000
00000000
00000000
00010000
00000000
00000000
10000000
00000000
01000000
00000000
00000000
00000000
10000000
00000000
00000000
00000000
,  // measure 34
00010000
01000000
00010000
01000000
00001000
00000000
00010000
00000000
,  // measure 35
00000100
00000000
00000000
00000010
00000000
00000000
00000000
00000000
00000001
00000000
00000000
00000000
00000100
00000000
00000000
00000000
,  // measure 36
00000010
00001000
00000100
00000000
00000020
00000000
00000030
00000000
,  // measure 37
00000001
00000000
00000000
00000001
00000000
00000000
00001000
00000000
00000100
00000000
00000000
00000000
00010000
00000000
00000000
00000000
,  // measure 38
00001000
01000000
00001000
01000000
00010000
00000000
00100000
00000000
,  // measure 39
01000000
00000000
00000000
10000000
00000000
00000000
00000000
00000000
00100000
00000000
00000000
00000000
01000000
00000000
00000000
00000000
,  // measure 40
00001000
00010000
00000100
00000000
00000020
00000000
00000030
00000000
,  // measure 41
00000001
00000000
00000000
00000001
00000000
00000000
00001000
00000000
00000100
00000000
00000000
00000000
00010000
00000000
00000000
00000000
,  // measure 42
00001000
00000000
00000000
01000000
00000000
00000000
00001000
00000000
00100000
00000000
00000000
00000000
00010000
00000000
00000000
00000000
,  // measure 43
10000000
00000000
00000000
10000000
00000000
00000000
01000000
00000000
00100000
00000000
00000000
00000000
00010000
00000000
00000000
00000000
,  // measure 44
20000000
32000000
03020000
00030000
,  // measure 45
00001000
00000000
00000000
00001000
00000000
00000000
00010000
00000000
00000100
00000000
00000000
00000000
00000010
00000000
00000000
00000000
,  // measure 46
00000001
00000000
00000000
00000001
00000000
00000000
00000100
00000000
00000010
00000000
00000000
00000000
00001000
00000000
00000000
00000000
,  // measure 47
00000100
00000000
00000000
00000100
00000000
00000000
00010000
00000000
00001000
00000000
00000000
00000000
01000000
00000000
00010000
00000000
,  // measure 48
00200000
01300000
20000000
30010000
,  // measure 49
10000000
11000000
00010000
01010000
,  // measure 50
10000000
00000000
01000000
00000000
10000000
00000000
01000000
00000000
10000000
00000000
01000000
00000000
00010000
00000000
00000000
00000000
00000000
00000000
00001000
00000000
00000000
00010000
00000000
00000000
,  // measure 51
00001000
00000000
00010000
00000100
00001000
00000000
00001000
00000010
,  // measure 52
00010000
00000000
00001000
00100000
00010000
00000000
00010000
01000000
,  // measure 53
00001000
00000000
00010000
01000000
10000000
01000000
00100000
00000000
,  // measure 54
00020000
00000000
02030000
00000000
03100000
00000000
10000000
01000000
,  // measure 55
00100000
00000000
00100000
00010000
01000000
00000000
00001000
00010000
,  // measure 56
00000100
00000000
00000100
00001000
00000010
00000000
00001000
00000100
,  // measure 57
00000010
00000000
00000001
00000100
00001000
00000100
00000001
00000000
,  // measure 58
00002000
00000000
00003200
00000000
00010300
00000000
00001000
00100000
,  // measure 59
00010000
00000000
00010000
01000000
00100000
00000000
01000000
00010000
,  // measure 60
00100000
00000000
00100000
00001000
00010000
00000000
00000100
00001000
,  // measure 61
00000010
00000000
00000010
00000100
00000001
00001000
00000100
00000000
,  // measure 62
00000020
00000000
00000032
00000000
00001003
00001000
00000100
00001000
,  // measure 63
00000001
00000000
00000000
00000100
00000000
00000000
00000001
00000000
00001000
00000000
00000000
00000100
00000000
00000000
00010000
00000000
,  // measure 64
00001000
00000000
00000000
01000000
00000000
00000000
00100000
00000000
10000000
00000000
00000000
00000000
00010000
00000000
00100000
00000000
,  // measure 65
00010000
00000000
10000000
01000000
00100000
00010000
01000000
00000000
,  // measure 66
01200000
10000000
01300000
00010000
,  // measure 67
20000000
01000000
30010000
00100000
,  // measure 68
00002000
00013000
00020000
00030100
,  // measure 69
00000010
00000001
00000100
00000001
00000010
00000000
00001001
00000000
,  // measure 70
00000010
00000000
00010000
00000000
00001000
00100000
00010000
00000000
,  // measure 71
01000000
00000000
00100000
00000000
10000000
01000000
00100000
00000000
,  // measure 72
00010000
10000000
00010000
10000000
00010000
10000000
00100000
00000000
,  // measure 73
10000000
01000000
00100000
00010000
01000000
00000000
02200000
00000000
,  // measure 74
03300000
00000000
00000000
00000000
;

//---------------dance-double - ----------------
#NOTES:
     dance-double:
     :
     Easy:
     6:
     0.320,0.339,0.025,0.144,0.000: // measure 1
00000000
00000000
00000000
00000000
,  // measure 2
00000000
00000000
00000000
00000000
,  // measure 3
00000000
00000000
00000000
00000000
,  // measure 4
00000000
00000000
00000000
00000000
,  // measure 5
00000000
00000000
00000000
00000000
,  // measure 6
00001000
00010000
01000000
10000000
,  // measure 7
01000000
00010000
00001000
00000000
,  // measure 8
00010000
00001000
00000100
00000001
,  // measure 9
00002000
00000000
00003000
00000100
,  // measure 10
00000020
00000000
00000031
00000100
,  // measure 11
00000020
00000000
00001030
00000100
,  // measure 12
00010000
00001000
01000000
00100000
,  // measure 13
20000000
00000000
30010000
01000000
,  // measure 14
00002000
00000000
00013000
00000010
,  // measure 15
00000200
00000000
00000301
00000010
,  // measure 16
00000100
00001000
00010000
00100000
,  // measure 17
01000000
01000000
01000000
01000000
,  // measure 18
10000000
10000000
10000000
10000000
,  // measure 19
00010000
00010000
00010000
00010000
,  // measure 20
01000000
01000000
01000000
01000000
,  // measure 21
00001000
00001000
00001000
00001000
,  // measure 22
00010000
00010000
00010000
00010000
,  // measure 23
00000100
00000100
00000100
00000100
,  // measure 24
00000010
00000010
00000002
00000003
,  // measure 25
00001000
00000100
00001000
00000100
,  // measure 26
00010000
00001000
00010000
00001000
,  // measure 27
01000000
00010000
01000000
00010000
,  // measure 28
10000000
01000000
00100000
00000000
,  // measure 29
00010000
01000000
00010000
01000000
,  // measure 30
00001000
00010000
00001000
00010000
,  // measure 31
00000100
00001000
00000100
00001000
,  // measure 32
00000010
00000100
00000001
00000000
,  // measure 33
00000010
00000001
00000010
00000000
00000001
00000000
00000000
00000000
,  // measure 34
00001000
00000100
00001000
00000000
00000100
00000000
00000000
00000000
,  // measure 35
00010000
00001000
01000000
00100000
,  // measure 36
10000000
00010000
10010000
00000000
,  // measure 37
10000000
01000000
10000000
00000000
00010000
00000000
00000000
00000000
,  // measure 38
01000000
00001000
01000000
00000000
00001000
00000000
00000000
00000000
,  // measure 39
00010000
00000100
00000010
00000001
,  // measure 40
00000100
00000010
00001000
00000000
,  // measure 41
00000001
00000000
00001000
00000000
00000001
00000100
00000100
00000000
,  // measure 42
00000010
00000000
00001000
00000000
00000100
00010000
00010000
00000000
,  // measure 43
00001000
00100000
00010000
01000000
,  // measure 44
00200000
00000000
00300000
00000000
,  // measure 45
10000000
00000000
00010000
00000000
01000000
00100000
00100000
00000000
,  // measure 46
01000000
00000000
00010000
00000000
00100000
00001000
00001000
00000000
,  // measure 47
00010000
00000100
00000010
00000001
,  // measure 48
00000200
00000000
00000310
00001000
,  // measure 49
00000001
00001001
00001000
00001001
,  // measure 50
00000001
00000010
00000200
00000300
,  // measure 51
00010000
00010000
00001000
00001000
,  // measure 52
01000000
00010000
10000000
00000000
,  // measure 53
00010000
00010000
10000000
10000000
,  // measure 54
01000000
00100000
00010000
00000000
,  // measure 55
00001000
00001000
00000100
00000100
,  // measure 56
00000010
00000001
00000100
00000000
,  // measure 57
00000001
00000001
00000100
00000100
,  // measure 58
00000010
00001000
00000100
00000000
,  // measure 59
00010000
00010000
00001000
00001000
,  // measure 60
00100000
00010000
01000000
00000000
,  // measure 61
00100000
00100000
10000000
10000000
,  // measure 62
01000000
00010000
00001000
00000000
,  // measure 63
00000100
00000010
00001000
00000001
,  // measure 64
00000010
00000000
00000100
00001000
00000001
00000000
00000000
00000000
,  // measure 65
00000100
00001000
00010000
00100000
,  // measure 66
20000000
00000000
30000000
00010000
,  // measure 67
02000000
00000000
03001000
00010000
,  // measure 68
00000200
00000000
00000310
00000001
,  // measure 69
00000100
00000010
00010000
00001000
,  // measure 70
00200000
00000000
01300000
10000000
,  // measure 71
02000000
00000000
03100000
00001000
,  // measure 72
00020000
00000000
00031000
00000100
,  // measure 73
00000010
00001000
00000001
00000020
,  // measure 74
00000030
00000000
00000000
00000000
;
