#TITLE:リリーゼと炎龍レーヴァテイン;
#SUBTITLE:;
#ARTIST:黒猫ダンジョン;
#TITLETRANSLIT:Reliese to enryuu Laevateinn;
#SUBTITLETRANSLIT:;
#ARTISTTRANSLIT:Kuroneko Dungeon;
#GENRE:;
#CREDIT:Silverhawke;
#MENUCOLOR:;
#METERTYPE:DDR;
#BANNER:Reliese to enryuu Laevateinn.png;
#BACKGROUND:Reliese to enryuu Laevateinn-bg.png;
#LYRICSPATH:;
#CDTITLE:cdtitle.png;
#MUSIC:Reliese to enryuu Laevateinn.mp3;
#OFFSET:-0.024;
#SAMPLESTART:43.808;
#SAMPLELENGTH:15.000;
#SELECTABLE:YES;
#LISTSORT:;
#BPMS:0.000=200.000;
#STOPS:;
#BGCHANGES:;
#ATTACKS:;

//---------------dance-single - ----------------
#NOTES:
     dance-single:
     :
     Hard:
     15:
     0.866,0.813,0.444,0.185,0.241:
0000
0000
0000
0000
,
0000
0000
0000
0000
,
0000
0000
0000
0000
,
0000
0000
0000
0000
,
0001
0100
0010
0100
0010
1000
0100
0010
,
0100
0010
0001
0100
1000
0100
1000
0001
,
0010
1000
0010
1000
0001
0010
1000
0010
,
1000
0001
0100
1000
0100
1000
0001
0010
,
0011
0000
0000
1000
0010
1000
0010
0000
0000
0100
0000
0000
,
1010
0000
0000
0001
0010
0001
0010
0000
0000
0100
1000
0001
,
0100
0000
0000
0001
0010
0001
0010
0000
0000
0100
0000
0000
,
1010
0000
0000
1000
0100
1000
0100
0000
0000
0010
0001
1000
,
0010
0000
0000
0100
0010
0100
0010
0000
0000
1000
0000
0000
,
1100
0000
0000
0100
0010
0100
0010
0000
0000
0001
0100
0010
,
1000
0000
0000
0001
0100
0001
0100
0000
0000
0010
0000
0000
,
1100
0000
0000
1000
0100
1000
0100
0000
0000
0010
0000
0000
,
0001
0100
1000
0100
0001
0100
1000
0100
,
0010
0001
0010
1000
0010
0001
0010
0010
,
1000
0100
0001
0100
1000
0100
0001
0100
,
0010
1000
0010
0001
0010
1000
0010
0010
,
0001
0100
0010
1000
0100
0001
0100
0001
,
1000
0010
1000
0010
0001
0100
0010
0010
,
1000
0100
0010
0001
0100
1000
0100
1000
,
0001
0010
0001
0010
1000
0100
0010
0010
,
0002
0000
0000
0203
0000
0000
0320
0000
,
0000
2030
0000
0000
3001
0000
0010
0000
,
0200
0000
0000
2300
0000
0000
3020
0000
,
0000
0230
0000
0000
0301
0001
1000
1000
,
0000
0000
0001
0100
0001
0000
0010
0000
0100
0000
0100
0000
1000
0000
0000
0000
,
0100
0010
0000
0100
1000
0000
0010
0100
,
1000
0100
0001
0000
0010
0010
0100
0000
,
0010
0001
0000
0010
1000
0000
0010
0100
,
0001
0100
1000
0000
0010
0010
0001
0000
,
0010
1000
0000
0010
0100
0000
1000
0100
,
0001
0010
0100
0000
0001
0001
0100
0000
,
1000
0100
0000
0010
0100
0000
1000
0010
,
0001
0010
0100
0000
0001
0010
1000
0010
,
0001
0010
0100
0010
0001
0100
1000
0100
,
0001
0010
1000
0010
0001
0100
0010
1000
,
0100
0010
0100
0000
1000
0000
0100
0000
0010
0000
0001
0000
0100
0000
0010
0000
,
0001
1000
0100
0010
1000
0100
0100
0100
,
1000
0010
0001
0010
0100
0001
0010
0100
,
1000
0010
0100
0001
1000
0100
0001
0100
,
1000
0001
1000
0000
0010
0000
0100
0000
0001
0000
0010
0000
0100
0000
1000
0000
,
0010
0100
0001
0010
0100
1000
0010
0100
,
0001
0010
0100
0010
0001
0100
0010
0100
,
0001
0010
0001
0100
0010
1000
0100
0010
,
0001
0100
0001
0010
0100
1000
0010
1000
,
0100
0010
0001
0100
0001
0010
1000
0001
,
0100
1000
0001
0100
1000
0100
0010
1000
,
0100
0010
0001
0100
1000
0100
0001
1000
,
0010
0001
0010
1000
0100
0010
0100
1000
,
0010
0100
0001
0010
0110
0000
1000
0100
,
0010
0100
1100
0000
0001
0001
0100
0010
,
1000
0100
1100
0000
0101
0000
0010
0100
,
0001
0010
0110
0000
0100
0100
1000
0010
,
0100
0001
0011
0000
1100
0000
1000
0010
,
0100
0001
0011
0000
0001
0001
0100
0010
,
1000
0100
0110
0000
1001
0000
0010
1000
,
0100
1000
1010
0000
0100
0100
0001
0010
,
0100
0010
0110
0000
1100
0000
0101
0000
,
1001
0000
0000
1000
0100
1000
0001
0100
0001
1000
0100
0010
,
0001
0000
1100
0000
0101
0000
1001
0000
1000
0010
0000
0000
,
0100
0001
1000
0100
0000
0000
1100
0000
0000
0101
0000
0000
,
0001
0010
0100
1000
0000
0000
1100
0000
0000
0101
0000
0000
,
1000
0100
0010
0001
0000
0000
1010
0000
0000
0011
0000
0000
,
1000
0100
1000
0001
0000
0000
0001
0100
0001
1000
0000
0000
,
0001
0000
0000
0000
0010
0000
0000
0000
0100
0000
0000
0000
1000
0000
0000
0001
0000
0000
1000
0000
0000
0001
0000
0000
2000
0000
0000
0000
0000
0000
0000
0000
0000
0000
0000
0000
3001
0000
0000
0000
0000
0000
0200
0000
0000
0000
0000
0000
,
0010
0300
1001
0000
1000
0100
0010
0100
,
0001
0100
0010
0100
2000
0000
3010
0200
,
0001
0300
1001
0000
0010
0010
1000
0100
,
0010
0000
0001
0000
0100
0000
0010
1000
0020
0000
0000
0000
0130
0000
0002
0000
,
0010
0003
0110
0000
0001
0010
0100
0010
,
1000
0010
0100
0010
0001
0100
0100
1000
,
0100
0100
0010
1000
0100
0100
0001
0100
,
0100
0000
1000
0000
0010
0100
0010
0100
0020
0000
0000
0000
1030
0000
0200
0000
,
0001
0300
0110
0000
0001
0100
0010
0100
,
1000
0100
0010
0100
0002
0000
0013
0200
,
1000
0300
1001
0000
1000
1000
0010
0100
,
0001
0000
0010
0000
0100
0000
1000
0001
2000
0000
0000
0000
3001
0000
0200
0000
,
1000
0300
0110
0000
1000
0010
0100
0010
,
0001
0010
0100
0010
1000
1100
0000
0001
,
0101
0000
1000
1010
0000
0001
0011
0000
,
0110
1001
0000
0000
1000
0101
0000
0001
,
1100
0000
1000
0011
0000
0001
1010
0000
,
0110
1001
0000
0000
0001
0001
0001
1000
,
1000
1000
0010
0010
0010
0100
0100
0100
,
0001
0001
0001
0010
0010
0010
0100
1001
;

//---------------dance-single - ----------------
#NOTES:
     dance-single:
     :
     Medium:
     12:
     0.686,0.854,0.398,0.296,0.046:
0000
0000
0000
0000
,
0000
0000
0000
0000
,
0000
0000
0000
0000
,
0000
0000
0000
0000
,
0001
0100
0010
0100
0000
0100
0010
1000
,
0010
0000
0010
1000
0001
1000
0000
1000
,
0100
0010
0100
0000
0100
1000
0001
1000
,
0000
1000
0010
0100
0010
0000
0010
0100
,
0001
1000
0010
0101
,
1000
0100
0010
1100
,
0010
1000
0001
0110
,
1000
0100
0010
1001
,
0001
0010
1100
0011
,
1000
0010
0101
1010
,
0100
0010
1001
0110
,
1000
0100
0011
1010
,
2000
0000
3200
0000
0310
0001
0100
0000
,
0010
1000
0100
0000
0010
0001
0100
0000
,
0002
0000
0023
0000
0130
1000
0010
0000
,
0100
0001
0010
0000
0100
1000
0010
0000
,
0200
0000
0320
0000
1030
0100
0010
0000
,
0001
0100
0010
0000
1000
0100
0010
0000
,
0002
0000
0203
0000
0310
1000
0001
0000
,
0010
0001
1000
0000
0010
1000
0100
0100
,
0010
0001
0000
0001
0100
0000
0100
0010
,
0000
0010
1000
0000
1000
0001
0000
0000
,
1000
0100
0000
0100
0010
0000
0010
0001
,
0000
0001
0100
0000
0100
0010
0000
0000
,
0000
1000
1001
0000
0001
0000
1100
0000
,
0010
0001
0000
0100
1000
0000
0100
0010
,
0000
1000
0100
0000
0010
0000
0101
0000
,
0010
1000
0000
0100
0001
0000
0100
1000
,
0000
0010
0100
0000
0001
0000
1100
0000
,
0010
0001
0000
1000
0010
0000
0001
0010
,
0000
0100
0001
0000
0010
0000
1100
0000
,
0001
0100
0000
1000
0100
0000
0010
1000
,
0000
0010
0100
0000
0001
0010
0100
0000
,
1000
0010
0100
0010
1000
0100
0010
0000
,
0001
0100
0010
0100
0001
0010
0100
0000
,
1000
1000
0010
0100
0001
0010
0100
0000
,
1000
0010
0100
0000
0001
0010
0010
0000
,
0100
1000
0010
1000
0100
0010
0001
0000
,
0100
0010
0100
0001
0010
0100
1000
0000
,
0001
0001
0100
0010
0100
0001
0010
0100
,
1000
0001
1000
0000
0001
0000
1000
0010
,
0000
0001
0010
0000
1000
0100
0000
0001
,
0100
1000
0001
1000
0010
0000
0100
1000
,
0000
0100
0001
0000
0010
1000
0000
0010
,
0001
0100
0010
1000
0100
0000
1000
1100
,
0000
0001
0101
0000
1000
1010
0000
0001
,
0011
0000
1001
0000
0110
0000
1000
1010
,
0000
0001
0011
0000
1000
1100
0000
0001
,
0101
0000
1001
0000
0010
0000
1000
0100
,
0000
0100
1000
0000
0001
0001
0100
0001
,
0000
0001
0100
0000
0010
0000
1000
0100
,
0000
0100
1000
0000
0010
0010
0100
0001
,
0000
0001
0100
0000
0010
0000
1000
0100
,
0000
0100
0010
0000
0001
0001
0010
0100
,
0000
0100
1000
0000
0010
0000
0100
0001
,
0000
0001
0100
0000
0010
0010
1000
0100
,
0000
0100
0010
0000
0001
0000
0101
0000
,
1001
0000
0000
1000
0000
0000
0010
0100
0010
0100
0000
0000
,
0001
0000
0010
0000
0100
0000
0110
0000
0000
1001
0000
0000
,
1000
0001
1000
0001
0000
0000
0010
0000
0000
0110
0000
0000
,
1100
1000
0010
0110
,
0101
0001
0011
0110
,
1100
0000
0000
0001
0000
0000
1000
0001
1000
0001
0000
0000
,
0100
0000
0010
0000
0100
0000
0010
0000
0000
0000
0000
0000
2000
0000
0000
0000
0000
0000
0000
0000
0000
3002
0000
0000
,
0000
0000
0013
0000
0001
0100
1000
0000
,
1000
0100
0001
0000
2000
0000
0000
3200
,
0000
0310
0001
1000
,
0001
0100
1000
0100
0002
0000
0000
0023
,
0000
0000
0130
0000
1000
0010
0001
0000
,
0001
0010
1000
0000
0001
0010
0000
0010
,
0100
0000
1000
0010
0100
0001
0000
0001
,
0010
0000
1001
0000
0002
0000
0000
2003
,
0000
0000
3010
0000
1000
0100
0001
0000
,
0001
0100
1000
0000
0002
0000
0000
0203
,
0000
0310
1000
0001
,
1000
0100
0001
0100
2000
0000
0000
3020
,
0000
0000
0130
0000
0001
0010
1000
0000
,
1000
0010
0001
0000
1000
0010
0000
0010
,
0100
0000
0001
0010
0000
0010
0100
0000
,
1000
1001
0000
0000
0001
0010
0000
0010
,
0100
0000
1000
0010
0000
0010
0100
0000
,
0001
1001
0000
0000
2000
3200
0300
0020
,
0032
0003
0002
0203
0300
0020
2030
3000
,
2000
3002
0003
0020
0230
0300
1000
1001
;

//---------------dance-single - ----------------
#NOTES:
     dance-single:
     :
     Easy:
     7:
     0.378,0.407,0.111,0.000,0.009:
0000
0000
0000
0000
,
0000
0000
0000
0000
,
0000
0000
0000
0000
,
0000
0000
0000
0000
,
0001
0000
0000
0000
0000
1000
0000
0000
,
0000
0000
0100
0000
0000
0000
0000
0010
,
0000
0000
0001
0000
,
0000
0100
0000
0000
0000
0000
0000
0000
,
0001
0100
0001
0010
,
0001
0100
0001
0000
,
1000
0100
1000
0010
,
1000
0100
1000
0000
,
0001
0010
0001
0100
,
0001
0010
0001
0000
,
1000
0010
1000
0100
,
1000
0010
1000
0000
,
0001
0001
0010
0100
,
1000
1000
0100
0010
,
0001
0001
0010
0100
,
1000
1000
0100
0000
,
1000
1000
0010
0100
,
0001
0001
0100
0010
,
1000
1000
0010
0100
,
0001
0001
0100
0010
,
1000
0000
0000
0100
0000
0000
0010
0000
,
0000
0001
0000
0000
1000
0000
0000
0000
,
0001
0000
0000
0100
0000
0000
0010
0000
,
0000
1000
0000
0000
0001
0000
0000
0000
,
0000
0100
0100
0001
,
0000
0010
0000
0000
0001
0000
0000
0100
,
0000
0001
0000
1000
,
0000
0100
0000
0000
1000
0000
0000
0010
,
0000
1000
0000
0001
,
0000
0010
0000
0000
0100
0000
0000
1000
,
0000
0001
0000
1000
,
0000
0010
0000
0000
0100
0000
0000
0001
,
0000
1000
0100
0100
,
0010
0001
0010
0010
,
0100
1000
0010
0100
,
0001
0100
0010
1000
,
0010
0100
0001
0010
,
0100
0010
0001
0100
,
0010
0100
0001
0010
,
0100
1000
0010
0100
,
0001
0000
0010
0000
0100
0000
0000
0010
,
0000
0000
1001
0000
0000
0110
0000
0000
,
0100
0000
0001
0000
1000
0000
0000
0100
,
0000
0000
0110
0000
0000
1001
0000
0000
,
0001
0000
0100
0000
0010
0000
0000
1000
,
0000
0000
1001
0000
0000
0110
0000
0000
,
0010
0000
1000
0000
0100
0000
0000
0010
,
0000
0000
0110
0000
0000
1001
0000
0000
,
0001
0000
0100
0000
0010
0000
0000
1000
,
0000
1000
0001
0000
0100
0000
0000
0001
,
0000
0001
1000
0000
0100
0000
0000
1000
,
0000
1000
0001
0000
0100
0000
0000
0001
,
0000
0001
1000
0000
0010
0000
0000
1000
,
0000
1000
0001
0000
0010
0000
0000
0001
,
0000
0001
1000
0000
0010
0000
0000
1000
,
0000
1000
0001
0000
0010
0000
0000
0001
,
0000
0001
1000
0000
0010
0000
0010
0000
,
0010
0000
0100
0000
,
0100
0000
0100
0000
0100
0000
0100
0000
0000
0000
0000
0000
,
1001
0000
0100
0100
,
0100
0000
0010
0010
,
0010
0000
1000
1000
,
1000
0100
0010
0001
,
0010
0000
0100
0000
1000
0000
0000
0100
,
0000
0000
0010
0001
,
0100
0000
0010
0000
1000
0000
0000
0001
,
0000
0010
0000
0100
,
0000
0000
0100
0010
0100
0000
0000
1000
,
0000
0000
0001
0100
,
0010
0000
0100
0000
0001
0000
0000
0010
,
0000
0000
0100
1000
0100
0000
0000
0010
,
0000
0000
0001
0000
0100
0000
0000
0010
,
0000
0000
1000
0100
,
0010
0000
0001
0000
0100
0000
0000
0010
,
0000
1000
0000
0001
,
0000
0000
0001
0010
0001
0000
0000
0100
,
0000
0000
0010
1000
,
0100
0000
0010
0000
1000
0000
0000
0001
,
0000
0000
1001
0000
0000
0110
0000
0000
,
1001
0000
0000
0000
0001
0001
0000
1000
,
1000
0000
0010
0010
0000
0100
0100
0000
,
0001
0001
0000
0000
1000
0000
0000
0100
,
0000
0000
0010
0000
0000
0001
0000
0000
,
0100
0000
0000
0010
0000
0000
1000
1000
;

//---------------dance-double - ----------------
#NOTES:
     dance-double:
     :
     Hard:
     16:
     0.903,0.854,0.463,0.074,0.532: // measure 1
00000000
00000000
00000000
00000000
,  // measure 2
00000000
00000000
00000000
00000000
,  // measure 3
00000000
00000000
00000000
00000000
,  // measure 4
00000000
00000000
00000000
00000000
,  // measure 5
00001000
01000000
00010000
01000000
01000000
00100000
10000000
01000000
,  // measure 6
00100000
00100000
00001000
00010000
00000100
00000010
00000010
00000001
,  // measure 7
00000100
00000010
00010000
00010000
00001000
01000000
00100000
10000000
,  // measure 8
10000000
00010000
01000000
00001000
00010000
00010000
00000100
00000100
,  // measure 9
00001100
00000000
00000000
00000001
00000100
00000010
00010000
00000000
00000000
00011000
00000000
00000000
,  // measure 10
01001000
00000000
00000000
01000000
00100000
10000000
01000000
00000000
00000000
00100000
00001000
00010000
,  // measure 11
00000100
00000000
00000000
00001000
00000010
00000100
00000001
00000000
00000000
00000011
00000000
00000000
,  // measure 12
00000110
00000000
00000000
00000100
00010000
00001000
00100000
00000000
00000000
00010000
01000000
00100000
,  // measure 13
10000000
00000000
00000000
01000000
00100000
00010000
00001000
00000000
00000000
00001100
00000000
00000000
,  // measure 14
00000110
00000000
00000000
00000010
00000001
00000100
00000010
00000000
00000000
00010000
00001000
01000000
,  // measure 15
00100000
00000000
00000000
10000000
01000000
00010000
00001000
00000000
00000000
00011000
00000000
00000000
,  // measure 16
00010100
00000000
00000000
00000100
00000010
00000001
00000100
00000010
00000100
00000001
00001000
00000001
,  // measure 17
00000010
00000100
00000000
00000100
00010000
00000000
00010000
00001000
00000000
00001000
01000000
00000000
,  // measure 18
01000000
00100000
01000000
00100000
10000000
00100000
10000000
00010000
10000000
00010000
00100000
00010000
,  // measure 19
00100000
01000000
00000000
01000000
00010000
00000000
00010000
00001000
00000000
00001000
00000100
00000000
,  // measure 20
00000100
00000010
00000100
00000001
00001000
00000001
00000010
00000100
00000010
00001000
00010000
00001000
,  // measure 21
00010000
01000000
00000000
01000000
10000000
00000000
10000000
00100000
00000000
00100000
01000000
00000000
,  // measure 22
01000000
00001000
01000000
00001000
00010000
00001000
00010000
00000100
00010000
00000100
00000010
00000100
,  // measure 23
00000010
00000001
00000000
00000001
00000100
00000000
00000100
00001000
00000000
00001000
00010000
00000000
,  // measure 24
00010000
01000000
00010000
01000000
00100000
01000000
00100000
00001000
00100000
00001000
00010000
00001000
,  // measure 25
00010000
00000010
00000010
00000100
00000001
00000001
00001000
00000100
,  // measure 26
00000100
00010000
00001000
00001000
01000000
00100000
00100000
10000000
,  // measure 27
00010000
01000000
01000000
00100000
10000000
10000000
01000000
00010000
,  // measure 28
00010000
00001000
00000010
00000010
00000100
00010000
00001000
01000000
,  // measure 29
00000000
00000000
00010000
01000000
00010000
00000000
10000000
00000000
01000000
00000000
01000000
00000000
00100000
00000000
00000000
00000000
,  // measure 30
00001000
00010000
00000000
00000100
00001000
00000000
00000010
00000100
,  // measure 31
00000001
00000001
00000010
00000100
00010000
00010000
00001000
00000000
,  // measure 32
01000000
00010000
00000000
00100000
01000000
00000000
10000000
01000000
,  // measure 33
00010000
00001000
00010000
00000000
00000100
00000000
00001000
00000000
00000010
00000000
00000010
00000000
00000100
00000000
00000000
00000000
,  // measure 34
00000001
00000010
00000000
00000100
00010000
00000000
00001000
01000000
,  // measure 35
00100000
00100000
10000000
01000000
00100000
00100000
00001000
00000000
,  // measure 36
00010000
00000100
00000000
00001000
00000010
00000000
00000100
00000001
,  // measure 37
00000010
00000010
00000001
00000100
00000010
00010000
00001000
00100000
,  // measure 38
00010000
01000000
00001000
00010000
00000100
00001000
00000010
00000100
,  // measure 39
00001000
00010000
01000000
10000000
00100000
10000000
01000000
00010000
,  // measure 40
00001000
00010000
00001000
00000000
00010000
00000000
01000000
00000000
10000000
00000000
00100000
00000000
00010000
00000000
00001000
00000000
,  // measure 41
00000100
00000010
00000100
00001000
00010000
01000000
01000000
01000000
,  // measure 42
10000000
01000000
00010000
00001000
00000100
00000010
00001000
00000100
,  // measure 43
00000010
00000001
00000100
00001000
00010000
00100000
00010000
00001000
,  // measure 44
01000000
00100000
01000000
00000000
00010000
00000000
00100000
00000000
01000000
00000000
10000000
00000000
01000000
00000000
00010000
00000000
,  // measure 45
00001000
00000100
00000010
00001000
00001100
00000000
00000100
00010100
,  // measure 46
00000000
00010000
00011000
00000000
00001000
01001000
00000000
01000000
,  // measure 47
00100000
10000000
01000000
00010000
00011000
00000000
00001000
00001100
,  // measure 48
00000000
00000100
00000110
00000000
00000010
00001010
00000000
00001000
,  // measure 49
00000001
00000010
00000100
00010000
00011000
00000000
00001000
01001000
,  // measure 50
00000000
01000000
01100000
00000000
00100000
10100000
00000000
10000000
,  // measure 51
01000000
00010000
00001000
00000100
00000110
00000000
00000010
00001010
,  // measure 52
00000000
00001000
00001001
00000000
00000001
00000101
00000000
00000100
,  // measure 53
00001000
00000000
00010000
00000000
01000000
00000000
10000000
00000000
00020000
00000000
00000000
00000000
00030000
00000000
10000000
01000000
,  // measure 54
00000000
00000000
01000000
00010000
00000000
00000000
00010000
00001000
00000000
00000000
00000100
00000000
00000010
00000000
00001000
00000000
,  // measure 55
00000001
00000010
00000100
00010000
00001000
01000000
00100000
01000000
,  // measure 56
00001000
00010000
00000100
00000010
00000001
00000100
00001000
00010000
,  // measure 57
00100000
00000000
00010000
00000000
00001000
00000000
00000000
00000000
00001200
00000000
00000000
00000000
00000300
00000000
00000001
00000010
,  // measure 58
00000000
00000000
00000010
00001000
00000000
00000000
00001000
00010000
00000000
00000000
01000000
00000000
10000000
00000000
00100000
00000000
,  // measure 59
00010000
00001000
00000100
00000010
00001000
00000100
00010000
00001000
,  // measure 60
00100000
00010000
00100000
00001000
00010000
00001000
00000100
00000010
,  // measure 61
00001000
00000100
00010000
00001000
01001000
00000000
01100000
00000000
,  // measure 62
10100000
00000000
00000000
10000000
01000000
10000000
00010000
01000000
00010000
00100000
00001000
00100000
,  // measure 63
00010000
00000000
01010000
00000000
01001000
00000000
00011000
00000000
00010000
00000100
00000000
00000000
,  // measure 64
00000100
00000010
00000001
00000100
00000000
00000000
00000110
00000000
00000010
00010000
00000000
00010000
,  // measure 65
00001000
00000000
00000000
01001000
00000000
00000000
01100000
00000000
00100000
10000000
00000000
10000000
,  // measure 66
01000000
00000000
00000000
01100000
00000000
00000000
00101000
00000000
00001000
00010000
00000000
00010000
,  // measure 67
00000100
00000000
00000010
00000001
00000000
00000000
00000100
00000000
00000010
00010000
00000000
00000000
,  // measure 68
00001000
00000000
00000000
00000000
01000000
00000000
00000000
00000000
00010000
00000000
00000000
00000000
10000000
00000000
00000000
01000000
00000000
00000000
10000000
00000000
00000000
01000000
00000000
00000000
00100000
00000000
00000000
00000000
00000000
00000000
00000000
00000000
00000000
00000000
00000000
00000000
00010000
00000000
00000000
00000000
00000000
00000000
02000000
00000000
00000000
00000000
00000000
00000000
,  // measure 69
00100000
00000000
03010000
00000000
10000000
01000000
00010000
01000000
,  // measure 70
00001000
00000100
00000001
00000100
00001000
00000000
00000001
00000200
,  // measure 71
00000010
00000000
00001300
00000000
00010000
01000000
10000000
00100000
,  // measure 72
00010000
00000000
00001000
00000000
00010000
00000010
00010000
00000010
00001000
00000000
00000000
00000000
00000001
00000000
00000020
00000000
,  // measure 73
00000100
00000000
00001030
00000000
00010000
01000000
10000000
01000000
,  // measure 74
00100000
00000000
00001000
00000000
00000100
00000000
00000010
00000000
00001000
00000000
00000001
00000100
00000001
00000000
00001000
00000000
,  // measure 75
00000100
00000000
00010000
00000000
00001000
00000000
01000000
00000000
00100000
00000000
10000000
01000000
10000000
00000000
00010000
00000000
,  // measure 76
00100000
00000000
00001000
00000000
00010000
00000100
00010000
00000100
00000010
00000000
00000000
00000000
00000001
00000000
00000200
00000000
,  // measure 77
00001000
00000000
00000310
00000000
00010000
00001000
00010000
01000000
,  // measure 78
10000000
00100000
10000000
01000000
00010000
00000000
00001000
02000000
,  // measure 79
00100000
00000000
13000000
00000000
01000000
00010000
00100000
00001000
,  // measure 80
00000100
00000000
00000010
00000000
00001000
00000001
00001000
00000001
00000010
00000000
00000000
00000000
00000100
00000000
00002000
00000000
,  // measure 81
00000010
00000000
00013000
00000000
01000000
00100000
01000000
00010000
,  // measure 82
00100000
00001000
00010000
00001000
00000100
00000110
00000000
00001000
,  // measure 83
00011000
00000000
01000000
01100000
00000000
00010000
01010000
00000000
,  // measure 84
10000000
11000000
00000000
00000000
00100000
00101000
00000000
00000100
,  // measure 85
00001100
00000000
00000001
00000101
00000000
00000010
00010010
00000000
,  // measure 86
00011000
00011000
00000000
00000000
10000000
01000000
00010000
00001000
,  // measure 87
00000010
00000001
00000001
00000100
00001000
00010000
00100000
10000000
,  // measure 88
10000000
01000000
00010000
00001000
00000100
00000001
00000110
00001001
;

//---------------dance-double - ----------------
#NOTES:
     dance-double:
     :
     Easy:
     8:
     0.385,0.447,0.009,0.000,0.009: // measure 1
00000000
00000000
00000000
00000000
,  // measure 2
00000000
00000000
00000000
00000000
,  // measure 3
00000000
00000000
00000000
00000000
,  // measure 4
00000000
00000000
00000000
00000000
,  // measure 5
10000000
00000000
00000000
00010000
00000000
01000000
00000000
00000000
,  // measure 6
00001000
00000000
00010000
00000000
00000000
00000010
00000000
00000100
,  // measure 7
00000000
00000000
00000001
00000000
00000010
00000000
00000000
00000100
,  // measure 8
00000000
00010000
00000000
00000000
00001000
00000000
01000000
00000000
,  // measure 9
00010000
00100000
01000000
10000000
,  // measure 10
01000000
00100000
00001000
00010000
,  // measure 11
00000100
00001000
00000010
00000100
,  // measure 12
00000001
00000100
00000010
00010000
,  // measure 13
00001000
01000000
00100000
10000000
,  // measure 14
01000000
00100000
01000000
10000000
,  // measure 15
00010000
00100000
00001000
00010000
,  // measure 16
00000100
00001000
00000010
00000100
,  // measure 17
00000001
00000001
00000010
00000010
,  // measure 18
00000100
00010000
00001000
00000000
,  // measure 19
01000000
01000000
00010000
00010000
,  // measure 20
00100000
01000000
10000000
00000000
,  // measure 21
01000000
01000000
00010000
00010000
,  // measure 22
00001000
00010000
00001000
00000000
,  // measure 23
00000100
00000100
00000010
00000010
,  // measure 24
00001000
00000001
00000010
00000000
,  // measure 25
00000100
00000000
00000000
00010000
00000000
00000000
00001000
00000000
,  // measure 26
00000000
00100000
00000000
00000000
01000000
00000000
00000000
00000000
,  // measure 27
10000000
00000000
00000000
01000000
00000000
00000000
00010000
00000000
,  // measure 28
00000000
00001000
00000000
00000000
00010000
00000000
00000000
00000000
,  // measure 29
00000000
00000000
00000100
00001000
,  // measure 30
00000010
00000100
00000001
00001000
,  // measure 31
00000100
00010000
00001000
00100000
,  // measure 32
00010000
01000000
00010000
00100000
,  // measure 33
01000000
10000000
01000000
00100000
,  // measure 34
00001000
00010000
00000100
00001000
,  // measure 35
00000010
00000100
00000001
00000010
,  // measure 36
00000100
00001000
00000100
00010000
,  // measure 37
00001000
01000000
00100000
00100000
,  // measure 38
10000000
10000000
00010000
00100000
,  // measure 39
00001000
00010000
00000010
00000010
,  // measure 40
00000100
00000100
00000001
00000010
,  // measure 41
00000100
00000000
00010000
00010000
,  // measure 42
00001000
00001000
01000000
00100000
,  // measure 43
10000000
01000000
00100000
00100000
,  // measure 44
00001000
00001000
00010000
00000100
,  // measure 45
00001000
00000000
00000010
00000000
00000100
00000000
00000000
00000001
,  // measure 46
00000000
00000000
00001000
00000000
00000000
00000100
00000000
00000000
,  // measure 47
00010000
00000000
00001000
00000000
00100000
00000000
00000000
01000000
,  // measure 48
00000000
00000000
10000000
00000000
00000000
01000000
00000000
00000000
,  // measure 49
00010000
00000000
00001000
00000000
00010000
00000000
00000000
00000100
,  // measure 50
00000000
00000000
00001000
00000000
00000000
00000010
00000000
00000000
,  // measure 51
00000100
00000000
00001000
00000000
00010000
00000000
00000000
00001000
,  // measure 52
00000000
00000000
00100000
00000000
00000000
01000000
00000000
00000000
,  // measure 53
10000000
01000000
00010000
00000000
,  // measure 54
00001000
00000000
00000100
00000001
,  // measure 55
00000010
00000100
00010000
00000000
,  // measure 56
00001000
00000000
01000000
00100000
,  // measure 57
10000000
00010000
00100000
00000000
,  // measure 58
01000000
00000000
00010000
00001000
,  // measure 59
00010000
01000000
00100000
00000000
,  // measure 60
00001000
00000000
00010000
00000010
,  // measure 61
00000100
00000001
00000100
00001000
,  // measure 62
00011000
00000000
00010000
00001000
,  // measure 63
01000000
00000000
01000000
00000000
01000000
00000000
01000000
00000000
00000000
00000000
00000000
00000000
,  // measure 64
00100000
00000000
10000000
00010000
,  // measure 65
01000000
00000000
00001000
00010000
,  // measure 66
00000100
00000000
00001000
00000010
,  // measure 67
00000100
00000000
00000001
00000000
00000010
00000000
00000000
00000100
,  // measure 68
00000000
00000000
00010000
00001000
,  // measure 69
01000000
00000000
00100000
00000000
10000000
00000000
00000000
01000000
,  // measure 70
00000000
00100000
00000000
00001000
,  // measure 71
00010000
00000000
00000100
00000000
00001000
00000000
00000000
00000010
,  // measure 72
00000000
00000000
00000100
00000001
,  // measure 73
00001000
00000000
00000100
00000000
00010000
00000000
00000000
00001000
,  // measure 74
00000000
00000000
01000000
00000000
00100000
00000000
00000000
10000000
,  // measure 75
00000000
00000000
01000000
00000000
00100000
00000000
00000000
00001000
,  // measure 76
00000000
00000000
00010000
00000000
00000100
00000000
00000000
00001000
,  // measure 77
00000000
00000010
00000100
00000001
,  // measure 78
00000010
00000000
00000100
00000000
00010000
00000000
00000000
00001000
,  // measure 79
00000000
01000000
00100000
10000000
,  // measure 80
01000000
00000000
01000000
00000000
10000000
00000000
00000000
00100000
,  // measure 81
00000000
01000000
00001000
00010000
,  // measure 82
00000010
00000000
00001000
00000000
00000100
00000100
00000000
00000010
,  // measure 83
00000010
00000000
00000001
00000001
00000000
00001000
00001000
00000000
,  // measure 84
00000010
00000010
00000000
00000000
00010000
00001000
00000000
00001000
,  // measure 85
00100000
00000000
00100000
00010000
00000000
00010000
10000000
00000000
,  // measure 86
10000000
00100000
00000000
00000000
01000000
00000000
00000000
00001000
,  // measure 87
00000000
00000000
00010000
00000000
00000000
00000010
00000000
00000000
,  // measure 88
00001000
00000000
00000000
00000100
00000000
00000000
00000010
00000001
;

//---------------dance-double - ----------------
#NOTES:
     dance-double:
     :
     Medium:
     12:
     0.635,0.773,0.194,0.250,0.019: // measure 1
00000000
00000000
00000000
00000000
,  // measure 2
00000000
00000000
00000000
00000000
,  // measure 3
00000000
00000000
00000000
00000000
,  // measure 4
00000000
00000000
00000000
00000000
,  // measure 5
00000100
00010000
00001000
00010000
00000000
00001000
00100000
00010000
,  // measure 6
00100000
00000000
00010000
01000000
00100000
01000000
00000000
00100000
,  // measure 7
10000000
01000000
10000000
00000000
01000000
00100000
00010000
00100000
,  // measure 8
00000000
00001000
00010000
00001000
00000100
00000000
00000010
00001000
,  // measure 9
00000100
00000010
00000011
00000001
,  // measure 10
00000100
00000010
00010010
00010000
,  // measure 11
00001000
00100000
01100000
01000000
,  // measure 12
10000000
00010000
01010000
01000000
,  // measure 13
00001000
00010000
00010100
00000100
,  // measure 14
00000010
00000001
00000101
00000100
,  // measure 15
00001000
00010000
00011000
00001000
,  // measure 16
00100000
01000000
21000000
30020000
,  // measure 17
01030000
00100000
01000000
00000000
00100000
10000000
00100000
00000000
,  // measure 18
10000000
01000000
00100000
00000000
00001000
00000000
00010000
00000000
,  // measure 19
00000100
00001000
00000100
00000000
00001000
00000010
00001000
00000000
,  // measure 20
00000100
00000001
00001000
00000000
00000100
00000000
00010000
00000000
,  // measure 21
00001000
00100000
00001000
00000000
00100000
01000000
00100000
00000000
,  // measure 22
01000000
10000000
00010000
00000000
01000000
00000000
00001000
00000000
,  // measure 23
00010000
00000100
00010000
00000000
00000010
00000100
00000010
00000000
,  // measure 24
00001000
00000100
00000010
00000000
00000001
00000000
00000100
00000000
,  // measure 25
00000010
00010000
00000000
00010000
00001000
00000000
00001000
01000000
,  // measure 26
00000000
01000000
00100000
00000000
00100000
10000000
00000000
00010000
,  // measure 27
10000000
01000000
00000000
01000000
00100000
00000000
00100000
00001000
,  // measure 28
00000000
00001000
00010000
00000000
00010000
00000100
00010000
00000100
,  // measure 29
00000000
00000010
00000110
00000000
00000001
00000100
00000001
00000000
,  // measure 30
00000100
00000010
00000000
00000010
00010000
00000000
00010000
00001000
,  // measure 31
00000000
00001000
00100000
00000000
01000000
10000000
01000000
00000000
,  // measure 32
01000000
00100000
00000000
00100000
00001000
00000000
00001000
00010000
,  // measure 33
00000000
00010000
00000100
00000000
00000010
00000001
00000100
00000000
,  // measure 34
00000010
00010000
00000000
00001000
00100000
00000000
00010000
01000000
,  // measure 35
00000000
00010000
00100000
00000000
01000000
10000000
00100000
00000000
,  // measure 36
01000000
00010000
00000000
00100000
00001000
00000000
00010000
00000100
,  // measure 37
00000000
00000010
00000001
00000000
00000100
00000010
00000100
00000000
,  // measure 38
00000001
00001000
00000100
00000000
00010000
00001000
00100000
01000000
,  // measure 39
00100000
00010000
01000000
00000000
00100000
10000000
01000000
00010000
,  // measure 40
01000000
00100000
00001000
00010000
00001000
00000100
00000010
00000000
,  // measure 41
00001000
00000100
00000010
00000000
00000001
00000100
00000001
00000100
,  // measure 42
00000010
00001000
00000100
00000000
00010000
00001000
00100000
00000000
,  // measure 43
00010000
01000000
00100000
00000000
10000000
01000000
10000000
00000000
,  // measure 44
00010000
01000000
00001000
00000000
00010000
00000100
00000010
00000001
,  // measure 45
00000100
00000010
00001000
00000000
00000100
00000000
00010000
00001000
,  // measure 46
00000000
00001000
01000000
00000000
00100000
10000000
00000000
10000000
,  // measure 47
01000000
00100000
00001000
00010000
00001000
00000000
01000000
00100000
,  // measure 48
00000000
00100000
10000000
00000000
00010000
01000000
00000000
00001000
,  // measure 49
00010000
00000100
00000010
00000001
00000100
00000000
00000010
00010000
,  // measure 50
00000000
00010000
00001000
00000000
00100000
00010000
00000000
01000000
,  // measure 51
00100000
10000000
01000000
00100000
00001000
00000000
00001000
00010000
,  // measure 52
00000000
00010000
00000100
00000000
00000010
00000001
00000000
00000001
,  // measure 53
00000100
00000010
00010000
00001000
00010000
00000000
01000000
10000000
,  // measure 54
00000000
10000000
01000000
00000000
00100000
00001000
00000000
00010000
,  // measure 55
00000000
00001000
00000100
00000000
00000010
00000000
00001000
00000001
,  // measure 56
00000000
00000001
00000010
00000000
00000100
00010000
00000000
00001000
,  // measure 57
00000000
00010000
01000000
00000000
00100000
00000000
00001000
00010000
,  // measure 58
00000000
00010000
01000000
00000000
10000000
00100000
00000000
00010000
,  // measure 59
00000000
00001000
00010000
00000000
00001000
00000000
00000100
00000010
,  // measure 60
00000000
00000010
00001000
00000000
00000001
00000010
00000000
00000100
,  // measure 61
00000000
00000010
00000001
00000000
00001000
00000000
00001100
00000000
,  // measure 62
00010100
00000000
00000000
00010000
00000000
00000000
00001000
01000000
00001000
01000000
00000000
00000000
,  // measure 63
00100000
00000000
00100000
00000000
00100000
00000000
10000000
00000000
00000000
00010000
00000000
00000000
,  // measure 64
00100000
00010000
00110000
01010000
,  // measure 65
01000000
00100000
10100000
11000000
,  // measure 66
01000000
00100000
00001000
00010000
,  // measure 67
00000100
00000010
00000001
00000100
,  // measure 68
00000010
00001000
00000100
00001000
00000020
00000000
00000000
00000032
,  // measure 69
00000000
00001003
00000100
00010000
,  // measure 70
00001000
00000000
00100000
00000000
00020000
00000000
00000000
02030000
,  // measure 71
00000000
03100000
10000000
01000000
,  // measure 72
00100000
00001000
00010000
00001000
00000200
00000000
00000000
00000320
,  // measure 73
00000000
00001030
00000100
00010000
,  // measure 74
00001000
00100000
00010000
00000000
01000000
01000000
00000000
00100000
,  // measure 75
00100000
00000000
10000000
01000000
00100000
00100000
00000000
00001000
,  // measure 76
00001000
00000000
00010000
00000100
00000020
00000000
00000000
00000032
,  // measure 77
00000000
00001003
00000010
00000100
,  // measure 78
00001000
00000000
00010000
00000000
00200000
00000000
00000000
02300000
,  // measure 79
00000000
03010000
00100000
01000000
,  // measure 80
10000000
01000000
00100000
01000000
00020000
00000000
00000000
00032000
,  // measure 81
00000000
00003100
00000010
00001000
,  // measure 82
00000001
00000000
00000010
00000000
00000100
00010000
00000000
00010000
,  // measure 83
00001000
00000000
00001000
00100000
00000000
00100000
00010000
00000000
,  // measure 84
00010000
01000000
00000000
00000000
01000000
00010000
00000000
00010000
,  // measure 85
00100000
00000000
00100000
00001000
00000000
00001000
00010000
00000000
,  // measure 86
00010000
00000100
00000000
00000000
00000220
00000300
00000030
00000022
,  // measure 87
00000030
00000003
00000202
00000003
00000300
00002200
00000300
00003000
,  // measure 88
00022000
00003000
00030000
02020000
00030000
03000000
02000000
13000000
;

//---------------dance-single - ----------------
#NOTES:
     dance-single:
     :
     Beginner:
     3:
     0.193,0.244,0.000,0.000,0.000:
0000
0000
0000
0000
,
0000
0000
0000
0000
,
0000
0000
0000
0000
,
0000
0000
0000
0000
,
0001
0000
0000
0000
0000
0001
0000
0000
,
0000
0000
0001
0000
0000
0000
0000
0001
,
0000
0000
0001
0000
,
0000
0001
0000
0000
0000
0000
0000
0000
,
1000
0000
1000
0000
,
0001
0000
0001
0000
,
1000
0000
1000
0000
,
0001
0000
0001
0000
,
1000
0000
1000
0000
,
0001
0000
0001
0000
,
1000
0000
1000
0000
,
0001
0000
0001
0000
,
0100
0000
0100
0000
,
0010
0000
0010
0000
,
0100
0000
0100
0000
,
0010
0000
0010
0000
,
0100
0000
0100
0000
,
0010
0000
0010
0000
,
0100
0000
0100
0000
,
0010
0000
0010
0000
,
1000
0000
0000
1000
0000
0000
1000
0000
,
0000
1000
0000
0000
1000
0000
0000
0000
,
0001
0000
0000
0001
0000
0000
0001
0000
,
0000
0001
0000
0000
0001
0000
0000
0000
,
0000
0000
0100
0000
,
0100
0000
0100
0000
,
0000
0000
0010
0000
,
0010
0000
0010
0000
,
0000
0000
1000
0000
,
1000
0000
1000
0000
,
0000
0000
0001
0000
,
0001
0000
0001
0000
,
0000
0000
0010
0000
,
0010
0000
0010
0000
,
0000
0000
0100
0000
,
0100
0000
0100
0000
,
0000
0000
1000
0000
,
1000
0000
0001
0000
,
0000
0000
0001
0000
,
0001
0000
1000
0000
,
0000
0000
0000
0000
0010
0000
0000
0010
,
0000
0010
0000
0000
,
0000
0000
0000
0000
0100
0000
0000
0100
,
0000
0100
0000
0000
,
0000
0000
0000
0000
0001
0000
0000
0001
,
0000
0001
0000
0000
,
0000
0000
0000
0000
1000
0000
0000
1000
,
0000
1000
0000
0000
,
0000
0000
0100
0000
,
0100
0000
0100
0000
,
0100
0000
0010
0000
,
0010
0000
0010
0000
,
0010
0000
0001
0000
,
0001
0000
0001
0000
,
0001
0000
1000
0000
,
1000
0000
1000
0000
,
1000
0000
0100
0000
,
0100
0000
0000
0000
,
0010
0000
0010
0000
,
0000
0000
0001
0000
,
1000
0000
1000
0000
,
0001
0000
0100
0000
,
0100
0000
0000
0000
,
0000
0000
0010
0000
,
0000
0000
1000
0000
,
1000
0000
0001
0000
,
0001
0000
0100
0000
,
0000
0000
0010
0000
,
0100
0000
0001
0000
,
0001
0000
1000
0000
,
1000
0000
0100
0000
,
0100
0000
0010
0000
,
0000
0000
0001
0000
,
0001
0000
1000
0000
,
1000
0000
0010
0000
,
0000
0000
0100
0000
,
0000
0000
0001
0000
,
0001
0000
1000
0000
,
0000
1000
0000
0000
,
1000
0000
0001
0000
,
0000
0001
0000
0000
,
0001
0000
0000
0000
1000
0000
0000
1000
,
0000
0000
1000
0000
0000
0001
0000
0000
,
0001
0000
0000
0001
0000
0000
0100
0000
;
