#TITLE:Programmed World;
#SUBTITLE:;
#ARTIST:kors k as StripE;
#TITLETRANSLIT:;
#SUBTITLETRANSLIT:;
#ARTISTTRANSLIT:;
#GENRE:;
#CREDIT:Silverhawke;
#MENUCOLOR:;
#METERTYPE:DDR;
#BANNER:Programmed World.png;
#BACKGROUND:Programmed World-bg.png;
#LYRICSPATH:;
#CDTITLE:cdtitle.png;
#MUSIC:Programmed World.mp3;
#OFFSET:-0.025;
#SAMPLESTART:40.801;
#SAMPLELENGTH:15.000;
#SELECTABLE:YES;
#LISTSORT:;
#DISPLAYBPM:153.000;
#BPMS:0.000=153.000,64.000=136.000,64.500=123.000,65.000=107.000,65.500=87.000,66.000=66.000,66.500=32.000,67.000=306.000,68.000=153.000;
#STOPS:67.000=0.459
,258.750=0.392
;
#BGCHANGES:;
#ATTACKS:;

//---------------dance-single - ----------------
#NOTES:
     dance-single:
     :
     Hard:
     15:
     0.667,0.826,0.075,0.243,0.796:
0000
0000
0000
0000
,
0000
0000
0000
0000
,
0000
0000
0000
0000
,
0000
0000
0000
0000
,
0000
0000
0000
0000
,
0000
0000
0000
0000
,
2000
0000
0000
3200
0000
0000
0320
0000
,
0001
0100
0001
0100
,
0032
0000
0000
0203
0000
0000
0320
0000
,
1000
0100
1000
0130
,
1001
0000
1000
0100
1000
0000
0001
0000
,
0100
1000
0010
0001
,
0100
0000
0010
1000
0010
0000
0100
0000
,
0001
0010
1000
0100
,
0001
0000
0010
0100
0010
0000
0001
0000
,
0100
1000
0010
0001
,
0200
0000
0000
0000
0000
0000
0000
0000
0000
0000
0000
0000
0000
0000
0000
0000
0000
0000
0000
0000
0000
0000
0000
0000
0000
0300
0000
0000
0000
0000
0000
0000
,
0010
0000
1000
0100
1000
0000
0010
0100
0000
0001
0000
1000
0000
0100
0010
0000
,
0001
1000
0001
0000
0010
0000
0100
0000
1000
0010
1000
0000
0100
0000
0010
0000
,
0001
0000
0100
0010
0100
0000
0010
1000
0000
0100
0000
0010
0000
0100
1000
0000
,
0100
0010
0000
0000
0001
0000
0001
0100
0001
0000
1000
0000
0001
0000
0010
0100
,
0010
0000
0001
0100
0001
0000
1000
0100
0000
0010
0000
0001
0000
0100
0010
0000
,
1000
0010
1000
0000
0100
0000
0100
0000
0010
0001
0010
0000
0001
0000
1000
0000
,
0110
0000
0000
0000
0010
1000
0000
0001
0000
1000
0000
0100
0010
0100
0000
1000
,
0001
0100
0001
1000
0100
1000
0001
0100
0001
1000
0100
1000
0010
0100
0010
0100
,
0010
0000
1000
0100
0010
0000
0001
0100
0000
0010
0000
1000
0000
0010
0100
0000
,
0010
1000
0001
0000
0010
0000
0100
0000
1000
0100
0010
0000
0100
0000
1000
0000
,
0001
0000
0100
0010
1000
0000
0100
0010
0000
0100
0000
1000
0000
0001
0100
0000
,
0010
1000
0000
0000
0100
0000
0100
0010
0001
0000
1000
0000
0001
0000
0100
0010
,
1000
0000
0001
0010
0100
0000
1000
0010
0000
0100
0000
0010
0000
1000
0100
0000
,
0010
0001
0100
0000
0010
0000
0010
0000
0100
0010
1000
0000
0100
0000
0010
0000
,
1001
0000
0000
0000
1000
0100
0000
0010
0000
0001
0000
0100
0010
1000
0000
0100
,
0010
0001
0100
0000
0100
0000
0010
1000
0100
0000
0100
1000
0010
0000
0000
0000
,
0102
0000
0000
2003
0000
0000
3020
0000
,
0000
0000
0000
0030
,
0210
0000
0000
0302
0000
0000
0013
0200
,
0000
0000
0000
0300
,
2100
0000
0000
3002
0000
0000
0203
0000
,
0000
0000
0000
0300
,
0102
0000
0000
0023
0000
0000
0230
0000
,
2000
0000
0000
3300
,
1100
1000
0100
0100
,
0001
0001
0010
0010
,
1000
0100
0001
0010
,
1000
0100
0001
0010
,
1000
0100
1000
0010
0100
0001
0010
1000
,
0010
0100
0001
0100
1000
0010
0100
0001
,
0010
0001
0010
0001
1000
0010
1000
0010
1000
0100
0010
0001
0010
0100
1000
0001
,
0200
0000
0000
0000
0000
0000
0000
0000
0310
1000
0010
1000
0001
0010
0100
1000
,
0001
0000
0100
0000
0010
0000
1000
0100
0000
1000
0000
0010
0000
0100
0001
0010
,
0100
0000
1000
0000
0010
0000
0100
0010
0000
0100
0000
0001
0000
0010
0100
1000
,
0100
0000
0010
0000
0001
0000
0100
0010
0000
0100
0000
0001
0000
1000
0100
0010
,
0001
0000
0100
0010
0000
0100
0010
1000
0100
0000
0010
0001
0000
0010
0000
0100
,
1000
0000
0010
0000
0100
0000
0001
1000
0000
0100
0000
0010
0000
0100
1000
0001
,
0100
0000
0010
0000
0100
0000
0001
0010
0000
0100
0000
1000
0000
0100
0010
0100
,
1000
0000
0001
0000
0100
0000
0010
0100
0000
0001
0000
1000
0000
0100
0010
0001
,
0200
0000
0310
1001
,
0010
0000
0100
0000
0001
0000
1000
0100
0000
0010
0000
0100
0000
1000
0001
0100
,
0010
0000
0100
0000
0010
0000
1000
0100
0000
0010
0000
0100
0000
1000
0001
0100
,
0010
0000
0100
0000
0001
0000
1000
0100
0000
0010
0000
0100
0000
1000
0001
0010
,
0100
0000
1000
0010
0000
1000
0100
0010
0001
0000
0100
0001
0000
0010
0000
0100
,
2000
3100
0020
0031
2000
3100
0020
0031
,
2000
0000
3010
0100
0010
0000
0100
0000
0002
0000
0013
0100
0010
0000
0100
0000
,
1000
0010
1000
0010
0100
0000
0100
0000
0001
0010
0001
0010
0100
0000
0100
0000
,
1000
0000
0010
0000
0100
0000
0010
0000
1000
0000
0000
0000
1000
0000
0000
0000
0001
0000
0010
0000
0100
0000
0020
0030
0001
0000
0000
0000
0100
0000
0000
0000
,
1000
0000
0100
0010
0000
1000
0000
0100
0000
0010
0100
1000
0001
0000
0100
0000
,
1000
0000
0100
0010
0000
1000
0000
0100
0000
0010
0001
0100
0001
0000
0010
0000
,
0100
0000
1000
0100
0000
0001
0000
0100
0000
1000
0010
0100
0001
0000
0010
0100
,
0000
1000
0100
0010
0100
0000
1000
0010
0000
0001
0000
0010
0100
0000
0001
0000
,
0010
0000
0100
1000
0000
0100
0000
0010
0000
0001
0100
0010
0100
0000
1000
0000
,
0100
0000
0010
1000
0000
0100
0000
0001
0000
0100
0010
0001
0100
0000
0010
0000
,
1000
0000
0100
0010
0000
0100
0000
0001
0000
0100
0010
0001
0100
0000
0010
1000
,
0000
0100
0010
0001
0100
0010
0100
0010
1000
0100
0010
0001
0100
0000
0000
0100
;

//---------------dance-single - ----------------
#NOTES:
     dance-single:
     :
     Medium:
     11:
     0.466,0.581,0.059,0.260,0.017:
0000
0000
0000
0000
,
0000
0000
0000
0000
,
0000
0000
0000
0000
,
0000
0000
0000
0000
,
0000
0000
0000
0000
,
0000
0000
0000
0000
,
0002
0000
0000
2003
0000
0000
3200
0000
,
0000
0010
0000
0010
,
0000
1000
0000
1300
,
2002
0000
0000
3003
,
0001
0100
0010
0100
,
0001
0010
1000
0100
,
0001
1000
0100
0010
,
0100
0000
1000
0000
0001
0100
0010
0000
,
1000
0100
0001
0010
,
1000
0000
0001
0000
0010
0100
0010
0000
,
2002
0000
0000
3003
,
0001
1000
0100
0000
0010
0100
1000
0000
,
0001
0100
0001
0100
0010
0100
0001
0000
,
1000
0010
0100
0000
0010
1000
0100
0000
,
0001
0100
1000
0100
0001
0100
0010
0000
,
0001
0100
0010
0000
1000
0001
0100
0000
,
0001
1000
0100
0010
0100
1000
0001
0000
,
0101
0000
1100
1000
0010
0100
0001
0000
,
1000
0000
0000
0100
0000
0000
0010
0000
0000
0001
0000
0000
1000
0001
1000
0000
,
0001
0000
0010
0100
0001
1000
0100
0000
,
0010
0100
1000
0001
2000
0000
3001
0000
,
0100
0000
0010
1000
0100
0010
0001
0000
,
1000
0001
1000
0100
0020
0000
0031
0000
,
0100
0000
0010
0100
0001
1000
0100
0000
,
0010
0100
1000
0001
0200
0000
0301
0000
,
0100
0000
0010
1000
0001
0010
0100
0000
,
0010
0001
1000
0010
0100
0100
0001
0000
,
2000
0000
0000
3200
0000
0000
0320
0000
,
0000
0000
0000
0000
,
0032
0000
0000
0203
0000
0000
0310
2000
,
0000
0000
0000
0000
,
3200
0000
0000
0320
0000
0000
0032
0000
,
0000
0000
0000
0000
,
0203
0000
0000
0320
0000
0000
1030
0000
,
1001
0000
0000
0000
,
0001
0001
0010
0010
,
1000
1000
0100
0100
,
0001
0010
1000
0100
,
0001
0100
1000
0010
,
0001
0010
0001
0000
0001
0100
0001
0000
,
1000
0010
1000
0000
1000
0100
1000
0000
,
0001
0100
1000
0100
0001
0010
1000
0010
,
0002
0000
2003
3100
,
0010
0100
1000
0000
0100
0010
0001
0100
,
0010
1000
0001
0000
0100
0001
0100
0010
,
1000
0100
0010
0000
0100
1000
0001
0100
,
0010
0100
0001
0000
1000
0100
0010
0000
,
0010
0100
0001
0000
0100
0010
1000
0100
,
0010
0001
1000
0000
0100
1000
0100
0010
,
0001
0100
0010
0000
0100
0001
1000
0100
,
0010
0100
1000
0000
1001
0000
0110
0000
,
0010
1000
0100
0010
0100
1000
0010
0000
,
0100
0001
0010
0100
0010
0001
0100
0000
,
0001
1000
0100
0010
0100
1000
0001
0000
,
1000
0001
0100
0010
0100
0001
1000
0000
,
0001
0100
0010
0000
0001
0100
0010
0000
,
0001
0100
1000
0000
0001
0100
1000
0000
,
0002
0023
0130
0000
0002
0023
0130
0000
,
2000
3020
0130
0000
2000
3020
0130
0001
,
1000
0000
0100
0010
0100
1000
0010
0100
,
0001
0000
1000
0100
0010
0001
0100
1000
,
0100
0000
0010
1000
0100
0001
0100
0010
,
0001
0000
0100
1000
0100
0000
0010
1000
,
0100
0000
0001
0100
1000
0010
0100
0001
,
0010
0000
1000
0010
0100
0001
0100
1000
,
0010
0000
0100
1000
0100
0001
0010
0100
,
1000
0000
0010
0000
0001
0000
0010
0000
1000
0000
0100
0000
0010
0000
0000
0010
;

//---------------dance-single - ----------------
#NOTES:
     dance-single:
     :
     Easy:
     7:
     0.335,0.397,0.025,0.109,0.000:
0000
0000
0000
0000
,
0000
0000
0000
0000
,
0000
0000
0000
0000
,
0000
0000
0000
0000
,
0000
0000
0000
0000
,
0000
0000
0000
0000
,
0010
0000
0000
1000
0000
0000
0100
0000
,
0000
0100
0000
0100
,
0010
0000
0000
0001
0000
0000
0100
0000
,
0010
0100
0100
0100
,
0001
1000
0001
1000
,
0100
0010
0100
0010
,
0001
0100
1000
0100
,
0001
0010
1000
0010
,
0001
0100
0010
1000
,
0100
0010
0001
1000
,
0200
0000
0000
0300
,
0010
0010
0001
0100
,
0010
0000
0010
0000
1000
0100
1000
0000
,
0001
0001
0100
0010
,
1000
0000
1000
0000
0100
0010
0001
0000
,
1000
1000
0100
0010
,
0001
0000
0001
0000
0100
0010
0100
0000
,
0001
0000
0001
0000
1000
0100
0010
0000
,
0001
0000
0000
1000
0000
0000
0001
1000
,
0001
0000
0100
0000
0010
0100
0001
0000
,
1000
0000
0100
0000
0010
0001
0010
0000
,
0100
0000
1000
0000
0001
0100
0010
0000
,
1000
0000
0001
0000
0100
0010
0100
0000
,
0001
0000
1000
0000
0100
0010
0001
0000
,
0100
0000
0010
0000
1000
0001
1000
0000
,
0100
0000
0010
0000
0001
0100
0010
0000
,
1000
0100
0010
0000
0010
0100
1000
0000
,
0001
0000
0000
0100
0000
0000
0020
0000
,
0000
0000
0000
0030
,
1000
0000
0000
0100
0000
0000
0020
0000
,
0000
0000
0000
0030
,
0001
0000
0000
0010
0000
0000
0200
0000
,
0000
0000
0000
0300
,
1000
0000
0000
0010
0000
0000
0100
0000
,
0110
0000
0000
0000
,
0001
0001
0001
0001
,
0100
0100
0100
0100
,
1000
1000
1000
1000
,
0010
0010
0010
0010
,
0001
0001
0100
0100
,
1000
1000
0010
0010
,
0001
0100
1000
0010
,
0001
0000
1000
1001
,
0001
0001
0100
0010
,
1000
1000
0100
0010
,
0001
0100
0010
1000
,
0100
0000
0010
0000
0001
1000
0010
0000
,
1000
1000
0100
0010
,
0001
0001
0100
0010
,
1000
0100
0010
0001
,
0100
0000
1001
0000
,
0001
0100
0010
0100
,
0001
1000
0100
0010
,
0100
1000
0010
0100
,
0001
0000
1000
0000
0100
0010
0001
0000
,
2000
3100
2000
3100
,
0020
0031
0020
0031
,
2000
3010
2000
3010
,
0200
0301
0200
0301
,
1000
0000
0100
0010
0100
0000
1000
0000
,
0001
0000
0100
0010
0100
0000
0001
0000
,
0010
0000
0100
1000
0001
0000
1000
0000
,
0010
0000
0100
0001
1000
0000
0001
0000
,
0100
0000
0010
1000
0100
0000
1000
0000
,
0100
0000
0010
0001
0100
0000
0010
1000
,
0100
0000
0010
0100
1000
0000
0001
0000
,
0100
0000
0000
0000
0010
0000
1000
0000
0001
0000
1000
0000
0200
0000
0000
0300
;

//---------------dance-single - ----------------
#NOTES:
     dance-single:
     :
     Beginner:
     3:
     0.151,0.183,0.000,0.042,0.000:
0000
0000
0000
0000
,
0000
0000
0000
0000
,
0000
0000
0000
0000
,
0000
0000
0000
0000
,
0000
0000
0000
0000
,
0000
0000
0000
0000
,
1000
0000
0000
0000
,
0000
0000
0000
0000
,
0001
0000
0000
0000
,
0000
0000
0000
0000
,
0100
0000
0100
0000
,
0100
0000
0000
0000
,
0010
0000
0010
0000
,
0010
0000
0000
0000
,
1000
0000
1000
0000
,
0001
0000
0001
0000
,
0200
0000
0000
0300
,
0000
0001
0000
0001
,
0000
1000
0000
1000
,
0000
0001
0000
0001
,
0001
0000
0000
0000
,
0100
0000
0100
0000
,
0010
0000
0010
0000
,
1000
0000
1000
0000
,
0002
0000
0000
0003
,
1000
0000
1000
0000
,
0001
0000
0001
0000
,
1000
0000
0001
0000
,
1000
0000
0001
0000
,
1000
0000
1000
0000
,
0001
0000
0001
0000
,
1000
0000
0001
0000
,
1000
0000
0001
0000
,
0100
0000
0000
0000
,
0000
0000
0000
0000
,
0010
0000
0000
0000
,
0000
0000
0000
0000
,
1000
0000
0000
0000
,
0000
0000
0000
0000
,
0001
0000
0000
0000
,
0010
0000
0000
0000
,
0100
0000
0100
0000
,
1000
0000
1000
0000
,
0010
0000
0010
0000
,
0001
0000
0001
0000
,
0100
0000
1000
0000
,
0010
0000
0001
0000
,
0100
0000
0001
0000
,
0020
0000
0030
0000
,
0100
0100
0100
0000
,
1000
0000
1000
0000
,
0001
0001
0001
0000
,
0100
0000
0100
0000
,
0010
0010
0010
0000
,
0100
0000
0100
0000
,
0001
0001
0001
0000
,
2000
0000
3000
0000
,
0001
0000
0001
0000
,
0100
0100
0100
0000
,
0010
0000
0010
0000
,
1000
1000
1000
0000
,
0100
0000
0100
0000
,
0010
0010
0010
0000
,
0001
0000
0001
0000
,
0100
0100
0100
0000
,
0000
0010
0000
0100
,
0000
0100
0000
0001
,
0001
0001
0000
1000
,
0000
1000
0000
0100
,
0100
0100
0000
0010
,
0000
0010
0000
0100
,
0100
1000
0000
0001
,
0000
0000
0000
0000
0001
0000
0000
0000
0000
0000
0000
0000
0200
0000
0000
0300
;

//---------------dance-double - ----------------
#NOTES:
     dance-double:
     :
     Hard:
     14:
     0.593,0.673,0.067,0.277,0.465:
00000000
00000000
00000000
00000000
,
00000000
00000000
00000000
00000000
,
00000000
00000000
00000000
00000000
,
00000000
00000000
00000000
00000000
,
00000000
00000000
00000000
00000000
,
00000000
00000000
00000000
00000000
,
00200000
00000000
00000000
20300000
00000000
00000000
32000000
00000000
,
00100000
00100000
00100000
00100000
,
03020000
00000000
00000000
00032000
00000000
00000000
00003200
00000000
,
00000010
00000010
00000010
00000010
,
00000302
00000000
00000010
00002003
00000010
00000000
00003200
00000000
,
00001000
00001000
00001000
00001000
,
00020300
00000000
00000100
00032000
01000000
00000000
01003000
00200000
,
01000000
01000000
01000000
01000000
,
20300000
00000000
00010000
32000000
00010000
00000000
03200000
00000000
,
00001000
00001000
00001000
00301000
,
00022000
00000000
00000000
00000000
00000000
00000000
00000000
00000000
00000000
00000000
00000000
00000000
00000000
00000000
00000000
00000000
00000000
00000000
00000000
00000000
00000000
00000000
00000000
00000000
00000000
00033000
00000000
00000000
00000000
00000000
00000000
00000000
,
00010000
00000000
01000000
00000000
10000000
00000000
00010000
01000000
00000000
00100000
00000000
01000000
00000000
00010000
10000000
00000000
,
01000000
00010000
00001000
00000100
00000001
00001000
00001001
00000000
,
00000001
00000000
00000010
00000000
00000100
00000000
00010000
00001000
00000000
01000000
00000000
00100000
00000000
01000000
00010000
00000000
,
10000000
01000000
00000000
00000000
00100000
00000000
00010000
00000000
01000000
00000000
00001000
00000000
00010000
00000000
00000100
00001000
,
00000001
00000000
00000100
00000000
00001000
00000000
00010000
00100000
00000000
01000000
00000000
00010000
00000000
10000000
01000000
00000000
,
00100000
00001000
00000100
00000010
00001000
00000001
00000101
00000000
,
00000010
00000000
00000000
00000000
00010000
00001000
00000000
01000000
00000000
00001000
00000000
00010000
01000000
00000000
10000000
00000000
,
01000000
00010000
00000000
00001000
00000100
00000000
00000001
00000100
00000000
00001000
00010000
00000000
01000000
10000000
00010000
00000000
,
10000000
00000000
01000000
00000000
00010000
00000000
00001000
00000100
00000000
00000010
00000000
00010000
00000000
01000000
10000000
00000000
,
00010000
01000000
00001000
00010000
00000100
00000010
00000110
00000000
,
00000100
00000000
00010000
00000000
00001000
00000000
01000000
00010000
00000000
00100000
00000000
01000000
00000000
10000000
00010000
00000000
,
10000000
01000000
00000000
00000000
00100000
00000000
00001000
00010000
00001000
00000000
00010000
00000000
00000100
00000000
00000010
00000001
,
00000010
00000000
00000100
00000000
00010000
00000000
01000000
10000000
00000000
00010000
00000000
01000000
00000000
00100000
01000000
00000000
,
00001000
00010000
00000100
00000010
00000100
00010000
00011000
00000000
,
00000100
00000000
00000000
00000000
00000010
00000001
00000000
00000100
00000000
00001000
00000000
00010000
00100000
00000000
10000000
00000000
,
00010000
10000000
00010000
00000000
01000000
00000000
00001000
00010000
00001000
00000000
00000100
00000010
00000100
00000000
00000000
00000000
,
00000002
00000000
00000000
00002003
00000000
00000000
00023000
00000000
,
00000000
10000000
00000000
10000000
,
00230000
00000000
00000000
00302000
00000000
00000000
00003100
00000020
,
00000000
00001000
00000000
00001000
,
00020030
00000000
00000000
02030000
00000000
00000000
23000000
00000000
,
00000000
00010000
00000000
00010000
,
30200000
00000000
00000000
00320000
00000000
00000000
00030100
00000000
,
00000110
00000000
00000000
00000000
,
00000001
00000001
00000100
00000100
,
00001000
00001000
00010000
00010000
,
00100000
10000000
01000000
00010000
,
00001000
00000010
00000001
00000100
,
00001000
00010000
00100000
01000000
00001000
00010000
00000100
00000001
,
00000100
00000010
00000001
00000100
00001000
00010000
00100000
10000000
,
00010000
00100000
00010000
00000000
00100000
01000000
00100000
00000000
01000000
10000000
01000000
00000000
10000000
00010000
10000000
00000000
,
00020000
00000000
00000000
00000000
01030000
00001000
00011000
00000000
,
00010000
00000100
00000010
00000001
00000100
00001000
00010000
00100000
,
01000000
10000000
01000000
00010000
00100000
01000000
00001000
00000100
,
00000010
00000001
00000100
00001000
00000100
00000001
00000010
00010000
,
00100000
01000000
10000000
01000000
00010000
00001000
00000100
00000010
,
00000001
00000010
00001000
00000100
00010000
01000000
10000000
00100000
,
00010000
00001000
00010000
01000000
10000000
01000000
00010000
00001000
,
00000100
00000001
00000010
00001000
00010000
01000000
00010000
00001000
,
00000200
00000000
00000310
00001001
,
00000001
00000000
00000100
00000000
00001000
00000000
00010000
00001000
00000000
00000100
00000000
00000001
00000000
00000100
00001000
00000000
,
00010000
00000000
01000000
00000000
10000000
00000000
01000000
00010000
00000000
00001000
00000000
00010000
00000000
01000000
10000000
00000000
,
00100000
00000000
00010000
00000000
00001000
00000000
00010000
00100000
00000000
10000000
00000000
00100000
00000000
00010000
00001000
00000000
,
00000010
00000000
00000001
00000010
00000000
00001000
00000000
00010000
00001000
00000000
00000010
00000001
00000000
00000100
00000000
00001000
,
00020000
01000000
01030000
00000000
20000000
00100000
30100000
00000000
,
00010000
00000000
00001000
00010000
00001000
00000000
00000000
00000000
00000100
00000000
00000010
00001000
00000010
00000000
00000000
00000000
,
00001000
00000000
00000100
00000010
00000100
00000000
00000010
00000000
00000001
00000000
00001000
00000010
00001000
00000000
00000010
00000000
,
00010000
00000000
00001000
01000000
00001000
00000000
00010000
00000000
01000000
10000000
01000000
20000000
30010000
00000000
01000000
00000000
,
00001000
00000000
00010000
00000100
00000000
00000010
00000000
00000001
00000000
00000100
00001000
00000000
00010000
00000000
00100000
00000000
,
01000000
00000000
00010000
10000000
00000000
01000000
00000000
00010000
00000000
00001000
00000010
00000000
00000100
00000000
00010000
00000000
,
01000000
00000000
10000000
00100000
00000000
00010000
00000000
00001000
00000000
00000100
00000001
00000000
00001000
00000000
00000100
00010000
,
00000000
01000000
00000000
10000000
00100000
00000000
00010000
00001000
00000000
00000010
00000000
00000001
00000100
00000000
00000010
00000000
,
00010000
00000000
00001000
01000000
00000000
00100000
00000000
10000000
00000000
01000000
00010000
00000000
00001000
00000000
00000010
00000000
,
00000001
00000000
00000100
00000001
00000000
00000010
00000000
00001000
00000000
00010000
01000000
00000000
10000000
00000000
00100000
00000000
,
00010000
00000000
00001000
00000100
00000000
00000010
00000000
00010000
00000000
00001000
01000000
00000000
00010000
00000000
00100000
01000000
,
00000000
00010000
00000000
00001000
00000100
00000000
00000010
00010000
00000000
01000000
00000000
10000000
00010000
00000000
00000000
00000010
;

//---------------dance-double - ----------------
#NOTES:
     dance-double:
     :
     Medium:
     10:
     0.453,0.489,0.025,0.285,0.013: // measure 1
00000000
00000000
00000000
00000000
,  // measure 2
00000000
00000000
00000000
00000000
,  // measure 3
00000000
00000000
00000000
00000000
,  // measure 4
00000000
00000000
00000000
00000000
,  // measure 5
00000000
00000000
00000000
00000000
,  // measure 6
00000000
00000000
00000000
00000000
,  // measure 7
00000200
00000000
00000000
00002300
00000000
00000000
00003020
00000000
,  // measure 8
00000000
00000000
00000000
00000000
,  // measure 9
00020030
00000000
00000000
00032000
00000000
00000000
02003000
00000000
,  // measure 10
03200000
00000000
00000000
00300000
,  // measure 11
20000000
00000000
00000000
32000000
00000000
00000000
03200000
00000000
,  // measure 12
00001000
00001000
00001000
00001000
,  // measure 13
00302000
00000000
00000000
00023000
00000000
00000000
00030200
00000000
,  // measure 14
00000010
00000010
00000010
00000010
,  // measure 15
00000320
00000000
00000000
00000032
00000000
00000000
00002003
00000000
,  // measure 16
00000100
00000100
00000100
00003100
,  // measure 17
00022000
00000000
00000000
00033000
,  // measure 18
00001000
00000000
01000000
00000000
00010000
00100000
01000000
00000000
,  // measure 19
10000000
01000000
00100000
00001000
00010000
00000100
00000010
00000000
,  // measure 20
00000001
00000000
00000100
00000000
00000001
00001000
00000100
00000000
,  // measure 21
00001000
00000100
00010000
00001000
00100000
00010000
01000000
00000000
,  // measure 22
00100000
00000000
10000000
00000000
00010000
01000000
00001000
00000000
,  // measure 23
00010000
00000100
00000100
00000010
00000001
00000100
00000010
00000000
,  // measure 24
00001000
00000000
00000100
00000000
00010000
00001000
01000000
00000000
,  // measure 25
00010000
00000000
00000000
00100000
00000000
00000000
01000000
00000000
00000000
10000000
00000000
00000000
00010000
00000000
00010000
00000000
,  // measure 26
10000000
00000000
00010000
01000000
00001000
00000000
00010000
00000000
,  // measure 27
00000100
00001000
00000010
00000000
00000100
00000001
00000010
00000000
,  // measure 28
00000100
00000000
00010000
00001000
01000000
00000000
00010000
00000000
,  // measure 29
00100000
01000000
10000000
00000000
01000000
00100000
00010000
00000000
,  // measure 30
01000000
00000000
00001000
00010000
00000100
00000000
00001000
00000000
,  // measure 31
00000010
00000100
00000001
00000000
00000010
00000100
00000010
00000000
,  // measure 32
00000001
00000000
00000100
00000010
00001000
00000000
00000100
00000000
,  // measure 33
00010000
00001000
00010000
00010000
00001000
00010000
00001000
00000000
,  // measure 34
02000000
00000000
00000000
03200000
00000000
00000000
20300000
00000000
,  // measure 35
00000000
01000000
00000000
31000000
,  // measure 36
00200000
00000000
00000000
00302000
00000000
00000000
00013000
00000200
,  // measure 37
00000000
00001000
00000000
00001300
,  // measure 38
00000020
00000000
00000000
00000032
00000000
00000000
00000203
00000000
,  // measure 39
00000000
00000010
00000000
00000310
,  // measure 40
00002000
00000000
00000000
00023000
00000000
00000000
02030000
00000000
,  // measure 41
13000000
00000000
00000000
00000000
,  // measure 42
10000000
10000000
01000000
01000000
,  // measure 43
00100000
00100000
00001000
00001000
,  // measure 44
00010000
00010000
00000100
00000100
,  // measure 45
00000010
00000010
00000001
00000001
,  // measure 46
00000001
00000001
00000100
00000100
00000010
00000010
00010000
00000000
,  // measure 47
00001000
00001000
01000000
01000000
00100000
00100000
10000000
00000000
,  // measure 48
10000000
10000000
01000000
01000000
00010000
00010000
00001000
00001000
,  // measure 49
00000200
00000000
00000310
00000110
,  // measure 50
00000001
00000100
00000010
00000000
00001000
00000100
00001000
00000100
,  // measure 51
00010000
00001000
01000000
00000000
00010000
00100000
00010000
00100000
,  // measure 52
01000000
10000000
00010000
00000000
10000000
01000000
10000000
01000000
,  // measure 53
00100000
00001000
00010000
00000000
00000100
00001000
00000010
00000000
,  // measure 54
00000100
00000001
00001000
00000000
00000100
00010000
00000100
00010000
,  // measure 55
00001000
01000000
00100000
00000000
01000000
00010000
01000000
00010000
,  // measure 56
10000000
01000000
00010000
00000000
00001000
00000100
00001000
00000100
,  // measure 57
00000010
00001000
00000001
00000000
00002002
00000000
00003003
00000000
,  // measure 58
00000001
00000100
00000010
00000100
00000001
00000100
00000010
00000000
,  // measure 59
00010000
00000100
00000010
00000100
00010000
00000100
00000010
00000000
,  // measure 60
00001000
00010000
00100000
00010000
00001000
00010000
00100000
00000000
,  // measure 61
10000000
01000000
00100000
01000000
10000000
01000000
00100000
00000000
,  // measure 62
00010000
01000000
00001000
00000000
00010000
00001000
01000000
00000000
,  // measure 63
00001000
00010000
00000100
00000000
00001000
00000100
00010000
00000000
,  // measure 64
00001000
01000000
00100000
00000000
00100000
01000000
00001000
00000000
,  // measure 65
00010000
00000100
00000010
00000000
00000010
00000200
00001300
00000001
,  // measure 66
00000100
00000000
00000010
00010000
00000010
00010000
00001000
01000000
,  // measure 67
00010000
00000000
00100000
01000000
00100000
01000000
10000000
00010000
,  // measure 68
01000000
00000000
00001000
00010000
00001000
00010000
00000100
00000010
,  // measure 69
00000001
00000000
00000100
00000010
00010000
00000000
00001000
01000000
,  // measure 70
00100000
00000000
10000000
01000000
10000000
01000000
00010000
00001000
,  // measure 71
00000100
00000000
00000001
00000010
00000001
00000010
00001000
00010000
,  // measure 72
00100000
00000000
10000000
01000000
10000000
01000000
00010000
00001000
,  // measure 73
00000010
00000000
00000000
00000000
00000001
00000000
00000100
00000000
00001000
00000000
00000000
00000000
00010000
00000000
00000000
00100000
;

//---------------dance-double - ----------------
#NOTES:
     dance-double:
     :
     Easy:
     6:
     0.275,0.336,0.034,0.109,0.000: // measure 1
00000000
00000000
00000000
00000000
,  // measure 2
00000000
00000000
00000000
00000000
,  // measure 3
00000000
00000000
00000000
00000000
,  // measure 4
00000000
00000000
00000000
00000000
,  // measure 5
00000000
00000000
00000000
00000000
,  // measure 6
00000000
00000000
00000000
00000000
,  // measure 7
00010000
00000000
00000000
00001000
00000000
00000000
02000000
00000000
,  // measure 8
00000000
00000000
00000000
03000000
,  // measure 9
00100000
00000000
00000000
10000000
00000000
00000000
00010000
00000000
,  // measure 10
00200000
00000000
00300000
00000000
,  // measure 11
00010000
00000000
00000000
01000000
00000000
00000000
00002000
00000000
,  // measure 12
00000000
00000000
00000000
00003000
,  // measure 13
00010000
00000000
00000000
00000100
00000000
00000000
00000020
00000000
,  // measure 14
00000000
00000000
00000000
00000030
,  // measure 15
00000001
00000000
00000000
00000100
00000000
00000000
00000020
00000000
,  // measure 16
00000000
00000000
00000000
00000030
,  // measure 17
00000200
00000000
00000000
00000300
,  // measure 18
00000001
00000001
00001000
00000100
,  // measure 19
00010000
00000000
00010000
00000000
00001000
01000000
00001000
00000000
,  // measure 20
01000000
01000000
00100000
10000000
,  // measure 21
00010000
00100000
01000000
01000000
,  // measure 22
10000000
00000000
00010000
00000000
01000000
00001000
01000000
00000000
,  // measure 23
00001000
00010000
00000100
00000100
,  // measure 24
00000010
00000000
00000001
00000000
00000100
00000010
00000100
00000000
,  // measure 25
00002002
00000000
00003003
00001001
,  // measure 26
00000001
00001000
00000100
00010000
,  // measure 27
00001000
00000000
01000000
00000000
00100000
10000000
00100000
00000000
,  // measure 28
10000000
01000000
00100000
00001000
,  // measure 29
00010000
00000100
00000010
00000001
,  // measure 30
00000100
00000000
00000010
00000000
00000100
00000001
00000100
00000000
,  // measure 31
00000010
00001000
00000100
00010000
,  // measure 32
00001000
00000000
01000000
00000000
00010000
00100000
00010000
00000000
,  // measure 33
10000000
00000000
01000000
00000000
00100000
01000000
10000000
00000000
,  // measure 34
00010000
00000000
00000000
01000000
00000000
00000000
00002000
00000000
,  // measure 35
00000000
00000000
00000000
00003000
,  // measure 36
00010000
00000000
00000000
00000100
00000000
00000000
00001000
00000020
,  // measure 37
00000000
00000000
00000000
00000030
,  // measure 38
00000100
00000000
00000000
00000001
00000000
00000000
00002000
00000000
,  // measure 39
00000000
00000000
00000000
00003000
,  // measure 40
00000100
00000000
00000000
00010000
00000000
00000000
00001000
00000000
,  // measure 41
00011000
00000000
00000000
00000000
,  // measure 42
00010000
00000000
01000000
00000000
,  // measure 43
10000000
00000000
00100000
00000000
,  // measure 44
00010000
00000000
00001000
00000000
,  // measure 45
00000100
00000001
00000010
00000000
,  // measure 46
00000001
00000001
00000100
00000100
,  // measure 47
00000010
00000010
00010000
00010000
,  // measure 48
00001000
01000000
00100000
10000000
,  // measure 49
00020000
00000000
10030000
10000000
,  // measure 50
00010000
01000000
00001000
00010000
,  // measure 51
00000100
00001000
00000010
00000100
,  // measure 52
00000001
00000010
00000100
00000010
,  // measure 53
00000001
00001000
00000100
00000000
,  // measure 54
00010000
00001000
01000000
00010000
,  // measure 55
00100000
01000000
10000000
00010000
,  // measure 56
01000000
00100000
10000000
01000000
,  // measure 57
00010000
00000000
00011000
00000000
,  // measure 58
00001000
00000100
00000010
00000100
,  // measure 59
00001000
00000100
00000001
00000100
,  // measure 60
00001000
00010000
01000000
10000000
,  // measure 61
01000000
00100000
01000000
10000000
,  // measure 62
01000000
00010000
00001000
00000100
,  // measure 63
00000001
00000100
00001000
00010000
,  // measure 64
01000000
10000000
01000000
00010000
,  // measure 65
00001000
00000100
00000001
00001000
,  // measure 66
00001000
00000100
00010000
00001000
,  // measure 67
00001000
01000000
00010000
10000000
,  // measure 68
01000000
00100000
00000000
01000000
,  // measure 69
10000000
00010000
00000000
01000000
,  // measure 70
00001000
00010000
00000000
00000100
,  // measure 71
00001000
00000010
00000000
00000100
,  // measure 72
00000001
00000010
00000100
00001000
,  // measure 73
00000100
00000000
00000000
00000000
00000010
00000000
00000000
00000000
00000001
00000000
00000000
00000000
00002000
00000000
00000000
00003000
;
