#TITLE:音楽;
#SUBTITLE:;
#ARTIST:弁士カンタビレオ;
#TITLETRANSLIT:Ongaku;
#SUBTITLETRANSLIT:;
#ARTISTTRANSLIT:Benshi Cantabileo;
#GENRE:;
#CREDIT:Silverhawke;
#MENUCOLOR:;
#METERTYPE:DDR;
#BANNER:Ongaku.png;
#BACKGROUND:Ongaku-bg.png;
#LYRICSPATH:;
#CDTITLE:cdtitle.png;
#MUSIC:Ongaku.mp3;
#OFFSET:0.213;
#SAMPLESTART:18.968;
#SAMPLELENGTH:15.000;
#SELECTABLE:YES;
#LISTSORT:;
#BPMS:0.000=122.500,23.500=140.000,27.000=139.980,32.000=122.500,36.000=115.000,52.000=120.000,66.000=125.000,68.000=130.000,100.000=140.000,140.000=135.000,148.000=140.000,176.000=135.000,232.000=120.000,236.000=105.000,240.000=130.000,264.000=140.000,272.000=145.000,276.000=155.000,284.000=165.000,287.000=170.000,290.000=175.000,292.000=180.000;
#STOPS:;
#BGCHANGES:;
#ATTACKS:;

//---------------dance-single - ----------------
#NOTES:
     dance-single:
     :
     Hard:
     14:
     0.625,0.804,0.530,0.000,0.305:
0000
0000
0000
0000
,
0000
0000
0000
0000
,
0000
1000
0100
0100
0010
0100
0100
1000
,
0001
0000
0001
0000
0100
0000
0010
0000
0010
0000
1000
0000
0001
0010
0100
0010
,
0001
0000
1000
0010
0100
0010
1000
0000
0001
0100
0010
0100
0001
0000
1000
0100
,
0010
0100
1000
0000
0010
0000
0100
0000
0001
0000
1000
0000
0100
0000
0010
0001
,
0010
0000
0100
1000
0100
1000
0010
0100
0010
0100
0001
0010
0001
0010
0100
1000
,
0001
0100
0010
0100
0001
1000
0100
0010
0001
0100
0010
0100
0001
0010
0100
1000
,
0001
1001
0000
0000
,
0000
0000
0000
0000
,
1000
0100
1100
0000
0001
0100
0101
0000
,
1000
0010
0100
0000
0001
0010
1000
0010
,
0001
0100
0101
0000
1000
0100
0010
0001
,
0100
0010
1010
0000
0100
0010
0011
0000
,
1000
0100
0001
0000
0100
1000
0001
1000
,
0100
0010
0011
0000
0100
0010
1000
0001
,
0011
1010
1001
0110
,
0100
0000
0001
0000
1001
0000
1000
0100
1000
0000
0100
1000
0100
0000
0010
0000
,
0001
0000
0100
0000
0101
0000
0001
0010
0001
0000
0010
0001
0010
0000
0001
0000
,
0100
0010
1000
0100
0010
0100
1000
0010
,
0100
0000
0001
0010
0100
0010
0001
0100
,
0010
0000
0101
0000
0000
0000
1000
0100
0010
0000
1100
0000
0000
0000
0001
0010
,
0100
0000
0011
0000
0000
0000
1000
0010
0100
0000
1010
0000
0000
0000
0000
0000
,
0001
0000
1100
0000
0000
0000
0010
0100
0010
0000
0001
0000
0100
0000
0010
0000
,
1000
0000
0000
0000
0100
0000
0000
0000
0010
0000
0000
0000
0001
0000
0000
0000
0010
0000
0000
0000
0100
0000
0000
0000
1000
0000
0000
0000
0010
0000
0000
0000
0100
0000
0000
0000
0001
0000
0000
0010
0000
0000
0100
0000
0000
1000
0000
0000
,
0001
0000
1000
0100
1000
0000
1000
0100
1000
0000
1000
0100
0010
0000
0001
0000
,
1000
0000
0001
0100
0001
0000
0001
0100
0001
0000
0001
0100
0010
0000
1000
0000
,
0001
0000
0010
0100
0010
0000
1000
0000
0010
0000
0001
1000
0001
0000
0100
0000
,
0010
0000
0100
0001
0100
0000
0010
0000
1000
0000
0100
0010
0100
0000
1000
0000
,
0001
1100
0000
0001
1000
0101
0000
1000
,
0001
1010
0000
0001
1000
0011
0000
1000
,
0100
0011
0000
0001
0100
1000
0100
0010
,
1000
0000
0100
0010
0100
0000
1000
0000
1100
0000
0110
0000
0011
0000
1001
0000
,
0110
0000
0010
0001
0010
0000
0010
0001
0010
0000
0010
0001
1000
0000
0010
0000
,
0100
0000
0010
1000
0010
0000
0010
1000
0010
0000
0010
1000
0001
0000
0010
0000
,
0100
0000
1000
0001
1000
0000
0010
0000
,
0100
0000
0000
0000
0001
0000
1000
0000
0001
0000
0010
0100
1000
0000
0001
0000
,
1100
0000
0000
0000
0010
0000
0001
0000
0010
0000
0000
0100
1000
0000
0000
0000
,
0001
0000
0000
0000
0100
0000
0010
0000
0100
0000
0000
0001
1000
0000
0000
0000
,
0100
0000
0010
0001
0100
1000
0100
0001
,
0010
0000
0100
1000
1001
0000
0001
0100
,
1000
0000
0000
0000
1000
0000
0100
0000
0010
0000
1000
0100
0010
0000
0100
0010
,
0001
0000
0010
0001
1000
0000
0001
1000
0100
0000
0000
0000
0010
0000
0001
0000
,
1000
0010
0110
1010
,
1001
1000
0100
0010
0010
0001
0100
0010
,
0010
1000
0001
0010
0010
0001
1000
0100
,
0100
0010
0001
0100
0100
0010
1000
0100
,
0100
0000
0000
0000
0010
0000
0001
0000
1001
0000
0001
1000
0001
0000
0010
0000
,
0110
0000
1000
0100
1000
0000
0010
0000
0110
0000
0001
0100
0001
0000
0010
0000
,
0110
0000
1100
0000
0101
0000
1001
1000
,
0100
1000
0010
0000
0100
0001
0010
0000
0100
1000
0010
0000
0100
0001
0010
0000
,
0100
1000
0001
0000
0100
0001
1000
0000
0010
1000
0001
0000
0010
0100
0010
0000
,
1001
0000
0001
1000
0001
0000
0010
0000
1001
0000
1000
0001
1000
0000
0010
0000
,
0110
0101
1100
1001
,
0100
0010
1000
0010
0001
0010
0100
1000
,
0001
0100
0010
1000
,
0001
1000
0001
1000
0100
0010
0100
0010
,
0001
0100
0010
1000
0100
0010
0001
0100
0010
1000
0100
0010
,
0001
0000
0000
0000
0000
0000
1001
0000
0000
0000
0000
0000
0000
0000
0000
1000
0000
0000
0010
0000
0100
0000
0001
0000
,
1001
1100
0101
1001
,
0110
1000
0100
0001
0100
1000
0010
0001
,
0010
0100
1000
0100
0001
0010
1000
0010
,
0001
1000
0010
0100
0001
1000
0100
0001
,
0100
1000
0010
0100
0001
0010
1000
0010
,
0100
1000
0001
0100
0101
0000
1100
0000
,
0011
0010
0100
1000
1010
0000
0101
0000
,
1100
0010
0001
0101
0000
0011
0100
1000
,
1010
0000
0101
1000
0010
0100
0100
0001
,
0011
0000
1000
1100
0000
0000
0101
0000
,
1000
0000
1010
0000
0000
0000
0001
0010
0001
0000
0100
0000
0001
0000
0100
0000
,
0001
0010
0100
1000
0100
1000
0010
0100
,
0101
0001
0001
1100
1000
1000
0011
0001
,
0001
0000
1010
0000
1000
0000
1000
0000
0011
0000
0100
1000
0100
0000
1001
0000
,
0001
0000
1000
0000
1010
0000
0100
0001
0100
0000
0101
0000
0110
0000
1010
0000
,
1001
0000
0000
0000
0000
0000
0000
0110
0000
0000
0000
0000
0000
0000
1001
0000
;

//---------------dance-single - ----------------
#NOTES:
     dance-single:
     :
     Medium:
     11:
     0.451,0.528,0.302,0.000,0.050: // measure 1
0000
0000
0000
0000
,  // measure 2
0000
0000
0000
0000
,  // measure 3
0000
1000
0000
0001
0100
0000
0100
0010
,  // measure 4
0000
1000
0100
0000
0100
0010
0001
0001
,  // measure 5
0100
0010
0010
1000
0100
0100
0010
0001
,  // measure 6
0001
0100
0010
1000
0001
0100
0010
1000
,  // measure 7
0100
0000
0010
0000
0001
0000
1000
0000
0100
0000
0010
0000
0001
0100
0001
0100
,  // measure 8
0001
0000
1000
0000
0010
0000
0100
0000
0001
0000
1000
0100
1000
0100
0010
0001
,  // measure 9
0000
1001
0000
0000
,  // measure 10
0000
0000
0000
0000
,  // measure 11
1000
0100
0010
0001
,  // measure 12
0001
0000
1100
0000
0000
0001
0010
0100
,  // measure 13
1000
0000
0010
0000
1000
0100
0010
0100
,  // measure 14
1000
1010
0110
0101
,  // measure 15
0101
0000
1000
0000
0000
0001
0010
0100
,  // measure 16
1000
0000
0001
0000
0000
1000
0010
0100
,  // measure 17
0001
0000
0010
0000
0100
1000
0010
0100
,  // measure 18
0001
1000
0100
0010
0010
0100
1000
0010
,  // measure 19
0100
0001
0010
0100
0100
1000
0100
0010
,  // measure 20
0001
0100
0010
0100
0001
0010
0100
0010
,  // measure 21
0001
0000
0010
0100
1000
0010
0100
0001
,  // measure 22
1000
1100
0000
1000
0001
0101
0000
0001
,  // measure 23
1000
1010
0000
1000
0001
0011
0000
0000
,  // measure 24
1000
1001
0000
0100
0100
0010
1000
0100
,  // measure 25
0010
0000
0000
0000
0001
0000
0000
0000
0000
0000
0000
0000
1000
0000
0000
0000
0010
0000
0000
0000
0000
0000
0000
0000
0100
0000
0000
0000
0001
0000
0000
0000
0000
0000
0000
0000
1000
0000
0000
0100
0000
0000
1000
0000
0000
0000
0000
0000
,  // measure 26
0010
0100
0010
0100
0010
0100
0010
1000
,  // measure 27
0100
0010
0100
0010
0100
0010
0001
0100
,  // measure 28
0010
0000
1000
0100
0010
0000
0001
0100
,  // measure 29
0010
0000
0100
0001
0100
0000
0001
0000
,  // measure 30
1000
1010
0000
0000
0001
0011
0000
0000
,  // measure 31
1000
1100
0000
0000
0001
0101
0000
0000
,  // measure 32
0010
0110
0000
0000
1000
0100
0010
0100
,  // measure 33
1000
0000
0001
0100
0001
0000
1000
0000
0100
0000
0100
0000
0010
0000
0001
0000
,  // measure 34
1001
1000
0001
1000
0001
1000
0001
0010
,  // measure 35
0100
0010
0100
0010
0100
0010
0100
1000
,  // measure 36
0001
0000
0100
0010
0100
0000
0001
0000
,  // measure 37
1000
0000
0100
0010
0100
0000
1000
0010
,  // measure 38
0110
0000
1000
0100
0010
0000
0001
0000
,  // measure 39
1000
0000
0010
0100
0001
0000
1000
0000
,  // measure 40
0100
0000
0010
0001
0010
0100
1000
0010
,  // measure 41
0100
0000
0001
0000
1000
0000
0100
0010
,  // measure 42
0100
0000
1000
0010
0100
0100
0001
0001
,  // measure 43
1000
1000
0100
0010
0001
0000
0010
0100
,  // measure 44
1000
0010
0101
1100
,  // measure 45
1001
0000
0000
1000
0010
0000
0000
0010
,  // measure 46
0100
0000
0000
0100
0001
0000
0000
0001
,  // measure 47
0010
0000
0000
0010
0100
0000
0000
0100
,  // measure 48
1000
0000
0001
0100
0110
0000
1001
0000
,  // measure 49
0010
1000
0000
1000
0100
0010
0000
0010
,  // measure 50
0011
0110
1100
1001
,  // measure 51
0001
0100
1000
0100
0001
0010
1000
0010
,  // measure 52
0001
0100
1000
0100
0001
0010
0100
1000
,  // measure 53
1001
0000
0000
0100
0110
0000
0000
0001
,  // measure 54
1001
1100
0101
1001
,  // measure 55
1000
0100
0001
0100
0010
1000
0010
0001
,  // measure 56
0100
0010
1000
0001
,  // measure 57
0010
0100
1000
0000
1000
0100
0010
0000
,  // measure 58
0001
0100
0000
0010
1000
0000
0001
0010
0000
0100
1000
0000
,  // measure 59
1001
0000
0110
0000
0000
0100
0000
0000
,  // measure 60
0010
1000
0100
0010
,  // measure 61
0001
0010
0100
0000
0100
1000
0001
0000
,  // measure 62
0001
0100
0010
0000
0010
1000
0100
0010
,  // measure 63
0001
0000
1000
0000
0100
0010
0001
1000
,  // measure 64
0010
0100
0001
1000
,  // measure 65
0100
0000
0000
0010
0100
0000
1000
0000
,  // measure 66
0010
0000
0000
0100
0001
0000
1000
0000
,  // measure 67
1100
0000
0000
0110
0000
0011
0000
0000
,  // measure 68
0101
0000
0110
0000
0000
1010
0000
0000
,  // measure 69
1100
0000
0100
0010
0000
0000
0101
0000
,  // measure 70
0100
0010
0000
0000
1000
0100
1000
0100
,  // measure 71
1000
0100
0010
0001
0010
0001
1000
0001
,  // measure 72
1000
0010
0010
0100
0001
0001
1000
0100
,  // measure 73
0100
0010
0001
0001
1000
0100
0001
0100
,  // measure 74
0010
0100
1000
0010
0001
0010
0010
0100
,  // measure 75
0010
0000
0000
0000
0000
0000
0000
1001
0000
0000
0000
0000
0000
0000
0110
0000
;

//---------------dance-single - ----------------
#NOTES:
     dance-single:
     :
     Easy:
     8:
     0.325,0.402,0.101,0.000,0.003: // measure 1
0000
0000
0000
0000
,  // measure 2
0000
0000
0000
0000
,  // measure 3
0000
1000
0000
0000
0100
0000
0000
0010
,  // measure 4
0000
0000
0001
0000
0000
1000
0000
0010
,  // measure 5
0010
0000
0100
0100
0000
0001
0001
0000
,  // measure 6
1000
1000
0000
0100
0000
0010
0000
0001
,  // measure 7
0010
0010
0100
0100
,  // measure 8
1000
0001
1000
0000
0001
1000
0001
0010
,  // measure 9
0000
0110
0000
0000
,  // measure 10
0000
0000
0000
0000
,  // measure 11
1000
0100
0010
0001
,  // measure 12
0001
0000
0100
0000
0000
0010
1000
0000
,  // measure 13
0100
0000
0010
0000
0100
1000
0100
0000
,  // measure 14
0010
0001
0100
0010
,  // measure 15
0010
0000
0100
0000
0000
0001
1000
0000
,  // measure 16
0100
0010
0100
1000
,  // measure 17
0010
0000
0100
0000
0001
1000
0001
0000
,  // measure 18
1000
0100
0000
0010
0010
0000
0001
0000
,  // measure 19
0100
0010
0000
1000
1000
0000
0001
0000
,  // measure 20
1000
0100
1000
0000
0001
0100
0001
0000
,  // measure 21
1000
0100
0010
0001
,  // measure 22
0100
0010
0000
0000
1000
0100
0000
0000
,  // measure 23
0010
0001
0000
0000
1000
0010
0000
0000
,  // measure 24
0100
0001
1000
0100
,  // measure 25
0010
0000
0001
0000
1000
0000
0001
0010
,  // measure 26
0100
0000
1000
0000
1000
0000
1000
0001
,  // measure 27
1000
0000
1000
0000
1000
0000
1000
0100
,  // measure 28
1000
0000
0100
0000
0010
0000
0001
0100
,  // measure 29
0001
0010
0100
1000
,  // measure 30
0010
0100
0000
0000
0001
0100
0000
0000
,  // measure 31
0010
1000
0000
0000
0100
1000
0000
0000
,  // measure 32
0001
0010
0000
0000
0100
1000
0010
1000
,  // measure 33
0100
0000
0010
0000
0001
0100
1000
0100
,  // measure 34
0001
0000
0001
0000
0001
0000
0001
1000
,  // measure 35
0001
0000
0001
0000
0001
0000
0001
0010
,  // measure 36
0100
0000
1000
0100
1000
0000
0001
0000
,  // measure 37
0100
0000
0010
1000
0010
0000
0100
0001
,  // measure 38
1000
0000
0100
0010
0100
0000
1000
0000
,  // measure 39
0010
0000
0100
0001
0100
0000
0010
0000
,  // measure 40
1000
0000
0100
0010
0001
0000
0010
0100
,  // measure 41
1000
0000
0001
0000
0100
0000
0010
1000
,  // measure 42
0100
0000
0100
1000
0010
0000
0100
0000
,  // measure 43
0001
0000
1000
0000
0100
0000
0010
0001
,  // measure 44
0010
0100
1000
0001
,  // measure 45
1001
0000
0000
0100
0010
0000
0000
0010
,  // measure 46
1000
0000
0000
1000
0001
0000
0000
0001
,  // measure 47
0010
0000
0000
0010
0100
0000
0000
0100
,  // measure 48
1000
0000
1000
0001
1000
0000
0010
0000
,  // measure 49
0110
0000
1001
0000
,  // measure 50
0110
1001
0110
1000
,  // measure 51
0100
0010
0001
0010
,  // measure 52
0100
0000
1000
0000
0001
0000
0100
0010
,  // measure 53
0100
0000
0000
0001
1000
0000
0000
0100
,  // measure 54
0010
0001
1000
1001
,  // measure 55
1000
0100
1000
0000
0001
0100
0001
0000
,  // measure 56
1000
0100
0010
0001
,  // measure 57
1000
0010
0100
0001
,  // measure 58
1000
0001
1001
0110
,  // measure 59
1001
0000
0100
0000
0000
0010
0000
0000
,  // measure 60
1000
0100
0010
0001
,  // measure 61
1000
0100
0001
0100
,  // measure 62
1000
0010
0100
0001
,  // measure 63
1000
0100
0010
0001
,  // measure 64
0100
0010
1000
0001
,  // measure 65
1000
0000
0000
0100
0010
0000
0001
0000
,  // measure 66
0100
0000
0000
0010
1000
0000
0100
0000
,  // measure 67
0010
0000
0000
1001
0000
0100
0000
0000
,  // measure 68
1001
0000
0010
0000
0000
1001
0000
0000
,  // measure 69
1000
0000
0100
0010
0000
0000
0001
0000
,  // measure 70
0100
0010
0000
0000
1000
0100
1000
0100
,  // measure 71
0000
0010
0001
0100
0001
0100
0000
0010
,  // measure 72
1000
0000
1000
0100
0000
0100
0010
0000
,  // measure 73
0010
0001
0000
0001
0100
0010
1000
0001
,  // measure 74
0100
0010
1000
0100
0010
0001
0010
0100
,  // measure 75
1000
0000
0000
0000
0000
0000
0000
0001
0000
0000
0000
0000
0000
0000
1001
0000
;

//---------------dance-double - ----------------
#NOTES:
     dance-double:
     :
     Hard:
     15:
     0.550,0.930,0.000,0.000,0.342:
00000000
00000000
00000000
00000000
,
00000000
00000000
00000000
00000000
,
00000000
00000001
00000100
00000001
00000001
00000100
00001000
00001000
,
00010000
00000000
01000000
00000000
01000000
00000000
10000000
00000000
00010000
00000000
00010000
00000000
10000000
01000000
00100000
01000000
,
10000000
00000000
00010000
00100000
01000000
00100000
00001000
00000000
00010000
00000100
00000010
00000100
00001000
00000000
00000001
00000100
,
00000010
00000100
00000001
00000000
00000010
00000000
00001000
00000000
00010000
00000000
01000000
00000000
10000000
00000000
00010000
01000000
,
00100000
00000000
00000000
00000000
00000000
00000000
10000000
00000000
00000000
01000000
00000000
00000000
10000000
00000000
00000000
00010000
00000000
00000000
00100000
00000000
00000000
00010000
00000000
00000000
01000000
00000000
00000000
00100000
00000000
00000000
01000000
00000000
00000000
00001000
00000000
00000000
00010000
00000000
00001000
00000000
00010000
00000000
00001000
00000000
00010000
00000000
00001000
00000000
,
00010000
00000000
00000000
00000100
00000000
00000000
00001000
00000000
00000000
00000010
00000000
00000000
00000100
00000000
00000000
00000001
00000000
00000000
00000010
00000000
00000000
00000100
00000000
00000000
00001000
00000000
00000100
00000000
00001000
00000000
00000001
00000000
00000010
00000000
00000001
00000000
00001000
00000000
00000010
00000000
00001000
00000000
00000001
00000000
00000010
00000000
00000001
00000000
,
00000000
00010000
00000000
00000000
,
00000000
00000000
00000000
00000000
,
00000001
00000100
00001000
00010000
,
00010000
00000000
00001000
00000000
00010000
01000000
10000000
01000000
,
00010000
00000000
00001000
00000000
00000010
00000001
00000100
00000010
,
00001000
00000100
00010000
00001000
,
00001000
00000000
01000000
00000000
00010000
00100000
10000000
00100000
,
00010000
00000000
00001000
00000000
00000100
00000010
00000001
00000010
,
00000100
00000000
00010000
00000000
00001000
01000000
00100000
10000000
,
00010000
00000000
00100000
00000000
01000000
00000000
10000000
01000000
10000000
00000000
00010000
01000000
00010000
00000000
00100000
00000000
,
00001000
00000000
00010000
00000000
00000010
00000000
00000100
00000001
00000100
00000000
00000010
00001000
00000010
00000000
00001000
00000000
,
00000100
00000010
00000001
00000100
00001000
00010000
00100000
10000000
,
00010000
00100000
01000000
00010000
00001000
00000100
00000010
00001000
,
00010000
00000000
01000000
00000000
00000000
00000000
00100000
10000000
00010000
00000000
00100000
00000000
00000000
00000000
00001000
00010000
,
00000100
00000000
00001000
00000000
00000000
00000000
00000010
00000100
00000001
00000000
00001000
00000000
00000000
00000000
00000000
00000000
,
00010000
00000000
00000000
01000000
00000000
00000000
00000000
00000000
00000000
00010000
10000000
00010000
10000000
00000000
00000000
01000000
00000000
00000000
00100000
00000000
00000000
00001000
00000000
00000000
,
00010000
00000000
00000000
00000000
00000100
00000000
00000000
00000000
00000100
00000000
00000000
00000000
00001000
00000000
00000000
00000000
00000010
00000000
00000000
00000000
00000010
00000000
00000000
00000000
00000100
00000000
00000000
00000000
00000001
00000000
00000000
00000000
00000001
00000000
00000000
00000000
00001000
00000000
00000000
00000010
00000000
00000000
00000100
00000000
00000000
00000001
00000000
00000000
,
00001000
00000000
00000001
00000100
00000001
00000000
00000001
00000100
00000001
00000000
00000001
00000100
00001000
00000000
00010000
00000000
,
01000000
00000000
10000000
01000000
10000000
00000000
10000000
01000000
10000000
00000000
10000000
01000000
00010000
00000000
00001000
00000000
,
00000010
00000000
00000001
00000010
00000001
00000000
00000100
00000000
00000010
00000000
00010000
00001000
00010000
00000000
01000000
00000000
,
10000000
00000000
00010000
00100000
00010000
00000000
00001000
00000000
00000100
00000000
00000010
00000001
00000010
00000000
00001000
00000000
,
00010000
00001000
00000000
01000000
00100000
10000000
00000000
01000000
,
00010000
00001000
00000000
00000100
00000010
00001000
00000000
00000001
,
00000010
00000100
00000000
00000010
00000001
00000100
00001000
00010000
,
00100000
00000000
10000000
00010000
10000000
00000000
01000000
00000000
00010000
00000000
00001000
00000000
00000100
00000000
00000001
00000000
,
00001000
00000000
00000001
00000100
00000001
00000000
00000001
00000100
00000001
00000000
00000010
00001000
00010000
00000000
00100000
00000000
,
10000000
00000000
10000000
01000000
10000000
00000000
10000000
01000000
10000000
00000000
00100000
00010000
00001000
00000000
00000010
00000000
,
00000001
00000000
00001000
00010000
00001000
00000000
00000010
00000000
,
00000100
00000000
00000000
00000000
00001000
00000000
00010000
00000000
00001000
00000000
00100000
01000000
10000000
00000000
00010000
00000000
,
01000000
00000000
00000000
00000000
00100000
00000000
10000000
00000000
00100000
00000000
00000000
01000000
01000000
00000000
00000000
00000000
,
00001000
00000000
00000000
00000000
00010000
00000000
00000010
00000000
00001000
00000000
00000000
00000100
00000100
00000000
00000000
00000000
,
00000010
00000000
00000001
00000100
00001000
00010000
00001000
00000100
,
00000010
00000000
00010000
01000000
10000000
00000000
01000000
00100000
,
00010000
00000000
00000000
00000000
00000000
00000000
00001000
00000000
00000000
00000100
00000000
00000000
00000010
00000000
00000000
00000001
00000100
00000001
00000100
00000000
00000000
00000100
00001000
00000100
,
00001000
00000000
00000000
00001000
00010000
00001000
00010000
00000000
00000000
00010000
01000000
00010000
01000000
00000000
00000000
00000000
00000000
00000000
01000000
00000000
00000000
10000000
00000000
00000000
,
00010000
01000000
00001000
00010000
,
00000100
00001000
00000100
00010000
00001000
01000000
00001000
00100000
,
00010000
10000000
00010000
01000000
00100000
10000000
00100000
00010000
,
00001000
01000000
00001000
00000100
00000010
00000100
00000001
00001000
,
00001000
00000000
00000000
00000000
00000001
00000000
00000010
00000000
00000001
00000000
00000100
00000010
00010000
00000000
00001000
00000000
,
01000000
00000000
00010000
00100000
00010000
00000000
01000000
00000000
00100000
00000000
10000000
01000000
10000000
00000000
00010000
00000000
,
00100000
00000010
01000000
00000100
,
00010000
00001000
00100000
00000000
00001000
00010000
00000010
00000000
00010000
00001000
01000000
00000000
00001000
00010000
00000100
00000000
,
00010000
00001000
00100000
00000000
00001000
00010000
00000100
00000000
00010000
00001000
01000000
00000000
00001000
00010000
00000010
00000000
,
00001000
00000000
00000100
00000010
00000100
00000000
00001000
00000000
00010000
00000000
00100000
01000000
00100000
00000000
01000000
00000000
,
10000000
00010000
00001000
00000001
,
00000100
00001000
00010000
00100000
00010000
00001000
00010000
01000000
,
10000000
01000000
00010000
00001000
,
00000010
00000001
00000010
00000001
00001000
00000100
00001000
00000100
,
00010000
00001000
00010000
01000000
00100000
01000000
10000000
00100000
10000000
00010000
01000000
00100000
,
10000000
00000000
00000000
00000000
00000000
00000000
00010000
00000000
00000000
00000000
00000000
00000000
00000000
00000000
00000000
01000000
00000000
00000000
00001000
00000000
00010000
00000000
00000100
00000000
,
00000100
00001000
00000001
00000100
,
00001000
00010000
01000000
10000000
01000000
00010000
00001000
00000100
,
00000010
00000100
00001000
00010000
00100000
01000000
00100000
00010000
,
10000000
01000000
00010000
00001000
00000010
00000001
00000010
00000100
,
00001000
00010000
01000000
10000000
01000000
00100000
00001000
00010000
,
00000100
00000000
00000000
00000010
00000001
00000000
00000100
00000000
,
00000010
00000000
00000000
00010000
00001000
00000000
01000000
00000000
,
00010000
00100000
01000000
10000000
00000000
01000000
00100000
00010000
,
00001000
00000000
00000100
00000010
00000001
00000100
00000100
00000010
,
00010000
00000000
00001000
01000000
00000000
00000000
00100000
00000000
,
10000000
00000000
01000000
00000000
00000000
00000000
00100000
00010000
00100000
00000000
01000000
00000000
00100000
00000000
01000000
00000000
,
00100000
01000000
00010000
00001000
00010000
00000100
00000010
00000100
,
00001000
00000001
00000001
00000100
00000010
00000010
00010000
00001000
,
00001000
00000000
01000000
00000000
00100000
00000000
00100000
00000000
10000000
00000000
00010000
01000000
00010000
00000000
00000100
00000000
,
00000001
00000000
00000010
00000000
00000100
00000000
00001000
00000010
00001000
00000000
00100000
00000000
00010000
00000000
00001000
00000000
,
00000100
00000000
00000000
00000000
00000000
00000000
00000000
00010000
00000000
00000000
00000000
00000000
00000000
00000000
10000000
00000000
;

//---------------dance-double - ----------------
#NOTES:
     dance-double:
     :
     Medium:
     11:
     0.500,0.553,0.121,0.349,0.064:
00000000
00000000
00000000
00000000
,
00000000
00000000
00000000
00000000
,
00000000
10000000
00000000
00010000
01000000
00000000
00001000
00010000
,
00000000
00000100
00001000
00000010
00000100
00000001
00000000
00000010
,
00000100
00010000
00001000
01000000
00000000
00010000
00100000
01000000
,
10000000
00010000
01000000
00001000
00010000
00000100
00001000
00000001
,
00000100
00000000
00000010
00000000
00001000
00000000
00000100
00000000
00001000
00000000
00000100
00000000
00010000
00001000
00010000
00001000
,
00010000
00000000
00001000
00000000
01000000
00000000
00100000
00000000
10000000
01000000
10000000
00010000
01000000
00010000
10000000
01000000
,
00000000
10010000
00000000
00000000
,
00000000
00000000
00000000
00000000
,
00010000
01000000
00001000
00010000
,
00010000
00000000
00000100
00000000
00001000
00000010
00000100
00000001
,
00001000
00000000
00000001
00000000
00000010
00000100
00010000
00001000
,
02000000
03200000
20300000
30020000
,
00230000
00000000
02300000
00000000
13000000
01000000
00010000
01000000
,
00200000
00000000
00302000
00000000
00013000
00000100
00000010
00000100
,
00002000
00000000
00003002
00000000
00000103
00000010
00010000
00001000
,
01000000
00010000
00100000
01000000
01000000
10000000
10000000
00010000
,
01000000
00001000
00010000
00000100
00000100
00001000
00001000
00000010
,
00000100
00000001
00000010
00000100
00010000
00001000
00100000
01000000
,
10000000
01000000
00010000
00001000
00010000
00001000
00000100
00000001
,
00001000
00000200
00000300
00010000
00001000
02000000
03000000
00010000
,
10000000
02000000
03000000
00100000
00001000
00020000
00030000
00000000
,
00000010
00000100
00000000
00000001
00001000
00000001
00000010
00000100
,
00002000
00000000
00000100
00000000
00003000
00000000
00000200
00000000
00000010
00000000
00000300
00000000
00000020
00000000
00000001
00000000
00000030
00000000
00000001
00000000
00000000
00000100
00000000
00000000
,
00001000
00010000
00010000
00001000
00001000
01000000
00100000
10000000
,
00010000
01000000
01000000
00100000
00100000
10000000
01000000
00100000
,
00001000
00010000
00010000
00001000
00001000
00000100
00000010
00001000
,
00000001
00000010
00000010
00000100
00000100
00010000
00001000
01000000
,
00010000
00200000
00000000
00300000
01000000
20000000
00000000
30000000
,
00010000
02000000
00000000
03000000
00001000
00020000
00000000
00030000
,
00001000
00000200
00000000
00000300
00000010
00001000
00000001
00000010
,
00000100
00000010
00000010
00000100
00001100
00001000
00000001
00000100
,
00000110
00000010
00000010
00010000
00010000
00001000
01000000
00100000
,
10000000
00010000
00010000
00100000
00100000
00001000
00010000
00000100
,
00001000
00000000
00000001
00000100
00000010
00000000
00010000
00000000
,
00001000
00000000
01000000
00010000
00100000
01000000
10000000
00010000
,
01000000
00000000
00000000
00000000
00001000
00000000
00010000
00000000
00001000
00000000
00000000
00001000
00010000
00000000
00000000
00000000
,
00000100
00000000
00000000
00000000
00001000
00000000
00000010
00000000
00000100
00000000
00000000
00000100
00000001
00000000
00000000
00000000
,
00001000
00000000
00000100
00010000
00001000
00010000
01000000
10000000
,
00010000
00000000
01000000
00000000
00200000
00000000
10300000
01000000
,
00200000
00000000
00301000
00010000
00000200
00000000
00001000
00000000
,
00000010
00000000
00001300
00000000
00000002
00000000
00000103
00000010
,
00000200
00002300
00023000
02030000
,
13000000
00010000
01000000
00100000
10000000
00000000
00010000
01000000
,
00001000
00000000
00010000
00000100
00001000
00000000
00000001
00000100
,
00000010
00000000
00000100
00000001
00000010
00000000
00000100
00010000
,
00001000
00000000
01000000
00010000
00100000
01000000
10000000
00010000
,
01010000
00000000
00100000
10000000
11000000
00000000
00100000
00001000
,
00011000
00010100
00000110
00000011
,
00000001
00000100
00000001
00000100
00001000
00000100
00001000
00000100
,
00001000
00010000
00001000
00010000
01000000
00010000
01000000
00010000
,
01000000
00000000
00000000
10000000
11000000
00000000
00000000
00010000
,
01010000
01001000
00011000
00010100
,
00000100
00000010
00000001
00000010
00001000
00000010
00000100
00010000
,
00001000
00000000
00000000
01000000
00001000
00000000
00000000
01000000
,
00010000
10000000
00010000
10000000
00100000
01000000
00100000
01000000
,
00001000
00010000
00000000
00000100
00001000
00000000
00000010
00000100
00000000
00000001
00000010
00000100
,
00001000
00000000
00000000
00000000
00000000
00000000
00001001
00000000
00000000
00000000
00000000
00000000
00000000
00000000
00000000
00001000
00000000
00000000
00000001
00000000
00000100
00000000
00000010
00000000
,
00001000
00001100
00000100
00010100
,
00002000
02003000
03200000
20300000
,
30020000
00000000
00230000
00000000
01300000
10000000
01000000
00010000
,
00002000
00000000
00023000
00000000
00030100
00001000
00000010
00000100
,
00000002
00002003
00023000
20030000
,
30020000
00000000
00000000
00130000
01000000
00000000
10000000
00000000
,
00200000
00000000
00000000
01300000
00001000
00000000
00010000
00000000
,
00000100
00001000
00000100
00001000
00000000
00000001
00000100
00000001
,
00000100
00000000
00000010
00010000
00000010
00010000
00010000
00001000
,
01000000
00000000
00010000
10000000
00000000
00000000
01000000
00000000
,
00100000
00001000
00000000
00000000
00010000
00000100
00010000
00000100
,
00010000
00000100
00001000
00000010
00001000
00000001
00000010
00000001
,
00002000
00003100
00000100
00020000
00031000
00001000
02000000
03010000
,
00010000
20000000
31000000
01000000
20000000
30100000
10000000
00020000
,
00130000
00010000
02000000
03001000
01000000
00200000
00310000
00001000
,
00000100
00000000
00000000
00000000
00000000
00000000
00000000
00000010
00000000
00000000
00000000
00000000
00000000
00000000
00001001
00000000
;

//---------------dance-double - ----------------
#NOTES:
     dance-double:
     :
     Easy:
     8:
     0.279,0.302,0.020,0.000,0.003:
00000000
00000000
00000000
00000000
,
00000000
00000000
00000000
00000000
,
00000000
00000001
00000000
00000000
00001000
00000000
00000000
00000010
,
00000000
00000000
00000100
00000000
00000000
00000010
00000000
00000000
,
00010000
00000000
00000000
00001000
00000000
00000000
00100000
00000000
,
00000000
01000000
00000000
00000000
10000000
00000000
00010000
00000000
,
10000000
00100000
01000000
00010000
,
00100000
00001000
00010000
00000100
,
00000000
00001001
00000000
00000000
,
00000000
00000000
00000000
00000000
,
00000001
00000010
00000100
00010000
,
00010000
00000000
00001000
00000000
00000000
00100000
00010000
00000000
,
10000000
00010000
01000000
00100000
,
10000000
00100000
01000000
00010000
,
00010000
00000000
00100000
00000000
00000000
00001000
00010000
00000000
,
00000010
00001000
00000001
00000010
,
00000100
00001000
00000001
00000100
,
00000010
00001000
00000000
00000000
00000010
00000000
00010000
00000000
,
00001000
00010000
00000000
00000000
00001000
00000000
00100000
00000000
,
00010000
01000000
00100000
10000000
,
00010000
00100000
00010000
00000000
10000000
00000000
00100000
00000000
,
01000000
00001000
00000000
00000000
00001000
00010000
00000000
00000000
,
00010000
00000010
00000000
00000000
00000010
00001000
00000000
00000000
,
00001000
00000001
00000000
00000000
00000010
00000000
00000100
00000000
,
00010000
00001000
00100000
00010000
,
10000000
00000000
00100000
00000000
00010000
00000000
00001000
00010000
,
00001000
00000000
00010000
00000000
00000010
00000000
00001000
00000001
,
00001000
00000000
00000010
00000000
00010000
00000000
00001000
00010000
,
00001000
00000000
00010000
00000000
00100000
00000000
10000000
00010000
,
10000000
00100000
00000000
00000000
00100000
01000000
00000000
00000000
,
01000000
00001000
00000000
00000000
00001000
00010000
00000000
00000000
,
00010000
00000010
00000000
00000000
00000010
00000100
00000001
00000000
,
00000010
00000000
00000100
00000000
00010000
00001000
00010000
00000000
,
00001000
00000000
00001000
00000000
00001000
00000000
00001000
00100000
,
00010000
00000000
00010000
00000000
00010000
00000000
00010000
01000000
,
00100000
10000000
00010000
00100000
,
00001000
00010000
00000100
00001000
,
00000001
00000000
00000100
00000010
00000100
00000000
00000001
00000000
,
00000010
00000000
00001000
00010000
00001000
00000000
00010000
00000000
,
00001000
00000000
00100000
00000000
00010000
01000000
00100000
00000000
,
10000000
00010000
00100000
00001000
,
00010000
00000100
00001000
00000001
,
00000010
00000000
00001000
00000000
00010000
00000000
00001000
00010000
,
00001000
00010000
01000000
10000000
,
00010000
00000000
00000000
00010000
00100000
00000000
00000000
00100000
,
00001000
00000000
00000000
00001000
00010000
00000000
00000000
00010000
,
00000010
00000000
00000000
00000010
00000100
00000000
00000000
00000100
,
00000001
00001000
00000001
00000010
,
00000100
00010000
00000000
00000000
00010000
00001000
00000000
00000000
,
00001000
00100000
00010000
01000000
,
00100000
00100000
10000000
10000000
,
01000000
00000000
00100000
00000000
00001000
00010000
00001000
00000000
,
00010000
00000010
00000000
00000000
00000010
00000100
00000000
00000000
,
00000100
00000001
00001000
00000100
,
00010000
00001000
00010000
00000000
00001000
00000000
00100000
00010000
,
00100000
00000000
00100000
00000000
,
00100000
00000000
00100000
00000000
,
00100000
01000000
10000000
00010000
,
01000000
00000000
01100000
00000000
00000000
00010000
00000000
00000000
,
10000000
01000000
00010000
00001000
,
00000100
00000001
00001000
00000010
,
00000010
00010000
00001000
00100000
,
00010000
01000000
00010000
00100000
,
00001000
00010000
00000100
00001000
,
00000010
00000000
00000000
00000100
00000001
00000000
00000010
00000000
,
00000100
00000000
00000000
00010000
00001000
00000000
00100000
00000000
,
00010000
00000000
00000000
10000000
00000000
00100000
00000000
00000000
,
01000000
00000000
00010000
00000000
00000000
00100000
00000000
00000000
,
00001000
00000000
00000000
00010000
00000000
00000000
00000100
00000000
,
00000000
00000010
00000000
00000000
00000001
00000000
00000000
00000010
,
00000000
00000000
00001000
00000000
00000000
00010000
00000000
00000000
,
00001000
00000000
00001000
00100000
00000000
00100000
00010000
00000000
,
00010000
10000000
00000000
10000000
00100000
00000000
00100000
01000000
,
00000000
01000000
00001000
00000000
00001000
00010000
00000000
00010000
,
00000010
00000000
00000000
00000000
00000000
00000000
00000000
00000100
00000000
00000000
00000000
00000000
00000000
00000000
00001001
00000000
;

//---------------dance-single - ----------------
#NOTES:
     dance-single:
     :
     Beginner:
     0:
     0.077,0.126,0.007,0.000,0.000: // measure 1
0000
0000
0000
0000
,  // measure 2
0000
0000
0000
0000
,  // measure 3
0000
0000
0000
0000
,  // measure 4
0000
0000
0000
0000
,  // measure 5
0000
0000
0000
0000
,  // measure 6
0000
0000
0000
0000
,  // measure 7
0000
0000
0000
0000
,  // measure 8
0000
0000
0000
0000
,  // measure 9
0000
0000
0000
0000
,  // measure 10
0000
0000
0000
0000
,  // measure 11
1000
0000
0000
0000
,  // measure 12
0001
0000
0000
0000
,  // measure 13
0100
0000
0000
0000
,  // measure 14
0010
0000
0010
0000
,  // measure 15
0010
0000
0000
0000
,  // measure 16
1000
0000
0000
0000
,  // measure 17
0100
0000
0100
0000
,  // measure 18
0100
0000
0000
0000
,  // measure 19
0010
0000
0000
0000
,  // measure 20
0001
0000
0001
0000
,  // measure 21
0001
0000
0000
0000
,  // measure 22
1000
0000
0000
0000
,  // measure 23
0100
0000
0000
0000
,  // measure 24
0010
0000
0000
0000
,  // measure 25
0001
0000
0001
0000
,  // measure 26
0001
0000
0000
0000
,  // measure 27
1000
0000
0000
0000
,  // measure 28
0100
0000
0000
0000
,  // measure 29
0010
0000
0000
0000
,  // measure 30
0001
0000
0001
0000
,  // measure 31
0001
0000
0000
0000
,  // measure 32
1000
0000
1000
0000
,  // measure 33
1000
0000
0000
0000
,  // measure 34
0100
0000
0000
0000
,  // measure 35
0010
0000
0000
0000
,  // measure 36
0100
0000
0000
0000
,  // measure 37
0000
0000
0000
0000
,  // measure 38
1000
0000
0000
0000
,  // measure 39
0001
0000
0000
0000
,  // measure 40
0100
0000
0000
0000
,  // measure 41
0010
0000
0010
0000
,  // measure 42
0000
0000
0100
0000
,  // measure 43
0000
0000
0001
0000
,  // measure 44
0000
0000
1000
0000
,  // measure 45
1000
0000
0000
0000
,  // measure 46
0000
0000
0000
0000
,  // measure 47
0100
0000
0000
0000
,  // measure 48
0000
0000
0000
0000
,  // measure 49
0001
0000
0000
0000
,  // measure 50
0001
0000
0000
0000
,  // measure 51
1000
0000
1000
0000
,  // measure 52
1000
0000
1000
0000
,  // measure 53
1000
0000
0000
0000
,  // measure 54
0100
0000
0000
0000
,  // measure 55
0010
0000
0000
0000
,  // measure 56
0001
0000
0000
0000
,  // measure 57
1000
0000
0000
0000
,  // measure 58
0010
0000
0010
0000
,  // measure 59
0010
0010
0000
0000
,  // measure 60
1000
0000
0000
0000
,  // measure 61
0001
0000
0000
0000
,  // measure 62
0100
0000
0000
0000
,  // measure 63
0010
0000
0000
0000
,  // measure 64
1000
0000
1000
0000
,  // measure 65
1000
0000
0000
0000
,  // measure 66
0001
0000
0000
0000
,  // measure 67
0010
0000
0000
0000
0000
0010
0000
0000
,  // measure 68
0000
0000
0010
0000
0000
0010
0000
0000
,  // measure 69
0010
0000
0000
0100
,  // measure 70
0000
0000
0010
0000
,  // measure 71
0000
0001
0000
0000
,  // measure 72
1000
0000
0000
0010
,  // measure 73
0000
0000
0001
0000
,  // measure 74
0000
0100
0000
0000
,  // measure 75
0001
0000
0000
0000
0000
0000
0000
1001
;
