#TITLE:音楽 (閉室打開 mix);
#SUBTITLE:;
#ARTIST:Remixed by iceloki;
#TITLETRANSLIT:Ongaku (Heishitsudakai mix);
#SUBTITLETRANSLIT:;
#ARTISTTRANSLIT:;
#GENRE:;
#CREDIT:Silverhawke;
#MENUCOLOR:;
#METERTYPE:DDR;
#BANNER:Ongaku (Heishitsudakai mix).png;
#BACKGROUND:Ongaku (Heishitsudakai mix)-bg.png;
#LYRICSPATH:;
#CDTITLE:cdtitle.png;
#MUSIC:Ongaku (Heishitsudakai mix).mp3;
#OFFSET:-0.028;
#SAMPLESTART:18.104;
#SAMPLELENGTH:15.000;
#SELECTABLE:YES;
#LISTSORT:;
#DISPLAYBPM:73.000:146.000;
#BPMS:0.000=73.000,10.000=146.000,26.000=73.000,30.000=146.000,160.000=73.000,161.000=18.250,161.250=146.000;
#STOPS:161.250=0.514
;
#BGCHANGES:;
#ATTACKS:;

//---------------dance-single - ----------------
#NOTES:
     dance-single:
     :
     Hard:
     12:
     0.549,0.688,0.370,0.176,0.295:
0000
0000
0000
0000
,
0000
0000
0000
0000
,
0000
0000
1100
0000
,
0101
0000
1010
0000
,
0011
0000
1001
1000
,
1000
1000
0110
0010
,
0010
0010
1000
0100
,
0001
0000
0010
0000
1000
0100
0010
0100
,
1000
0010
0100
0001
0010
0000
0110
0000
,
0001
0100
1000
0100
0001
0000
1000
0000
,
0001
0010
0100
1000
0010
0000
0110
0000
,
0100
0000
0101
0001
1000
0000
0100
0010
,
0001
0000
1000
0010
0100
0000
0110
0000
,
1000
0100
0001
0100
1000
0000
0001
0000
,
0010
0100
0001
0100
0010
0001
1000
0001
,
0100
0010
0100
0010
2000
0000
3001
0010
,
0100
1000
0001
0010
0200
0000
1300
0010
,
0100
0001
1000
0010
0200
0000
0301
0100
,
0010
1000
0001
0100
0020
0000
1030
0100
,
0010
0001
1000
0010
0110
0000
0001
0100
,
1000
0100
0001
0010
0110
0000
1000
0010
,
0001
0010
1000
0100
0110
0000
0001
0100
,
1000
0100
0000
0110
0000
1010
0000
0101
,
0001
1000
0100
0010
0011
0000
0000
0100
,
1100
0000
0000
0000
0000
0000
0001
0100
0001
0000
0000
0000
1000
0000
0000
0000
,
1001
0000
0110
0000
1000
0100
0001
0100
,
1000
0100
0001
0100
1000
0010
0001
0010
,
1000
0010
0100
0010
1010
0000
0000
0100
,
0101
0000
0000
0000
0000
0000
1000
0001
1000
0000
0000
0000
0100
0000
0000
0000
,
0110
0000
1001
0000
0001
0010
0100
1000
,
0001
0000
0100
0000
1000
0000
0100
0000
0002
0000
0000
0000
0000
0000
1003
0100
,
2000
0000
0000
3000
0000
0000
0001
0100
0001
1000
0100
1000
,
0001
0010
0001
1000
0010
1000
0001
0000
0000
0010
0000
0000
,
1000
0000
0000
0100
0000
0000
0001
0100
0001
1000
0010
1000
,
0001
0010
0001
1000
0100
1000
0001
0000
0000
0100
0000
0000
,
1000
0000
0000
0010
0000
0000
0001
0100
0010
1000
0100
0010
,
0001
0010
0100
1000
0010
0100
0002
0000
0000
1003
0000
0000
,
0100
0010
0001
0010
0110
0000
1100
0000
,
0101
0000
1001
0000
1000
0100
0010
0001
,
0010
1000
0001
0100
2000
0000
0000
0000
,
0000
0000
0000
0000
0000
3000
0000
0000
0001
0000
0000
0000
0010
0000
0000
0000
,
0100
1000
1000
0001
,
0000
0001
0100
0010
0100
0000
0001
0000
,
0000
1000
0100
0010
0100
0000
1000
0000
,
0010
0000
0000
0000
0100
0000
0000
0000
0001
0100
0001
0000
0100
0001
0000
0000
,
1000
0000
0100
0000
0001
0000
0100
0000
1000
0100
1000
0000
0100
1000
0000
0000
,
0010
0000
0100
0000
0001
0000
0100
0000
0010
1000
0010
0000
1000
0010
0000
0000
,
1000
0000
0100
0000
0010
0000
0001
0000
0100
0001
0000
0100
0001
0100
0001
0000
,
1000
0100
0010
0001
0101
0000
1000
0100
,
0000
0100
0010
0001
0100
0000
0010
2000
,
0000
3200
0000
0310
0011
0000
1000
0010
,
0000
0110
0000
0101
0000
1001
0000
1100
,
0010
0000
0000
0001
0000
0000
0100
0000
0000
0010
0000
0000
1000
0000
0100
0000
1000
0000
0100
0000
0010
0000
0001
0000
,
1000
0010
1000
0010
0100
0001
1000
0100
0010
0100
0010
0001
,
1000
0010
0100
0010
0100
0001
1000
0100
0020
0000
0032
0000
,
1003
0010
0200
0000
0302
0000
0013
0100
2000
0000
3002
0000
,
0023
0000
0000
0000
0000
0000
0000
0000
0230
0000
0000
0000
0000
0000
0000
0000
0310
0000
0000
0000
0000
0000
0000
0000
0011
0000
0000
0000
0000
0000
0000
0000
0000
0010
0000
0000
0100
0000
0000
0000
0000
0000
1000
0000
0000
0000
0000
0000
,
0001
0000
1000
0000
1010
0000
0000
0010
0100
0000
0001
0000
1000
0000
0001
0000
,
0101
0000
0000
0100
0010
0000
1000
0000
0001
0000
1000
0000
1100
0000
0000
0100
,
0010
0001
1000
0001
0101
0000
0000
1100
,
0000
1001
0220
0000
,
0000
0000
0000
0000
,
0000
0000
0330
0000
;

//---------------dance-single - ----------------
#NOTES:
     dance-single:
     :
     Challenge:
     15:
     0.729,0.799,0.511,0.053,0.780:
0000
0000
0000
0000
,
0000
0000
0000
0000
,
0000
0000
0000
0000
0000
0000
0000
0000
0001
0100
0001
0000
1000
0000
0001
0000
,
1000
0010
1000
0000
0001
0000
1000
0000
0001
0010
0001
0000
1000
0000
0001
0000
,
1000
0100
1000
0000
0001
0000
0010
0000
0100
1000
0100
0000
1000
0010
1000
0000
,
0010
0100
0010
0000
0100
0001
0100
0000
0001
1000
0001
0000
1000
0100
1000
0000
,
0100
0010
0100
0000
0010
0001
0010
0000
0001
0000
0000
0000
0100
0000
0000
0000
,
1000
0000
0010
0000
0001
0010
1000
0010
,
0001
0100
1000
0100
0001
0010
0110
0000
,
0100
1000
0010
0001
0010
0100
1100
0000
,
1000
0100
0001
0010
0100
1000
0100
0001
,
0100
1000
0010
0100
1001
0000
0001
0010
,
1000
0010
0001
0100
0110
0000
1001
0000
,
1000
0000
0100
0000
0010
0000
0100
0000
1000
0001
1000
0000
0010
0000
0100
0000
,
0000
0000
0100
0000
0001
0000
0010
0000
0100
1000
0100
0000
0010
0001
0000
0001
,
0100
0010
0100
0010
1000
0001
1000
0001
0100
0000
0000
0000
0001
0010
0100
1000
,
0001
0010
0100
1000
0001
0010
0100
1000
0001
0000
0000
0000
1000
0010
0100
0001
,
1000
0010
0100
0001
1000
0010
0100
0001
1000
0000
0000
0000
0001
0100
0010
1000
,
0001
0100
0010
1000
0001
0100
0010
1000
0001
0000
0000
0000
1000
0100
0010
0001
,
1000
0100
0010
0001
1000
0100
0010
0001
1000
0000
0000
0000
0001
0010
0001
0010
,
0100
0010
0100
0010
0100
1000
0100
1000
0001
0000
0000
0000
1000
0010
1000
0010
,
0100
0010
0100
0010
0100
0001
0100
0001
1000
0000
0000
0000
0001
0100
0001
0100
,
0010
0100
0010
0100
0010
1000
0010
1000
0001
0010
0100
1000
0001
0010
0100
1000
,
0001
0100
0010
1000
0001
0100
0010
1000
0100
0000
0000
0000
0000
0000
0011
0000
,
0101
0000
0000
0000
0000
0000
0010
1000
0100
0000
0000
0000
0011
0000
0000
0000
,
1010
0000
0000
0000
1001
0000
0000
0000
1000
0100
0010
0100
1000
0100
0010
0100
,
1000
0010
0100
0010
1000
0010
0100
0010
1000
0100
0010
0000
0001
0100
0010
0000
,
1000
0010
0100
0000
0001
0010
0100
1000
0001
0000
0000
0000
0000
0000
1100
0000
,
1010
0000
0000
0000
0000
0000
0100
0001
0010
0000
0000
0000
1100
0000
0000
0000
,
0101
0000
1001
0000
1000
0100
0001
0010
,
0001
0000
0100
0000
1000
0000
0010
0000
0020
0000
0000
0000
0000
0000
1030
0001
,
2000
0000
0000
3000
0000
0000
0001
0010
0100
1000
0010
0100
,
0001
0010
0100
1000
0010
0100
0001
0000
0000
1001
0000
0000
,
0100
0000
0000
0010
0000
0000
0100
0000
0000
0000
0000
0000
1000
0000
0100
0000
0010
0000
0001
0000
0100
0000
0010
0000
,
0100
0001
0010
0100
1000
0010
0100
0000
0000
1001
0000
0000
,
0001
0000
0000
0010
0000
0000
0100
0000
0000
0000
0000
0000
1000
0000
0100
0000
0100
0000
0001
0000
0010
0000
0010
0000
,
1000
0100
0100
0001
0010
0010
2000
0000
0000
3001
0000
0000
,
1001
0000
0000
1000
0100
0010
0010
0000
0000
0101
0000
0000
,
0010
0000
0000
0000
1100
0000
0000
0000
0001
0000
0100
0000
0001
0100
0000
0100
,
0010
1000
0010
1000
0001
0010
0001
0010
2000
0000
0000
0000
0000
0000
0000
0000
,
0000
0000
0000
0000
0000
3000
0000
0000
0011
0000
0000
0000
0101
0000
0000
0000
,
1100
1010
1001
0110
,
1000
0100
0001
0010
1000
0000
1001
0000
,
0001
0100
1000
0010
0001
0000
1001
0000
,
1100
0000
0000
0000
0101
0000
0000
0000
1000
0100
1000
0000
0100
0010
0100
0010
,
0001
0100
0001
0000
1000
0100
1000
0000
0001
0100
0010
0100
0010
0100
0000
0100
,
0001
1000
0001
0000
1000
0100
0010
0000
0001
0100
0001
0000
0100
0010
0000
0010
,
1000
0100
1000
0100
1000
0100
0000
0100
0010
0001
0000
0001
0100
0010
1000
0010
,
1000
0001
0010
0001
0010
0100
1000
0001
0100
0000
0010
0000
1000
0000
1100
0000
,
0000
0011
0100
0010
1100
0000
0001
0101
,
0000
1010
0000
1000
0101
0000
0001
1100
,
0000
1010
0000
0011
0000
1100
0000
0101
,
1000
0000
0000
0000
0000
0000
0100
0000
0000
0000
0000
0000
0010
0000
0000
0001
0000
0000
1000
0000
0000
0001
0000
0000
1000
0000
0000
0000
0100
0000
0000
0000
0010
0000
0000
0000
0001
0000
0000
0000
0100
0000
0000
0000
0010
0000
0000
0000
,
0100
0001
0010
0001
0100
0010
1000
0100
0010
0001
1000
0010
,
0100
0001
1000
0100
0010
0100
1000
0010
0110
0000
0101
0000
,
0001
0010
0110
0000
1100
0000
1000
0010
0110
0000
0101
0000
,
1001
0000
0000
0000
0000
0000
0000
0000
1010
0000
0000
0000
0000
0000
0000
0000
0011
0000
0000
0000
0000
0000
0000
0000
1001
0000
0000
0000
0000
0000
0000
0000
0000
1000
0000
0000
0100
0000
0000
0000
0000
0000
0001
0000
0000
0000
0000
0000
,
1000
0000
0010
0000
1001
0000
0000
0001
0100
0000
1000
0000
0001
0000
0010
0000
,
1001
0000
0000
1000
0010
0000
0001
0000
1000
0000
0100
0000
1001
0000
0000
0001
,
0010
1000
0001
0100
1001
0000
0000
1100
,
0000
0101
2002
0000
,
0000
0000
0000
0000
,
0000
0000
3003
0000
;

//---------------dance-double - ----------------
#NOTES:
     dance-double:
     :
     Hard:
     12:
     0.519,0.688,0.449,0.132,0.225: // measure 1
00000000
00000000
00000000
00000000
,  // measure 2
00000000
00000000
00000000
00000000
,  // measure 3
00000000
00000000
00011000
00000000
,  // measure 4
01010000
00000000
11000000
00000000
,  // measure 5
10100000
00000000
00110000
00100000
,  // measure 6
10000000
01000000
00010000
00001000
,  // measure 7
00000010
00000001
00000100
00001000
,  // measure 8
00010000
00100000
10000000
01010000
,  // measure 9
00001000
00010100
00000010
00000101
,  // measure 10
00000000
00000010
00000100
00001000
00000100
00000000
00011000
00000000
,  // measure 11
00000000
00100000
01000000
00010000
01000000
00000000
10100000
00000000
,  // measure 12
01000000
00110000
10000000
01010000
,  // measure 13
00100000
00010100
00001000
00000101
,  // measure 14
00000000
00001000
00000100
00010000
00001000
00000000
00110000
00000000
,  // measure 15
00000000
00010000
01000000
00100000
10000000
01000000
00010000
00000000
,  // measure 16
00001000
00000010
00000001
00000000
00001001
00000000
00000001
00000010
,  // measure 17
00000100
00001000
00010000
00100000
01000000
00000000
10000000
00100000
,  // measure 18
01000000
00010000
00001000
00000010
00000100
00000000
00000001
00000010
,  // measure 19
00000100
00001000
00010000
00100000
01000000
00000000
10000000
00100000
,  // measure 20
01000000
00010000
00001000
00000100
00000010
00000000
00000001
00000100
,  // measure 21
00000010
00001000
00010000
01000000
00100000
00000000
10000000
01000000
,  // measure 22
00100000
00010000
00001000
00000100
00000010
00000000
00000001
00000100
,  // measure 23
00000010
00010000
00001000
00100000
01000000
10000000
00100000
01000000
,  // measure 24
00010000
00000000
10010000
00000000
01100000
00000000
00000000
10000000
,  // measure 25
00010000
00000000
00000000
00001000
00000001
00000000
00000011
00000000
,  // measure 26
00000110
00000000
00001100
00000000
00000001
00000100
00001000
00000100
,  // measure 27
00000001
00001000
00010000
00001000
00000001
00000010
00001000
00000010
,  // measure 28
00000001
00000100
00001000
00000100
00000110
00000000
00000000
00000001
,  // measure 29
00001000
00000000
00000000
00010000
10000000
00000000
11000000
00000000
,  // measure 30
01100000
00000000
00110000
00000000
10000000
01000000
00010000
01000000
,  // measure 31
10000000
00000000
00010000
00000000
00001000
00000000
00010000
00000000
00200000
00000000
00000000
00000000
00000000
00000000
00301000
00010000
,  // measure 32
00002000
00000000
00013000
00011000
,  // measure 33
00001010
00000011
00000101
00000110
,  // measure 34
00000010
00001000
00000100
00010000
00011000
00000000
01001000
00000000
,  // measure 35
01100000
10100000
11000000
01000000
,  // measure 36
00100000
00000000
00000000
00010000
00000000
00000000
01000000
00000000
00000000
00100000
00000000
00000000
10000000
00000000
01000000
00000000
10000000
00000000
00010000
00000000
01000000
00000000
00010000
00000000
,  // measure 37
00100000
00001000
00100000
00010000
00000010
00000100
00002000
00000000
00000000
00003001
00000000
00000000
,  // measure 38
00001000
00000000
00000000
00000100
00010000
00001000
01000000
00000000
00000000
01100000
00000000
00000000
,  // measure 39
00100000
00000000
10100000
00000000
10000000
01000000
00010000
00000000
,  // measure 40
00001000
00000010
00000001
00000000
00002002
00000000
00000000
00000000
,  // measure 41
00000000
00000000
00000000
00000000
00000000
00003003
00000000
00000000
00000101
00000000
00000000
00000000
00001000
00000000
00000000
00000000
,  // measure 42
00010000
00100000
11000000
00010000
,  // measure 43
00001000
00000010
00000101
00001000
,  // measure 44
01010000
00000000
00100000
00000000
00011000
00000000
00000100
00000010
,  // measure 45
00000001
00000000
00000100
00000000
00000010
00000000
00001000
00000000
00000100
00000000
00010000
00000000
00000100
00010000
00000000
00000000
,  // measure 46
00001000
00000000
01000000
00000000
00100000
00000000
01000000
00000000
00010000
00000000
00100000
00000000
01000000
10000000
00000000
00000000
,  // measure 47
01000000
00000000
00100000
00000000
00001000
00000000
00010000
00000000
00000100
00000000
00000010
00000000
00000001
00001000
00000000
00000000
,  // measure 48
00000010
00000000
00010000
00000000
01000000
00000000
10000000
00000000
00100000
01000000
00000000
01000000
00100000
01000000
00000000
01000000
,  // measure 49
00001000
00100000
00010000
00000010
00000001
00000000
00001000
00010000
,  // measure 50
00000000
01000000
00100000
10000000
01000000
00000000
00010000
00001000
,  // measure 51
00000000
00000010
00000000
00000100
00010000
00000000
01000000
10000000
,  // measure 52
00000000
10100000
00000000
01010000
00000000
00101000
00000000
00010100
,  // measure 53
00001000
00000000
00000000
00000000
00000000
00000000
00000100
00000000
00000000
00000000
00000000
00000000
00000010
00000000
00000000
00000001
00000000
00000000
00001000
00000000
00000000
00000001
00000000
00000000
00000100
00000000
00000000
00000000
00000010
00000000
00000000
00000000
00000100
00000000
00000000
00000000
00000010
00000000
00000000
00000000
00000100
00000000
00000000
00000000
00000010
00000000
00000000
00000000
,  // measure 54
00001000
00000100
00001000
00000100
00001000
00000100
00010000
00001000
00010000
00001000
00010000
00001000
,  // measure 55
00100000
00010000
00100000
00010000
00100000
00010000
10000000
01000000
00200000
00000000
00320000
00000000
,  // measure 56
01030000
00100000
00020000
00000000
00032000
00000000
00103000
00010000
00002000
00000000
00003200
00000000
,  // measure 57
00000320
00000000
00000000
00000000
00000000
00000000
00000000
00000000
00000032
00000000
00000000
00000000
00000000
00000000
00000000
00000000
00001003
00000000
00000000
00000000
00000000
00000000
00000000
00000000
00001001
00000000
00000000
00000000
00000000
00000000
00000000
00000000
00000000
00000001
00000000
00000000
00000100
00000000
00000000
00000000
00000000
00000000
00001000
00000000
00000000
00000000
00000000
00000000
,  // measure 58
00010000
00000000
00100000
00000000
10000000
00000000
00000000
10000000
01000000
00000000
00010000
00000000
00001000
00000000
00000010
00000000
,  // measure 59
00000001
00000000
00000000
00000001
00000100
00000000
00001000
00000000
00010000
00000000
01000000
00000000
10000000
00000000
00000000
10000000
,  // measure 60
00100000
00010000
00001000
00000010
00000001
00000000
00000000
00011000
,  // measure 61
00000000
10010000
00022000
00000000
,  // measure 62
00000000
00000000
00000000
00000000
,  // measure 63
00000000
00000000
00033000
00000000
;

//---------------dance-double - ----------------
#NOTES:
     dance-double:
     :
     Challenge:
     16:
     0.709,0.771,0.335,0.053,0.820:
00000000
00000000
00000000
00000000
,
00000000
00000000
00000000
00000000
,
00000000
00000000
00000000
00000000
00000000
00000000
00000000
00000000
10000000
01000000
10000000
01000000
00100000
00001000
00100000
00000000
,
00001000
00010000
00001000
00010000
00000100
00001000
00000100
00000000
00001000
00000010
00001000
00000010
00000100
00000001
00000100
00000000
,
00000001
00000010
00000001
00000010
00000100
00010000
00000100
00000000
00010000
00001000
00010000
00000000
00001000
01000000
00001000
00000000
,
01000000
00100000
01000000
00000000
00100000
10000000
00100000
00000000
10000000
01000000
00100000
00010000
10000000
01000000
00100000
00010000
,
10000000
00100000
01000000
00010000
00100000
00001000
00010000
01000000
10000000
00000000
00000000
00000000
00001000
00000000
00000000
00000000
,
00000001
00000000
00010000
00000000
10000000
01000000
00010000
01000000
,
00100000
00001000
00000100
00000010
00000100
00001000
00011000
00000000
,
00010000
01000000
10000000
00100000
01000000
00001000
00011000
00000000
,
00010000
00000100
00000010
00000001
00000100
00001000
00010000
01000000
,
10000000
01000000
00001000
00010000
00110000
00000000
10000000
01000000
,
00010000
00001000
00000100
00000010
00010000
01000000
01100000
00000000
,
10000000
00000000
01000000
00000000
00010000
00000000
00000100
00000000
00000010
00000001
00000010
00000000
00001000
00000000
00010000
00000000
,
00000000
00000000
00100000
00000000
10000000
00000000
00100000
00000000
00010000
00001000
00010000
00000000
00001000
00000100
00000000
00000010
,
00010000
00001000
00010000
00001000
00100000
00010000
00100000
00010000
10000000
00000000
00000000
00000000
00010000
01000000
00100000
10000000
,
00010000
01000000
00100000
10000000
00010000
01000000
00100000
10000000
00010000
00000000
00000000
00000000
00001000
00000100
00000010
00000001
,
00001000
00000100
00000010
00000001
00001000
00000100
00000010
00000001
00001000
00000000
00000000
00000000
00010000
00100000
01000000
10000000
,
00010000
00100000
01000000
10000000
00010000
00100000
01000000
10000000
00010000
00000000
00000000
00000000
00001000
00000010
00000100
00000001
,
00001000
00000010
00000100
00000001
00001000
00000010
00000100
00000001
00001000
00000000
00000000
00000000
00010000
00100000
00010000
00100000
,
01000000
00100000
01000000
00100000
01000000
10000000
01000000
10000000
00010000
00000000
00000000
00000000
00001000
00000100
00001000
00000100
,
00000010
00000100
00000010
00000100
00000010
00000001
00000010
00000001
00001000
00000000
00000000
00000000
00010000
00100000
00010000
00100000
,
01000000
10000000
01000000
10000000
00010000
01000000
00010000
01000000
00001000
00010000
00001000
00010000
00000100
00001000
00000100
00001000
,
00000010
00000100
00000001
00000010
00000100
00001000
00000010
00000100
00000001
00000000
00000000
00000000
00000000
00000000
00001000
00000000
,
00010100
00000000
00000000
00000000
00000000
00000000
00001000
01000000
00100000
00000000
00000000
00000000
10100000
00000000
00000000
00000000
,
01010000
00000000
00000000
00000000
00101000
00000000
00000000
00000000
00001000
00100000
01000000
10000000
00010000
00100000
01000000
10000000
,
00001000
00100000
01000000
10000000
00010000
00100000
01000000
10000000
00010000
01000000
00100000
10000000
00001000
01000000
00100000
10000000
,
00010000
01000000
00100000
10000000
00001000
01000000
00100000
10000000
00010000
00000000
00000000
00000000
00000000
00000000
01000000
00000000
,
00011000
00000000
00000000
00000000
00000000
00000000
00000100
00000010
00000001
00000000
00000000
00000000
00000110
00000000
00000000
00000000
,
00011000
00000000
01100000
00000000
10000000
01000000
00010000
00000100
,
00001000
00000000
00100000
00000000
01000000
00000000
10000000
00000000
00020000
00000000
00000000
00000000
00000000
00000000
00130000
10000000
,
00020000
00000000
00000000
00000000
00000000
00000000
00130000
01000000
10000000
00100000
01000000
00010000
,
00100000
00001000
00010000
00000100
00000010
00000001
00000100
00000000
00000000
00000110
00000000
00000000
,
00000010
00000000
00000000
00010010
00000000
00000000
00010000
00001000
00001000
00000100
00010000
00010000
,
00100000
01000000
01000000
00010000
00100000
01000000
10000000
00000000
00000000
10010000
00000000
00000000
,
00010000
00000000
00000000
00000000
00000000
00000000
00110000
00000000
00000000
00100000
00000000
00000000
01000000
00000000
00010000
00000000
00001000
00000000
00000010
00000000
00001000
00000000
00010000
00000000
,
00100000
00010000
00001000
00000100
00001000
00010000
02000000
00000000
00000000
13000000
00000000
00000000
,
00010000
00000000
00000000
10000000
01000000
00010000
00001000
00000000
00000000
00000100
00000000
00000000
,
00000001
00000010
00001000
00010000
,
01000000
10000000
00200000
00000000
,
00000000
00000000
00000000
00000000
00000000
00000000
00000000
00000000
00000000
00000000
00000000
00300000
00000000
00000000
00000000
00000000
11000000
00000000
00000000
00000000
00000000
00000000
00000000
00000000
00010000
00000000
00000000
00000000
00000000
00000000
00000000
00000000
,
00001000
00000010
00000101
00001000
,
00010000
00100000
11000000
00010000
,
00001010
00000000
00000001
00000000
00001100
00000000
00010000
00100000
,
10000000
00000000
01000000
00000000
00010000
00000000
00001000
00000000
00000010
00000001
00000010
00000000
00000001
00000100
00000001
00000100
,
00000010
00001000
00000010
00000000
00010000
00001000
00010000
00000000
00001000
01000000
00001000
01000000
00001000
01000000
00000000
00100000
,
10000000
01000000
10000000
00000000
00010000
01000000
00010000
00000000
00100000
00001000
00100000
00000000
00001000
00010000
00000000
00000100
,
00010000
00000010
00010000
00000010
00001000
00000100
00000000
00000010
00000001
00000100
00000000
00000010
00010000
00001000
00010000
00001000
,
00100000
00010000
00100000
00010000
01000000
00100000
01000000
00100000
10000000
00000000
00000000
00000000
00010000
00000000
01000000
00000000
,
00000000
00001000
00010000
00000100
00000010
00000000
00000001
00000100
,
00000000
00001000
00000000
00010000
00100000
00000000
01000000
00001000
,
00000000
00001100
00000000
00000110
00000000
00010010
00000000
00011000
,
00001000
00000000
00000000
00000000
00000000
00000000
01000000
00000000
00000000
00000000
00000000
00000000
00100000
00000000
00000000
10000000
00000000
00000000
00010000
00000000
00000000
10000000
00000000
00000000
01000000
00000000
00000000
00000000
00010000
00000000
00000000
00000000
00001000
00000000
00000000
00000000
00010000
00000000
00000000
00000000
00001000
00000000
00000000
00000000
00000100
00000000
00000000
00000000
,
00001000
00010000
00100000
00010000
00100000
10000000
00100000
10000000
01000000
10000000
01000000
00010000
,
01000000
00010000
00001000
00010000
00001000
00000010
00000001
00000100
00000110
00000000
00001010
00000000
,
00001000
00000100
00010100
00000000
00011000
00000000
00001000
01000000
01100000
00000000
10100000
00000000
,
11000000
00000000
00000000
00000000
00000000
00000000
00000000
00000000
01010000
00000000
00000000
00000000
00000000
00000000
00000000
00000000
00011000
00000000
00000000
00000000
00000000
00000000
00000000
00000000
01001000
00000000
00000000
00000000
00000000
00000000
00000000
00000000
00000000
01000000
00000000
00000000
10000000
00000000
00000000
00000000
00000000
00000000
01000000
00000000
00000000
00000000
00000000
00000000
,
00001000
00000000
00010000
00000000
00000100
00000000
00000000
00000100
00000001
00000000
00000100
00000000
00010000
00000000
00001000
00000000
,
00100000
00000000
00000000
00100000
10000000
00000000
00100000
00000000
00001000
00000000
00010000
00000000
00000010
00000000
00000000
00000010
,
00000001
00000010
00010000
00001000
01000000
00000000
00000000
00011000
,
00000000
00000110
00002002
00000000
,
00000000
00000000
00000000
00000000
,
00000000
00000000
00003003
00000000
;

//---------------dance-single - ----------------
#NOTES:
     dance-single:
     :
     Medium:
     8:
     0.381,0.413,0.159,0.211,0.062:
0000
0000
0000
0000
,
0000
0000
0000
0000
,
0000
0000
0001
0000
,
0010
0000
0100
0000
,
1000
0000
0001
0010
,
0100
1000
0001
0100
,
0010
1000
0001
0100
,
1000
0010
0001
0100
,
0010
0100
0100
0110
,
0000
1000
0001
1000
0001
0000
0110
0000
,
0000
0001
1000
0001
1000
0000
0100
0000
,
0010
0100
0010
0001
,
0100
0010
1000
1001
,
0000
0100
0010
0100
0010
0000
1001
0000
,
0000
0010
0100
0010
0100
0000
0001
0000
,
0010
0100
1000
0002
,
0100
1000
0013
0200
,
1000
0010
0301
2000
,
0010
0001
3100
0020
,
0001
0100
1030
0020
,
0032
0203
0310
2000
,
3200
0320
0031
0200
,
0320
0000
2030
0000
3001
0010
0001
0010
,
0100
1000
0100
1000
0001
0000
0000
0100
,
0010
0000
0000
1000
0001
0000
1000
0000
,
0010
0000
0110
0000
1000
0100
1000
0000
,
0100
0001
0100
0000
0001
0010
0001
0000
,
0010
1000
0010
0000
1000
0000
0000
0001
,
0100
0000
0000
0010
1000
0000
0100
0000
,
0001
0000
0010
0000
1000
0010
1000
0000
,
0010
0001
0010
0000
0002
0000
0000
0103
,
2000
3000
0001
0101
,
1000
1100
1001
0110
,
0000
1001
1000
1100
,
0001
0101
1001
0110
,
0000
0000
0000
1001
0000
0000
1000
0000
1000
0100
0000
0100
,
0010
0000
0010
0001
0000
0001
2000
0000
0000
3000
0000
0000
,
0000
0000
0000
0001
1000
0001
1000
0000
0000
0010
0000
0000
,
0100
0000
0001
0000
1000
0100
0010
0000
,
0001
0100
0010
0000
2002
0000
0000
0000
,
0000
0000
0000
0000
0000
3003
0000
0000
0001
0000
0000
0000
0100
0000
0000
0000
,
1000
0010
0010
0001
,
0000
1000
0100
0001
0100
0000
1000
0000
,
0000
0001
0100
1000
0100
0000
0001
0000
,
1000
0000
0100
0000
0010
0001
0010
0000
,
0001
0100
0001
0000
0100
0010
1000
0000
,
0100
0010
0001
0000
1000
0100
1000
0000
,
0100
0010
0100
0000
0010
0000
0001
0000
,
0100
0000
1000
0000
0010
0000
0001
0100
,
0000
0001
0000
1000
0100
0000
1000
0001
,
0000
1000
0000
0001
0100
0000
0001
0010
,
0000
0100
0000
1000
0000
0010
0000
0100
,
0001
1000
0102
0000
,
0023
0000
2030
0000
,
3200
0000
0000
0000
0000
0000
0301
0000
0010
0000
0100
0000
,
1000
0000
0100
0000
0010
0000
0001
0000
0100
0000
0010
0000
,
1000
0000
0000
0000
0010
0000
0000
0000
0100
0000
0000
0000
0001
0000
0000
0000
0000
0000
1000
0000
0000
0001
0000
0000
,
0100
1000
0001
0000
1000
0100
0001
0010
,
0100
0000
0001
1000
0010
0001
0100
0000
,
1000
0001
0010
0100
1000
0000
0000
0100
,
0000
0001
2002
0000
,
0000
0000
0000
0000
,
0000
0000
3003
0000
;

//---------------dance-single - ----------------
#NOTES:
     dance-single:
     :
     Easy:
     5:
     0.217,0.275,0.070,0.044,0.000:
0000
0000
0000
0000
,
0000
0000
0000
0000
,
0000
0000
0100
0000
,
0100
0000
0100
0000
,
0100
0000
0200
0000
,
0300
0000
0020
0000
,
0030
0000
1000
0100
,
0010
0001
1000
1000
,
0001
1000
0001
0001
,
0000
1000
0100
0010
,
0000
0001
0100
0010
,
0100
0001
1000
0000
,
0001
0000
0100
0010
,
0000
0010
0100
0010
,
0000
1000
0100
0010
,
0001
1000
0100
0010
,
0010
0010
0000
0001
,
0001
0001
0000
1000
,
1000
1000
0000
0010
,
0010
0010
0000
0100
,
0010
0100
0000
0010
,
1000
0010
0000
1000
,
0001
1000
0000
0001
,
0010
0001
0010
0000
,
0100
0000
1000
0001
,
0100
0010
1000
1000
,
0001
0001
1000
0001
,
1000
0000
0001
0000
,
0100
0000
0010
1000
,
0001
0010
0100
0100
,
0010
0100
1000
0000
,
0001
0000
0100
0100
,
0100
0100
0100
0100
,
0000
0000
0010
0010
,
0010
0010
0010
0010
,
0000
0000
1000
0001
,
1000
0001
0020
0030
,
0000
0100
1000
0001
,
0100
0010
0100
0001
,
1000
0100
0020
0000
,
0000
0000
0000
0000
0000
0030
0000
0000
0001
0000
0000
0000
0000
0000
0000
0000
,
0000
0000
1000
0000
,
0000
0000
0100
0000
,
0000
0000
0010
0001
,
1000
0001
0100
0100
,
0100
0000
0010
0010
,
0010
0000
1000
0100
,
1000
0000
0001
0100
,
0001
0000
1000
0000
,
0100
0000
0010
0001
,
0100
0001
0010
0000
,
0100
0000
1000
0010
,
0100
0000
1001
0000
,
1001
0000
1001
0000
,
1001
0000
0110
0000
,
0110
0000
0110
0000
,
0110
0000
1000
0000
,
0000
0001
0000
0000
,
0100
0000
0000
0010
,
0000
0000
0000
0000
1000
0000
0000
0001
,
0000
0100
0020
0000
,
0000
0000
0000
0000
,
0000
0000
0030
0000
;

//---------------dance-single - ----------------
#NOTES:
     dance-single:
     :
     Beginner:
     1:
     0.091,0.133,0.009,0.000,0.000:
0000
0000
0000
0000
,
0000
0000
0000
0000
,
0000
0000
1000
0000
,
0000
0000
0001
0000
,
0000
0000
1000
0000
,
0000
0000
0001
0000
,
0000
0000
0100
0000
,
0000
0000
0010
0000
,
0000
0000
1000
0000
,
0000
0000
0001
0000
,
0000
0000
1000
0000
,
0000
0000
0100
0000
,
0100
0000
0100
0000
,
0000
0000
0010
0000
,
0000
0000
0001
0000
,
0001
0000
0001
0000
,
0000
0000
1000
0000
,
0000
0000
0100
0000
,
0000
0000
0010
0000
,
0000
0000
0001
0000
,
0000
0000
1000
0000
,
0000
0000
0010
0000
,
0000
0000
0100
0000
,
0100
0000
0100
0000
,
0001
0000
1000
0000
,
0000
0000
0100
0000
,
0100
0000
0100
0000
,
0100
0000
0010
0000
,
0001
0000
1000
0000
,
0000
0000
0010
0000
,
0010
0000
0010
0000
,
0000
0000
1000
0000
,
0000
0000
0001
0000
,
0000
0000
0100
0000
,
0000
0000
0010
0000
,
0000
0000
1000
0000
,
1000
0000
1000
0000
,
0000
0000
0001
0000
,
0000
0000
1000
0000
,
0000
0000
0001
0000
,
0000
0000
0000
0000
,
0000
0000
1000
0000
,
0000
0000
0100
0000
,
0000
0000
0001
0000
,
0001
0000
0001
0000
,
0000
0000
0010
0000
,
0000
0000
0100
0000
,
0000
0000
1000
0000
,
1000
0000
1000
0000
,
0000
0000
0010
0000
,
0000
0000
0001
0000
,
0000
0000
0100
0000
,
0000
0000
1000
0000
,
0000
0000
0001
0000
,
0000
0000
0100
0000
,
0000
0000
0010
0000
,
0010
0000
0010
0000
,
0000
0010
0000
0000
,
0010
0000
0000
0010
,
0000
0000
0010
0000
,
0000
0000
1001
0000
;

//---------------dance-double - ----------------
#NOTES:
     dance-double:
     :
     Medium:
     9:
     0.378,0.413,0.123,0.159,0.035: // measure 1
00000000
00000000
00000000
00000000
,  // measure 2
00000000
00000000
00000000
00000000
,  // measure 3
00000000
00000000
00011000
00000000
,  // measure 4
00010000
00000000
01010000
00000000
,  // measure 5
01000000
00000000
10000000
01000000
,  // measure 6
00010000
00001000
00010000
00001000
,  // measure 7
00000100
00000001
00001000
00000100
,  // measure 8
00000010
00000000
00000001
00000000
00000100
00000010
00000100
00000000
,  // measure 9
00000010
00001000
00000010
00000000
00001000
00000000
00000100
00000000
,  // measure 10
00000000
00010000
00001000
00000000
00100000
00000000
00010000
00000000
,  // measure 11
00000000
01000000
00100000
00000000
10000000
00000000
01000000
00000000
,  // measure 12
00010000
00001000
00010000
00001000
,  // measure 13
00000100
00000010
00001000
00001001
,  // measure 14
00000000
00000001
00000010
00000000
00000001
00000000
00000100
00000000
,  // measure 15
00000000
00000010
00001000
00000000
00000100
00000000
00010000
00000000
,  // measure 16
01000000
00000000
10000000
00000000
10010000
00000000
00010000
01000000
,  // measure 17
00010000
01000000
00010000
01000000
00000000
00000000
00001000
00010000
,  // measure 18
00001000
00010000
00001000
00010000
00000000
00000000
00000100
00001000
,  // measure 19
00000100
00001000
00000100
00001000
00000000
00000000
00000001
00000100
,  // measure 20
00000001
00000100
00000001
00000100
00000001
00000000
00001000
00000100
,  // measure 21
00001000
00000100
00001000
00000100
00010000
00000000
00010000
00001000
,  // measure 22
00010000
00001000
00010000
00001000
00100000
00000000
00100000
00010000
,  // measure 23
00100000
00010000
00100000
00010000
10000000
00000000
00100000
00000000
,  // measure 24
00010000
00000000
01000000
00000000
10000000
00000000
00000000
00010000
,  // measure 25
00010000
00000000
00000000
00001000
00001000
00000000
00000001
00000000
,  // measure 26
00000100
00000010
00002000
00003200
,  // measure 27
00020300
00032000
00023000
00030200
,  // measure 28
00002300
00000000
00003010
00000100
00000001
00000000
00000000
00001000
,  // measure 29
00001000
00000000
00000000
00010000
00010000
00000000
10000000
00000000
,  // measure 30
01000000
00000000
00100000
00000000
00010000
01000000
00010000
00000000
,  // measure 31
01000000
00001000
01000000
00000000
00002000
00000000
00000000
00010000
,  // measure 32
00013000
00000000
00000100
00000010
,  // measure 33
00000001
00000100
00001000
00010000
,  // measure 34
00000000
00100000
10000000
00010000
,  // measure 35
10000000
01000000
00010000
00001000
,  // measure 36
00000100
00000000
00000010
00000010
00002000
00000000
00003002
00000000
,  // measure 37
00000023
00002030
00023000
00030000
,  // measure 38
00000000
00002000
01003000
00010000
,  // measure 39
10000000
01000000
00110000
11000000
,  // measure 40
10100000
01010000
20020000
00000000
,  // measure 41
00000000
00000000
00000000
00000000
00000000
30030000
00000000
00000000
00010000
00000000
00000000
00000000
10000000
00000000
00000000
00000000
,  // measure 42
01000000
00010000
00010000
00001000
,  // measure 43
00000000
00001000
00000100
00000010
00001000
00000000
00000001
00000000
,  // measure 44
00000000
00001000
00000100
00000010
00000001
00000000
00000100
00000000
,  // measure 45
00001000
00000000
00010000
00000000
01000000
10000000
00010000
00000000
,  // measure 46
00010000
10000000
01000000
00000000
00010000
00001000
00010000
00000000
,  // measure 47
00001000
00010000
00001000
00000000
00010000
00000100
00001000
00000000
,  // measure 48
00000100
00000010
00000001
00000000
00000100
00000010
00000100
00000010
,  // measure 49
00001000
00000001
00001000
00000000
00000001
00000000
00000010
00000100
,  // measure 50
00000000
00000010
00000001
00000000
00001000
00000000
00000100
00010000
,  // measure 51
00000000
00001000
00000000
00001000
00100000
00000000
00010000
01000000
,  // measure 52
00000000
00000000
00100000
10000000
00010000
00000000
10000000
01000000
,  // measure 53
00000000
00000000
00100000
00010000
10010000
00000000
00000000
00000000
,  // measure 54
01010000
00000000
00011000
00000000
,  // measure 55
00010100
00000000
00000000
00000000
00000000
00000000
00001000
00000000
00000010
00000000
00000010
00000000
,  // measure 56
00000100
00000000
00000001
00000000
00000001
00000000
00001000
00000000
00000100
00000000
00000100
00000000
,  // measure 57
00010000
00000000
00000000
00000000
00001000
00000000
00000000
00000000
00010000
00000000
00000000
00000000
01000000
00000000
00000000
00000000
00000000
00000000
10000000
00000000
00000000
00010000
00000000
00000000
,  // measure 58
01000000
00001000
00100000
00000000
00001000
00010000
00000100
00001000
,  // measure 59
00000010
00000000
00000100
00000001
00001000
00000100
00010000
00000000
,  // measure 60
00001000
00100000
00010000
01000000
00100000
00000000
00000000
10000000
,  // measure 61
00000000
01000000
20020000
00000000
,  // measure 62
00000000
00000000
00000000
00000000
,  // measure 63
00000000
00000000
30030000
00000000
;

//---------------dance-double - ----------------
#NOTES:
     dance-double:
     :
     Easy:
     5:
     0.238,0.275,0.062,0.062,0.000: // measure 1
00000000
00000000
00000000
00000000
,  // measure 2
00000000
00000000
00000000
00000000
,  // measure 3
00000000
00000000
00010000
00000000
,  // measure 4
00001000
00000000
00000100
00000000
,  // measure 5
00000001
00000000
00001000
00001000
,  // measure 6
00000001
00000001
00000100
00000010
,  // measure 7
00001000
00000100
00010000
00001000
,  // measure 8
00010000
00001000
01000000
00010000
,  // measure 9
10000000
00010000
00010000
01000000
,  // measure 10
00000000
00010000
00100000
00000000
00001000
00000000
00100000
00000000
,  // measure 11
00000000
00001000
00010000
00000000
00000100
00000000
00010000
00000000
,  // measure 12
00000010
00001000
00000100
00000010
,  // measure 13
00000001
00000100
00000010
00001000
,  // measure 14
00000000
00000100
00010000
00000000
00001000
00000000
00100000
00000000
,  // measure 15
00000000
00010000
01000000
00000000
00010000
00000000
10000000
00000000
,  // measure 16
01000000
00100000
00020000
00000000
,  // measure 17
00000000
00000000
20030000
00000000
,  // measure 18
00000000
00000000
32000000
00000000
,  // measure 19
00000000
00000000
03020000
00000000
,  // measure 20
00000000
00000000
00031000
00000100
,  // measure 21
00000010
00001000
00000001
00000010
,  // measure 22
00000000
00000100
00001000
00000001
,  // measure 23
00000100
00000010
00001000
00000100
,  // measure 24
00010000
00001000
00010000
00000000
00001000
00000000
00000000
00000000
,  // measure 25
00000010
00000000
00000001
00001000
,  // measure 26
00000001
00001000
00000100
00000100
,  // measure 27
00010000
00010000
00001000
00001000
,  // measure 28
00100000
00100000
00010000
00000000
,  // measure 29
10000000
00000000
01000000
00100000
,  // measure 30
01000000
00010000
00001000
00000000
,  // measure 31
00000100
00000000
00000010
00000000
,  // measure 32
00001000
00000000
00000001
00000010
,  // measure 33
00000001
00000100
00000010
00000000
,  // measure 34
00001000
00000000
00000100
00010000
,  // measure 35
00000100
00010000
00001000
00000000
,  // measure 36
01000000
00000000
00010000
00100000
,  // measure 37
01000000
10000000
00020000
00030000
,  // measure 38
00000000
10000000
01000000
00100000
,  // measure 39
01000000
10000000
00100000
01000000
,  // measure 40
00100000
10000000
02000000
00000000
,  // measure 41
00000000
00000000
00000000
00000000
00000000
03000000
00000000
00000000
00010000
00000000
00000000
00000000
00000000
00000000
00000000
00000000
,  // measure 42
00001000
00000000
00000100
00000000
,  // measure 43
00000010
00000000
00000001
00000000
,  // measure 44
00001000
00000000
00000100
00000000
,  // measure 45
00000010
00000000
00010000
00001000
,  // measure 46
00010000
00001000
00100000
00000000
,  // measure 47
00100000
00000000
00010000
01000000
,  // measure 48
00010000
01000000
00100000
00000000
,  // measure 49
00100000
00000000
10000000
00000000
,  // measure 50
01000000
00000000
00100000
00001000
,  // measure 51
00010000
00000100
00001000
00000000
,  // measure 52
00000010
00000000
00000100
00000001
,  // measure 53
00000010
00000100
00001000
00000000
,  // measure 54
00001100
00000000
00000001
00000000
,  // measure 55
00000101
00000000
00001010
00000000
,  // measure 56
00001100
00000000
00011000
00000000
,  // measure 57
00110000
00000000
01010000
00010000
,  // measure 58
01000000
00001000
00010000
00000100
,  // measure 59
00001000
00000100
00010000
00001000
,  // measure 60
01000000
00000000
00010000
00000000
00100000
00000000
00000000
01000000
,  // measure 61
00000000
10000000
00020000
00000000
,  // measure 62
00000000
00000000
00000000
00000000
,  // measure 63
00000000
00000000
00030000
00000000
;
