#TITLE:One More Lovely -after hours-;
#SUBTITLE:;
#ARTIST:Risk Junk;
#TITLETRANSLIT:;
#SUBTITLETRANSLIT:;
#ARTISTTRANSLIT:;
#GENRE:;
#CREDIT:Silverhawke;
#MENUCOLOR:;
#METERTYPE:DDR;
#BANNER:One More Lovely -after hours-.png;
#BACKGROUND:One More Lovely -after hours--bg.png;
#LYRICSPATH:;
#CDTITLE:cdtitle.png;
#MUSIC:One More Lovely -after hours-.mp3;
#OFFSET:-0.029;
#SAMPLESTART:64.520;
#SAMPLELENGTH:15.000;
#SELECTABLE:YES;
#LISTSORT:;
#BPMS:0.000=200.000,112.000=100.000,148.000=200.000;
#STOPS:;
#BGCHANGES:;
#ATTACKS:;

//---------------dance-single - ----------------
#NOTES:
     dance-single:
     :
     Hard:
     12:
     0.626,0.644,0.380,0.251,0.028:
0000
0000
0000
0000
,
0000
0000
0000
0000
,
0000
0000
0000
0000
,
0000
0000
0000
0000
,
0000
0000
0000
0000
,
0001
0100
0010
0100
0000
0100
0010
1000
,
0000
1000
0100
0010
0000
0010
0001
0100
,
0000
0001
0000
0001
0000
0100
0000
0100
,
0000
1000
0000
1000
0000
0100
0000
0100
,
0010
0100
0000
0100
0001
0100
0010
1000
,
0000
0100
0000
0100
0010
0100
1000
0001
,
0000
0100
0000
0100
0001
1000
0100
0010
,
0001
0001
0100
0100
0010
0010
2000
0000
,
3000
0100
0000
0100
0001
0100
1000
0100
,
0000
0010
0000
0010
0001
0010
1000
0010
,
0000
0001
0000
0001
0100
0001
0010
0200
,
0000
1300
0010
0010
0100
0100
0002
0000
,
1003
0100
1000
0100
0001
0100
0001
0100
,
0010
0001
0010
0001
1000
0010
1000
0000
,
0100
1000
0010
1000
0100
0010
0001
0100
,
0010
0100
0001
1000
0010
0100
0001
0000
,
0100
0001
0100
0001
1000
0010
1000
0010
,
1000
0100
1000
0100
0010
0001
0010
0000
,
0001
1000
0010
0100
1000
0100
0010
0100
,
0002
0023
0230
2300
,
3001
1100
1000
0101
,
1100
1010
0011
0101
,
0011
1010
1100
1001
,
0120
0000
2030
0000
,
3200
0000
0320
0000
,
0032
0000
2003
0000
,
3020
0000
0000
0000
0130
0000
0000
0001
,
0020
0000
0000
0001
0130
0010
0001
0100
,
0020
0000
0000
0100
1030
0001
0100
0010
,
2000
0000
0000
0010
3001
1000
0100
0010
,
0002
0000
0000
0000
0000
0000
0100
0000
1003
0100
0000
0001
0000
0100
0000
0000
,
2002
0000
0000
0000
0000
0000
0000
3003
,
1000
0100
1000
0100
0010
0100
1000
0000
,
0001
0100
0010
1000
0100
0000
0110
0000
,
0001
0100
1000
0000
1000
0100
0001
0100
,
1000
0100
0001
0010
,
0100
1000
0010
0000
0100
0001
0010
0000
,
0010
0001
0100
0000
0010
1000
0100
0000
,
0001
0100
1000
0010
0100
0001
0010
0100
,
1000
0100
0001
0100
1000
0010
0100
0001
,
0100
0010
1000
0000
1000
0010
0100
0000
,
0100
0001
0010
0001
0100
0010
1000
0000
,
0100
0010
0001
0000
0001
0010
0100
0000
,
1000
0010
0001
0010
1000
0100
0010
0000
,
0001
0100
1000
0000
1000
0100
0001
0000
,
1000
0100
0001
0100
1000
0010
0100
0000
,
0001
0010
1000
0000
1000
0010
0001
0010
,
0100
1000
0000
1100
0000
0101
0000
0000
,
1100
0012
0100
0013
,
0101
2010
0100
3010
,
1001
0120
1000
0031
,
1010
0102
0010
0103
,
1100
0210
0001
1300
,
0011
1002
0100
0013
,
0110
2001
0100
3010
,
0101
0000
0000
0000
0001
0000
0010
0000
0100
0000
0000
1000
0001
0000
0100
0000
,
0010
0000
0100
0001
0100
1000
0100
0000
,
0001
0000
0010
1000
0010
0001
0010
0000
,
0100
0000
1000
0100
0001
0100
1000
0000
,
0010
0000
0100
0001
0010
0001
0100
0000
,
0010
0000
0001
0010
0100
0010
0001
0000
,
1000
0000
0100
0001
0010
0001
0100
0000
,
0010
0000
1000
0100
0001
0100
1000
0000
,
0001
0100
1000
0100
0001
0010
1000
0010
,
0001
0101
1000
1100
,
0011
1010
1100
1001
,
0101
0101
1010
1010
,
1100
0000
0000
0110
0000
0000
0011
0000
0000
0001
1000
0001
,
1000
1100
0001
0101
,
1000
1010
0001
0011
,
0001
0010
0100
0000
1000
0010
0100
0000
,
0001
0010
0100
1000
0010
0100
0001
1000
,
0001
0100
0010
0000
0010
0100
0001
0000
,
1000
0100
0001
0100
1000
0010
0100
0000
,
0100
0010
1000
0000
1000
0010
0100
0000
,
0100
0001
0010
0100
1000
0001
0100
0000
,
0200
0010
0000
0010
,
0000
1000
0000
1000
,
0000
0001
0000
0301
,
1000
0100
0000
0001
0000
0100
2000
0000
,
3001
0100
0000
1000
0000
0100
0002
0000
,
1003
0100
0001
0100
1000
0100
0001
0100
,
1000
0010
0001
0010
1000
0100
0001
0100
,
1000
0000
0001
0000
0020
0000
0000
1030
0000
0000
0000
0000
0000
0000
0000
0000
;

//---------------dance-single - ----------------
#NOTES:
     dance-single:
     :
     Medium:
     10:
     0.528,0.608,0.129,0.453,0.016:
0000
0000
0000
0000
,
0000
0000
0000
0000
,
0000
0000
0000
0000
,
0000
0000
0000
0000
,
0000
0000
0000
0000
,
0001
0001
1000
1000
,
0100
0000
0100
0000
0010
0000
0010
0002
,
0000
1000
0000
1000
,
0000
1000
1003
0001
,
0100
0000
0001
0000
1000
0100
0010
0000
,
0001
0000
0100
0000
0001
0010
0100
0000
,
1000
0000
0010
0000
1000
0100
0010
0000
,
0002
0023
0230
2300
,
3001
0000
0100
0000
0010
0100
0001
0000
,
1000
0000
0100
0000
0010
0100
1000
0000
,
0001
0000
0010
0000
0100
0010
0001
0000
,
2000
3020
0230
0302
,
1003
0000
1000
0000
1000
0100
0010
0100
,
1000
0000
0001
0000
0001
0100
0010
0100
,
0001
0000
0100
0000
0010
1000
0100
0010
,
0100
0000
1000
0000
0001
1000
0001
1000
,
0010
0000
0100
0000
0001
0100
0010
0100
,
0001
0000
1000
0000
0100
0010
0001
0010
,
0100
0000
0100
0000
1000
0001
1000
0000
,
0002
0023
0230
2300
,
3002
0203
0320
2030
,
3002
0100
2003
0100
,
3002
0010
2003
0010
,
3002
0000
0000
0003
0020
0000
0000
0030
,
0200
0000
0000
0300
2000
0000
0000
3000
,
0020
0000
0000
0030
0200
0000
0000
0300
,
0002
0000
0000
0000
1003
0000
0000
0001
,
0100
0000
0000
0001
0010
0100
1000
0001
,
0100
0000
0000
0010
1000
0100
0010
0100
,
1000
0000
0000
0010
0100
1000
0100
0001
,
0010
0000
0000
0000
0000
0000
0100
0000
0010
0100
0000
1000
0000
0001
0000
0000
,
2002
0000
0000
0000
0000
0000
0000
3003
,
0001
0000
0100
0000
0001
0100
0010
0000
,
0100
0001
1000
0000
0100
0000
0010
0000
,
0100
1000
0001
0000
0100
0001
1000
0000
,
0010
0100
0002
0000
0010
0000
0103
0000
,
0010
0100
0001
0000
0020
0000
0230
0000
,
1300
0100
0001
0000
0200
0000
2300
0000
,
3010
0100
0001
0100
,
0010
0100
0010
0000
1000
0100
1000
0010
,
0100
0001
0010
0100
,
1100
1100
1100
1100
,
1000
0010
0100
0001
,
0101
0101
0101
0101
,
0001
0010
0100
1000
,
1010
1010
1010
1010
,
0010
0100
0001
1000
,
0001
0100
0000
0010
0000
0110
0000
0000
,
0002
0010
1000
0103
,
2000
0010
0001
3100
,
0002
0100
1000
0013
,
2000
0100
0001
3010
,
0200
0001
0010
0301
,
0020
1000
0100
1030
,
0002
0010
1000
0013
,
2000
0010
0001
3010
,
0100
0001
0010
0000
0200
0000
1300
0000
,
0001
0100
0010
0000
2000
0000
3010
0000
,
0100
0001
1000
0000
0200
0000
0310
0000
,
0001
0010
0100
0000
2000
0000
3010
0000
,
0100
0001
1000
0001
0020
0000
0130
0000
,
1000
0001
0100
0001
2000
0000
3100
0000
,
0010
0100
1000
0001
0200
0000
0310
0000
,
1000
0001
1000
0001
1000
0001
1000
0000
,
0010
0010
0100
0100
,
0001
0001
1000
1000
,
0100
0010
0100
1000
,
0001
0100
0010
0110
,
1002
0103
2000
3100
,
0002
0013
2000
3010
,
1000
0100
0010
0000
0010
0100
1000
0000
,
0001
0100
0010
0000
0010
0100
0001
0000
,
1000
0000
0100
0000
0010
0100
1000
0000
,
0001
0100
0010
0000
2000
0000
3100
0000
,
0010
0000
0001
0000
0100
0001
0010
0000
,
0100
1000
0010
0000
0200
0000
0301
0000
,
1000
0100
0000
0100
,
0000
0010
0000
0010
,
0001
0100
1000
0100
,
0001
0010
0000
0100
0000
1000
0000
0000
,
0001
0100
0000
0010
0000
1000
0000
0000
,
0001
0010
0100
0000
1000
0010
0100
0000
,
0001
1000
0001
1000
0010
0100
0010
0100
,
0001
0000
1000
0000
0001
0000
0000
1000
0000
0000
0000
0000
0000
0000
0000
0000
;

//---------------dance-single - ----------------
#NOTES:
     dance-single:
     :
     Easy:
     7:
     0.293,0.322,0.008,0.008,0.000:
0000
0000
0000
0000
,
0000
0000
0000
0000
,
0000
0000
0000
0000
,
0000
0000
0000
0000
,
0000
0000
0000
0000
,
0001
0000
0100
0000
,
1000
0000
0100
0000
,
0001
0000
0100
0000
,
1000
0100
0001
0000
,
1000
0000
1000
0000
,
0001
0100
0001
0100
,
0001
0000
0001
0000
,
1000
0100
1000
0100
,
1000
0000
1000
0000
,
0001
0010
0001
0010
,
0001
0000
0001
0000
,
1000
0010
1000
0010
,
1000
0001
0010
0001
,
1000
0010
1000
0000
,
0001
0100
0001
1000
,
0100
1000
0001
0000
,
1000
0010
1000
0001
,
0010
0001
1000
0000
,
0001
0010
0001
1000
,
0010
1000
0001
0000
,
0010
1000
0001
0000
,
0001
0010
0100
1000
,
1000
0100
0010
0001
,
1000
0000
0001
0000
,
1000
0000
0100
0000
,
0010
0000
0001
0000
,
0100
0000
0010
0000
,
1000
0000
0001
0001
,
0001
0000
1000
1000
,
1000
0000
0001
0001
,
0001
0000
1000
1000
,
1000
0000
0000
0100
,
0100
0000
0010
0000
,
0100
0000
1000
0000
,
0001
0000
0100
0000
,
0010
1000
0100
0010
,
0001
0000
0010
0000
,
0100
0000
1000
0000
,
0001
0000
0100
0000
,
0010
0100
0001
1000
,
0100
0000
0010
0000
,
0100
1000
0001
0100
,
0010
0000
0100
0000
,
0010
0100
0001
1000
,
0100
0000
0010
0000
,
0100
1000
0001
0010
,
0100
0000
0010
0000
,
0001
0100
0010
1000
,
0001
1000
0100
1000
,
0000
0100
0001
0100
,
0000
0001
0010
0001
,
0000
0010
1000
0010
,
0000
1000
0100
1000
,
0000
0100
0001
0100
,
0000
0001
0010
0001
,
0000
0010
1000
0010
,
1000
0010
0001
0010
,
0000
0001
0100
0001
,
0000
0100
1000
0100
,
0000
1000
0010
1000
,
0000
0010
0001
0010
,
0000
0001
0100
0001
,
0000
0100
1000
0100
,
0000
1000
0010
1000
,
0001
0001
1000
1000
,
0001
1000
0001
0100
,
0010
0010
0100
0100
,
0001
0001
1000
2000
,
3001
0000
0100
0000
,
0010
0100
0001
0000
,
0010
0000
0100
0000
,
1000
0100
0010
0001
,
1000
0000
0001
0000
,
0100
0001
0010
0100
,
1000
0000
0100
0000
,
0010
0001
0100
0010
,
1000
0000
0010
0000
,
0100
0001
0010
0100
,
1000
0000
0001
0000
,
1000
0100
0010
0010
,
0001
0100
0010
0010
,
1000
0100
0010
0100
,
1000
0000
0001
0000
,
1000
0001
1001
0000
;

//---------------dance-single - ----------------
#NOTES:
     dance-single:
     :
     Beginner:
     4:
     0.136,0.179,0.000,0.008,0.000:
0000
0000
0000
0000
,
0000
0000
0000
0000
,
0000
0000
0000
0000
,
0000
0000
0000
0000
,
0000
0000
0000
0000
,
1000
0000
0000
0000
,
0001
0000
0000
0000
,
1000
0000
0000
0000
,
0000
0000
0000
0000
,
0010
0000
0000
0000
,
0100
0000
0000
0000
,
0001
0000
0000
0000
,
1000
0000
1000
0000
,
1000
0000
0000
0000
,
0100
0000
0000
0000
,
0010
0000
0000
0000
,
0100
0000
0100
0000
,
0100
0000
0000
0000
,
1000
0000
0000
0000
,
0001
0000
0000
0000
,
0100
0000
0100
0000
,
0100
0000
0000
0000
,
0010
0000
0000
0000
,
1000
0000
0000
0000
,
0001
0000
0001
0000
,
1000
0000
1000
0000
,
0001
0000
0001
0000
,
1000
0000
1000
0000
,
0001
0000
0001
0000
,
1000
0000
1000
0000
,
0001
0000
0001
0000
,
1000
0000
0010
0000
,
0100
0000
0000
0000
,
0100
0000
0000
0000
,
0100
0000
0000
0000
,
0100
0000
0000
0000
,
0100
0000
0000
0000
,
0100
0000
0000
0000
,
0010
0000
0000
0000
,
1000
0000
0000
0000
,
0001
0000
0000
0000
,
0010
0000
0000
0000
,
0100
0000
0000
0000
,
1000
0000
1000
0000
,
1000
0000
0000
0000
,
0001
0000
0000
0000
,
0100
0000
0000
0000
,
0001
0000
0000
0000
,
0010
0000
0000
0000
,
0100
0000
0000
0000
,
1000
0000
0000
0000
,
0010
0000
0000
0000
,
1000
0000
0000
0000
,
0000
0001
0000
0001
,
0000
1000
0000
1000
,
0000
0001
0000
0001
,
0000
1000
0000
1000
,
0000
0010
0000
0010
,
0000
0100
0000
0100
,
0000
0010
0000
0010
,
0000
0100
0000
0100
,
0000
0001
0000
0001
,
0000
1000
0000
1000
,
0000
0001
0000
0001
,
0000
1000
0000
1000
,
0000
0100
0000
0100
,
0000
0010
0000
0010
,
0000
0100
0000
0100
,
0000
0010
0000
0010
,
0010
0000
0000
0000
,
0010
0000
0000
0000
,
0001
0000
0000
0000
,
1000
0000
0000
0000
,
0010
0000
0000
0000
,
0010
0000
0000
0000
,
0100
0000
0100
0000
,
0100
0000
0000
0000
,
0001
0000
0000
0000
,
1000
0000
0000
0000
,
0100
0000
0000
0000
,
0010
0000
0010
0000
,
0010
0000
0000
0000
,
0001
0000
0000
0000
,
1000
0000
0000
0000
,
0100
0000
0100
0000
,
0100
0000
0100
0000
,
0100
0100
0100
0100
,
0200
0000
0000
0000
,
0000
0000
0000
0000
0000
0000
0000
0300
0000
0000
0000
0000
0000
0000
0000
0000
;

//---------------dance-double - ----------------
#NOTES:
     dance-double:
     :
     Hard:
     12:
     0.579,0.608,0.178,0.356,0.028:
00000000
00000000
00000000
00000000
,
00000000
00000000
00000000
00000000
,
00000000
00000000
00000000
00000000
,
00000000
00000000
00000000
00000000
,
00000000
00000000
00000000
00000000
,
10000000
01000000
00100000
00000000
00100000
01000000
10000000
00000000
,
00010000
01000000
00001000
00000000
00100000
00001000
00010000
00001000
,
00000000
00001000
00000000
00000100
00000000
00000100
00000000
00000001
,
00000000
00000001
00000000
00000010
00000100
00000000
00000110
00000000
,
00000001
00000100
00000000
00000100
00000010
00001000
00000100
00001000
,
00000000
00000010
00000000
00000010
00010000
00001000
00010000
01000000
,
00000000
00100000
00000000
00100000
00010000
01000000
10000000
01000000
,
00010000
00010000
00100000
00100000
00001000
00010000
00002000
00000000
,
00013000
00000100
00000000
00000100
00000010
00000001
00000010
00000100
,
00000000
00001000
00000000
00001000
00000010
00000100
00000001
00000100
,
00000000
00000010
00000000
00000010
00010000
00001000
00010000
00100000
,
00100000
01000000
00010000
00010000
10000000
10000000
01000000
00000000
,
10000000
01000000
00100000
01000000
10000000
01000000
00100000
00000000
,
00010000
01000000
00100000
01000000
00010000
01000000
00100000
00000000
,
00010000
00000010
00001000
00000010
00010000
00000010
00001000
00000000
,
00000001
00000010
00000100
00001000
00000010
00000100
00000001
00000000
,
00000010
00000100
00001000
00000100
00000010
00000100
00001000
00000000
,
00000010
00010000
00001000
00010000
00000010
00010000
00001000
00000000
,
01000000
00100000
10000000
01000000
00100000
00010000
01000000
00100000
,
20000000
32000000
03200000
00320000
,
20030000
30020000
00032000
00003002
,
00001003
00001010
00000001
00000011
,
00000002
00002003
00023000
20030000
,
30020000
00000000
02030000
00000000
,
03002000
00000000
00023000
00000000
,
00030200
00000000
00000320
00000000
,
00000032
00000000
00000003
00000000
00001001
00000000
00000000
00000001
,
00000100
00000000
00000000
00000010
00001000
00000100
00010000
00001000
,
01000000
00000000
00000000
00100000
10000000
01000000
00010000
00001000
,
00000010
00000000
00000000
00000001
00000100
00000001
00001000
00000100
,
00010000
00000000
00000000
00000000
00000000
00000000
01000000
00000000
10000000
00010000
00000000
01000000
00000000
00100000
00000000
00000000
,
02200000
00000000
00000000
00000000
00000000
00000000
03000000
00300000
,
20000000
00000000
30010000
00000000
01000000
00100000
01000000
00000000
,
00002000
00010000
00003200
00000010
,
00000301
00000000
00000010
00000000
00000100
00001000
00000010
00000100
,
00001000
00010000
00100000
01000000
,
00010000
00000000
10000000
01000000
00100000
00000000
00100000
01000000
,
10000000
00000000
00010000
00000000
01000000
00000000
00001000
00010000
,
00000100
00000000
00000010
00000000
00000001
00000100
00000010
00000000
,
00000100
00000000
00000001
00000010
00001000
00010000
01000000
10000000
,
00010000
00000000
11000000
00000000
00010000
00000000
01000000
00100000
,
00010000
00000000
00100000
01000000
00001000
00000000
00010000
00000100
,
00000010
00000000
00001100
00000000
00000010
00000000
00000001
00000100
,
00001000
00000000
00000100
00000010
00010000
00000000
00001000
00100000
,
01000000
00000000
10100000
00000000
01000000
00000000
00100000
00010000
,
01000000
00000000
00001000
00010000
00000100
00000000
00000010
00001000
,
00010000
11000000
00010000
01000000
,
10000000
00100000
00000000
01000000
00000000
00020000
00000000
00000000
,
10030000
01200000
10000000
01300000
,
00001000
00020100
00000010
00030100
,
00001000
00000120
00000001
00000130
,
00010000
01002000
00100000
01003000
,
00010000
12000000
00010000
13000000
,
00010000
00201000
00010000
00301000
,
00010000
00001200
00000010
00001300
,
00000001
00000000
00000100
00000000
00000010
00000000
00000000
00000000
00001000
00000000
00000000
00000100
00010000
00000000
00001000
00000000
,
01000000
10000000
01000000
00000000
01000000
00100000
01000000
00000000
,
00010000
00100000
00010000
00000000
00010000
01000000
00010000
00000000
,
00001000
00000010
00001000
00000000
00001000
00000100
00001000
00000000
,
00000001
00000010
00000001
00000000
00000001
00000100
00000001
00000000
,
00000010
00000100
00000010
00000000
00000010
00001000
00000010
00000000
,
00000100
00001000
00000100
00000000
00000100
00010000
00000100
00000000
,
00010000
01000000
10000000
00100000
,
00010000
00000100
00000010
00000001
,
00001000
00000100
00000110
00000011
,
00000001
00000100
00000110
00010010
,
00010000
00010000
00001000
00001000
,
01000000
00000000
00000000
00100000
00000000
00000000
01100000
00000000
00000000
10000000
01000000
00100000
,
00020000
01000000
20030000
01000000
,
30010000
01000000
00001000
00010000
,
00000100
00000110
00000001
00000100
,
00000010
00001000
00000100
00010000
00001000
00100000
00010000
10000000
,
02000000
00000000
03100000
00000000
00010000
01000000
00100000
00000000
,
10000000
01000000
00010000
00001000
,
00000020
00000000
00000031
00000000
00000100
00000010
00001000
00000000
,
00010000
01000000
00100000
00010000
,
20000000
00000000
31000000
00000000
00010000
00100000
00001000
00000000
,
00010000
00000100
00000010
00000001
,
00000200
00000000
00000310
00000000
00001000
00000100
00000010
00000000
,
00000001
00000200
00000000
00001300
00000000
00010000
02000000
00000000
,
13000000
02000000
00000000
03010000
00000000
00001000
00000200
00000000
,
00000301
00000100
00001000
00000100
00000001
00000100
00001000
00010000
,
01000000
10000000
01000000
10000000
00010000
01000000
00010000
01000000
,
00001000
00000000
00010000
00000000
00000200
00000000
00000000
00000310
00000000
00000000
00000000
00000000
00000000
00000000
00000000
00000000
;

//---------------dance-double - ----------------
#NOTES:
     dance-double:
     :
     Medium:
     10:
     0.463,0.608,0.194,0.154,0.012: // measure 1
00000000
00000000
00000000
00000000
,  // measure 2
00000000
00000000
00000000
00000000
,  // measure 3
00000000
00000000
00000000
00000000
,  // measure 4
00000000
00000000
00000000
00000000
,  // measure 5
00000000
00000000
00000000
00000000
,  // measure 6
00001000
00010000
00001000
01000000
,  // measure 7
00010000
00000000
00100000
00000000
01000000
10000000
00010000
01000000
,  // measure 8
00000000
01000000
00000000
01000000
00000000
01000000
00000000
01000000
,  // measure 9
00000000
01000000
00000000
01000000
00100000
00000000
01100000
00000000
,  // measure 10
10000000
00000000
01000000
00000000
10000000
01000000
00100000
00000000
,  // measure 11
00010000
00000000
01000000
00000000
00010000
01000000
00001000
00000000
,  // measure 12
01000000
00000000
00001000
00000000
00010000
00000100
00001000
00000000
,  // measure 13
00000001
00001000
00000001
00001000
00000010
00000000
00000210
00000000
,  // measure 14
00000301
00000000
00000100
00000000
00000001
00000100
00000010
00000000
,  // measure 15
00001000
00000000
00000100
00000000
00001000
00000100
00010000
00000000
,  // measure 16
00000100
00000000
00010000
00000000
00001000
01000000
00010000
10000000
,  // measure 17
00000000
00010000
10000000
00010000
00100000
00000000
02100000
00000000
,  // measure 18
13000000
01000000
00100000
00000000
00100000
01000000
10000000
00000000
,  // measure 19
01000000
00100000
00001000
00000000
00001000
00010000
00000100
00000000
,  // measure 20
00001000
00000010
00000100
00000000
00000010
00000000
00001000
00000000
,  // measure 21
00000001
00000000
00000010
00000000
00000100
00001000
00000100
00000010
,  // measure 22
00000001
00000100
00000010
00000000
00000010
00000100
00000001
00000000
,  // measure 23
00000100
00000010
00010000
00000000
00010000
00001000
01000000
00000000
,  // measure 24
00010000
00100000
01000000
00000000
00100000
00000000
00010000
00000000
,  // measure 25
10000000
00100000
01000000
00001000
,  // measure 26
00010000
00000010
00000100
00000001
,  // measure 27
00000010
00000100
00010000
00001000
,  // measure 28
00100000
01000000
10000000
00100000
,  // measure 29
02000000
00000000
03200000
00000000
,  // measure 30
20300000
00000000
32000000
00000000
,  // measure 31
03020000
00000000
00032000
00000000
,  // measure 32
00003020
00000000
00000000
00000000
00000031
00000000
00000000
00001000
,  // measure 33
00000100
00000000
00000000
00000100
00010000
00010000
00001000
00001000
,  // measure 34
01000000
00000000
00000000
00010000
00100000
00100000
01000000
01000000
,  // measure 35
10000000
00000000
00000000
00100000
01000000
01000000
00010000
00010000
,  // measure 36
10000000
00000000
00000000
00000000
00000000
00000000
01000000
00000000
00100000
00000000
00000000
00001000
00000000
00010000
00000000
00000000
,  // measure 37
00002000
00000000
00000000
00000000
00000000
00000000
00000000
00003000
,  // measure 38
00010000
00010000
00001000
00001000
,  // measure 39
01000000
00100000
10000000
01000000
,  // measure 40
00010000
00010000
00001000
00001000
,  // measure 41
00000010
00000001
00000100
00000001
,  // measure 42
00000010
00000100
00001000
00000000
,  // measure 43
00000100
00010000
00001000
00000000
,  // measure 44
01000000
00010000
00100000
01000000
,  // measure 45
10000000
01000000
00100000
00000000
00010000
00000000
01000000
00000000
,  // measure 46
01100000
00000000
00000000
10000000
,  // measure 47
00010000
01000000
00001000
00000000
00010000
00000100
00001000
00000000
,  // measure 48
00001100
00000000
00000000
00000001
,  // measure 49
00000010
00000100
00010000
00000000
00001000
00100000
01000000
00000000
,  // measure 50
11000000
00000000
00000000
10000000
,  // measure 51
00100000
01000000
00001000
00000000
00010000
00000100
00000010
00000000
,  // measure 52
00000011
00000000
00000000
00001000
,  // measure 53
00000100
00010000
00000000
00001000
00000000
02000000
00000000
00000000
,  // measure 54
03000000
00100000
01000000
01100000
,  // measure 55
00000000
10000000
01000000
11000000
,  // measure 56
00000000
00010000
01000000
01010000
,  // measure 57
00000000
00001000
00010000
00011000
,  // measure 58
00000000
00010000
00000100
00001100
,  // measure 59
00000000
00001000
00000010
00000110
,  // measure 60
00000000
00000001
00001000
00001100
,  // measure 61
00000000
00000100
00010000
00011000
,  // measure 62
00001000
01000000
00100000
10100000
,  // measure 63
10000000
01000000
00100000
00110000
,  // measure 64
00010000
01000000
00001000
00011000
,  // measure 65
00010000
00000100
00000010
00000011
,  // measure 66
00000001
00000100
00000010
00001010
,  // measure 67
00001000
00000100
00010000
00011000
,  // measure 68
00001000
01000000
00100000
01100000
,  // measure 69
01000000
00010000
10000000
11000000
,  // measure 70
00010000
01000000
00010000
00100000
,  // measure 71
01000000
10000000
01000000
00010000
,  // measure 72
00001000
00001000
00000100
00000100
,  // measure 73
00000010
00000010
00001000
00000002
,  // measure 74
00000013
00000100
00020000
00031000
,  // measure 75
00002000
02003000
03200000
20300000
,  // measure 76
30010000
10000000
01000000
00010000
,  // measure 77
00001000
00000100
00000001
00001000
,  // measure 78
00001001
00000000
00000001
00000000
00000010
00000100
00010000
00000000
,  // measure 79
00001000
00000000
01000000
00000000
00100000
10000000
01000000
00000000
,  // measure 80
00100000
00000000
01000000
00000000
10000000
00010000
01000000
00000000
,  // measure 81
00001000
00000000
00010000
00000000
00000100
00000010
00000001
00000000
,  // measure 82
00000100
00000010
00000100
00000010
,  // measure 83
00001000
00000100
00001000
00000100
,  // measure 84
00010000
00001000
00010000
00001000
,  // measure 85
00100000
00010000
00000000
01000000
00000000
00002000
00000000
00003000
,  // measure 86
00100000
00010000
00000000
01000000
00000000
00002000
00000000
00003000
,  // measure 87
00100000
00010000
01000000
00001000
00100000
00010000
01000000
00001000
,  // measure 88
00010000
00001000
00010000
00001000
00010000
00001000
00010000
00001000
,  // measure 89
00010000
00000000
00000100
00000000
00000010
00000000
00000000
00000001
00000000
00000000
00000000
00000000
00000000
00000000
00000000
00000000
;

//---------------dance-double - ----------------
#NOTES:
     dance-double:
     :
     Easy:
     6:
     0.272,0.322,0.000,0.008,0.000: // measure 1
00000000
00000000
00000000
00000000
,  // measure 2
00000000
00000000
00000000
00000000
,  // measure 3
00000000
00000000
00000000
00000000
,  // measure 4
00000000
00000000
00000000
00000000
,  // measure 5
00000000
00000000
00000000
00000000
,  // measure 6
00000001
00000000
00000001
00000000
,  // measure 7
00000001
00000100
00000010
00000100
,  // measure 8
00000000
00000000
00000000
00000000
,  // measure 9
00000000
00000000
00000100
00000100
,  // measure 10
00000010
00010000
00000010
00010000
,  // measure 11
00001000
01000000
00001000
00000000
,  // measure 12
01000000
00010000
01000000
00010000
,  // measure 13
10000000
01000000
00100000
00000000
,  // measure 14
00010000
01000000
00010000
01000000
,  // measure 15
00001000
00010000
00001000
00000000
,  // measure 16
00010000
00000100
00010000
00000100
,  // measure 17
00001000
00000010
00001000
00000000
,  // measure 18
00000001
00000010
00000100
00001000
,  // measure 19
00000001
00000010
00000100
00000000
,  // measure 20
00001000
00000100
00010000
00001000
,  // measure 21
00010000
00001000
01000000
00000000
,  // measure 22
00010000
10000000
01000000
00100000
,  // measure 23
00010000
01000000
00100000
00000000
,  // measure 24
10000000
01000000
10000000
00100000
,  // measure 25
01000000
00010000
01000000
00010000
,  // measure 26
00100000
00001000
00100000
00001000
,  // measure 27
00010000
00000100
00010000
00000100
,  // measure 28
00001000
00000010
00000100
00000001
,  // measure 29
00001000
00000000
00000100
00000000
,  // measure 30
00010000
00000000
00001000
00000000
,  // measure 31
00010000
00000000
00100000
00000000
,  // measure 32
01000000
00000000
00010000
00000000
,  // measure 33
10000000
00000000
01000000
00100000
,  // measure 34
00001000
00000000
00010000
00000100
,  // measure 35
00000010
00000000
00000001
00000100
,  // measure 36
00000010
00000000
00001000
00000100
,  // measure 37
00010000
00000000
00000000
00000000
,  // measure 38
00001000
01000000
00001000
00000000
,  // measure 39
01000000
00010000
01000000
00000000
,  // measure 40
00010000
00100000
00010000
00000000
,  // measure 41
00100000
01000000
00100000
00000000
,  // measure 42
01000000
10000000
01000000
00000000
,  // measure 43
10000000
00010000
10000000
00000000
,  // measure 44
00010000
01000000
00001000
00000000
,  // measure 45
00010000
00000100
00001000
00000000
,  // measure 46
00000010
00000100
00000001
00000000
,  // measure 47
00000010
00000100
00010000
00000000
,  // measure 48
00000100
00000010
00000001
00000000
,  // measure 49
00000100
00000010
00001000
00000000
,  // measure 50
00000100
00010000
00001000
00000000
,  // measure 51
01000000
00001000
00010000
00000000
,  // measure 52
01000000
10000000
00010000
00000000
,  // measure 53
10000000
00000000
00000000
01000000
00000000
00100000
00000000
00000000
,  // measure 54
00010000
10000000
00000000
10000000
,  // measure 55
00000000
00100000
00000000
00100000
,  // measure 56
00000000
00010000
00000000
00010000
,  // measure 57
00000000
00001000
00000000
00001000
,  // measure 58
00000000
00000010
00000000
00000010
,  // measure 59
00000000
00000001
00000000
00000001
,  // measure 60
00000000
00000100
00000000
00000100
,  // measure 61
00000000
00001000
00000000
00001000
,  // measure 62
00010000
01000000
00000000
01000000
,  // measure 63
00000000
10000000
00000000
10000000
,  // measure 64
00000000
00100000
00000000
00100000
,  // measure 65
00000000
00010000
00000000
00010000
,  // measure 66
00000000
00001000
00000000
00001000
,  // measure 67
00000000
00000100
00000000
00000100
,  // measure 68
00000000
00000001
00000000
00000001
,  // measure 69
00001000
00000100
00000010
00000001
,  // measure 70
00000100
00000010
00000100
00000000
,  // measure 71
00000001
00000100
00000001
00000000
,  // measure 72
00001000
00000100
00001000
00000000
,  // measure 73
00000100
00010000
00000100
00000000
,  // measure 74
00010000
00000000
00001000
00000000
,  // measure 75
01000000
00010000
01000000
00000000
,  // measure 76
00010000
10000000
00010000
00000000
,  // measure 77
10000000
01000000
00100000
00000000
,  // measure 78
00010000
01000000
00010000
01000000
,  // measure 79
00001000
00000000
00001000
00000000
,  // measure 80
00010000
00000100
00010000
00000100
,  // measure 81
00001000
00000000
00001000
00000000
,  // measure 82
00000010
00000100
00000001
00000000
,  // measure 83
00000010
00000100
00001000
00000000
,  // measure 84
00000001
00000000
00000100
00000000
,  // measure 85
00001000
00000000
00010000
00000000
,  // measure 86
00100000
00000000
10000000
00000000
,  // measure 87
00010000
10000000
00010000
10000000
,  // measure 88
00020000
00000000
00000000
00000000
,  // measure 89
00000000
00000000
00000000
00000000
00000000
00000000
00000000
00030000
00000000
00000000
00000000
00000000
00000000
00000000
00000000
00000000
;
