#TITLE:Nostalgia Is Lost;
#SUBTITLE:;
#ARTIST:U1 overground;
#TITLETRANSLIT:;
#SUBTITLETRANSLIT:;
#ARTISTTRANSLIT:;
#GENRE:;
#CREDIT:Silverhawke;
#MENUCOLOR:;
#METERTYPE:DDR;
#BANNER:Nostalgia Is Lost.png;
#BACKGROUND:Nostalgia Is Lost-bg.png;
#LYRICSPATH:;
#CDTITLE:cdtitle.png;
#MUSIC:Nostalgia Is Lost.mp3;
#OFFSET:-0.028;
#SAMPLESTART:11.169;
#SAMPLELENGTH:15.000;
#SELECTABLE:YES;
#LISTSORT:;
#BPMS:0.000=172.311;
#STOPS:;
#BGCHANGES:;
#ATTACKS:;

//---------------dance-single - ----------------
#NOTES:
     dance-single:
     :
     Hard:
     15:
     0.836,0.960,0.271,0.175,0.494:
0000
0000
0000
0000
,
0000
0000
0000
0000
,
0000
0000
0000
0000
,
0000
0000
0000
0000
,
0001
0000
1000
0000
0100
0010
0000
0001
0010
0000
0100
0010
0000
0001
0010
0000
,
0100
0000
1000
0000
0010
0100
0000
0001
0100
0000
0010
0100
0000
0001
0100
0000
,
0010
1000
0010
0000
0100
0000
0001
1000
0000
0000
0000
0000
0110
0000
0000
0000
,
1000
0000
1000
0000
0100
0000
0010
0100
0000
0010
0001
0000
1001
0000
0000
0000
,
0001
0100
0010
0100
1000
0100
0010
0100
,
0001
0000
0100
0000
0010
0000
0100
0000
0001
0010
0001
0000
1000
0100
1000
0000
,
0001
0000
0010
0000
0100
0000
1000
0010
1000
0000
0100
0000
0010
0000
0001
0000
,
0100
0000
0010
0000
1000
0000
0001
1000
0001
0000
0010
0000
0200
0000
0000
0000
,
1300
0100
0010
0100
0001
0100
0010
0100
,
1000
0000
0100
0000
0010
0000
0100
0000
1000
0100
1000
0000
0001
0010
0001
0000
,
1000
0000
0010
0000
0100
0000
0001
0010
0001
0000
0100
0000
0010
0000
1000
0000
,
0100
0000
0010
0000
0001
0000
1000
0001
1000
0000
0100
0000
0010
0000
0010
0000
,
0001
0100
0010
1000
2001
0000
0100
0000
,
0001
0010
0001
0100
,
3001
0100
0010
1000
1200
0000
0010
0000
,
0001
0010
1000
0010
,
0301
0100
1000
0010
0120
0000
0001
0000
,
0100
1000
0230
0302
,
0023
0000
0000
0230
0000
0000
2300
0000
,
0001
0010
0001
3100
,
0001
0000
0010
0000
0001
0000
0100
0000
0000
0100
0010
0000
1000
0000
0100
0000
,
1000
0000
0010
0100
0010
0000
1000
0000
0100
0000
0010
0000
0001
0000
0100
0000
,
0001
1000
0100
2000
0000
3000
1000
0100
,
1000
0000
0001
0010
0001
0000
0010
0000
0100
0000
1000
0001
1000
0000
0010
0000
,
0100
0001
1000
0010
0100
0000
0100
0001
,
1000
0010
0100
0100
0100
0001
1000
0010
,
1000
0100
1000
0000
0100
0000
0100
0000
0001
0100
0001
0000
0100
0000
0100
0000
,
1000
0010
1000
0000
0010
0000
0010
0000
0001
0010
0001
0000
0010
0000
0010
0000
,
1000
0100
0000
0000
0010
0000
0001
0100
0000
0100
0000
0000
0010
0000
0100
0000
,
1001
0000
0100
0000
1000
0000
0100
0000
0010
0000
0001
0100
0001
0000
0010
0000
,
0001
0000
0100
0000
0001
0000
0100
0000
0010
0000
1000
0100
1000
0000
0010
0000
,
0100
0000
0000
0000
1001
0000
0000
0000
0010
0100
0010
0100
0010
0100
0010
0000
,
1000
0000
0000
0000
1001
0000
0000
0000
0100
0010
0100
0010
0100
0010
0100
0000
,
0001
0000
0100
0000
1000
0000
0100
0000
0001
0000
0010
0100
0010
0000
0001
0000
,
1000
0000
0100
0000
0001
0000
0100
0000
1000
0000
0010
0100
0010
0000
1000
0000
,
0001
0000
0000
0000
0110
0000
0000
0000
1000
0002
0100
0000
0103
0000
0000
0000
,
1000
0000
0000
0000
0110
0000
0000
0000
0001
2000
0100
0000
3100
0000
0000
0000
,
1000
0100
0010
0100
1000
0000
0001
0100
,
0010
0100
0001
1000
0100
0010
1000
0010
,
0100
0000
1000
0010
0001
0010
1000
0001
,
0010
0010
0100
0100
1000
1000
0001
0001
,
0100
0010
1000
1100
0000
0010
0001
0101
,
0000
0100
0001
0011
0000
0100
1000
1010
,
0100
0001
1000
1100
0000
1000
0001
0101
,
0010
0000
0000
1000
0000
0000
0011
0000
0000
0110
0000
0000
1100
0000
0000
0001
,
0100
0000
0000
0001
0000
0000
1100
0000
0000
0110
0000
0000
0011
0000
0000
1000
,
0100
0000
0000
1000
0000
0000
1010
0000
0000
0110
0000
0000
0101
0000
0000
0001
,
1000
0100
0001
0100
1100
0000
0001
0100
,
1000
0000
0100
0000
0101
0000
0000
0100
0001
0000
0010
0000
1000
0000
0010
0000
,
0011
0000
0000
0000
1000
0000
0010
0000
0001
0000
0010
0000
1000
0100
1000
0000
,
0001
0010
0100
1000
0001
0010
0100
1000
,
0001
0100
1000
0100
0010
0000
1000
0100
,
0001
0100
0010
0010
0100
0001
0100
1000
,
0010
0000
0100
1000
0100
0001
0010
0100
,
1000
0100
1000
0000
0001
0000
0100
0000
0001
0100
0001
0000
1000
0000
0100
0000
,
1000
0010
1000
0000
0001
0000
0100
0000
0010
1000
0010
1000
0001
0000
1000
0000
,
0001
0010
0001
0000
1000
0000
0100
0000
0010
0001
0010
0001
1000
0000
0001
0000
,
1000
0000
0100
0000
0100
0000
0000
0010
0001
0000
0001
1000
0000
1000
0010
0100
,
0001
0100
1000
0100
0001
0010
1000
0010
,
0001
0000
0010
0000
0100
0000
1000
0000
0001
0100
0001
0000
1000
0100
1000
0100
,
0010
0000
0001
0000
0100
0000
0010
1000
0010
1000
0100
0000
0010
0000
0001
0000
,
0100
0000
0010
0000
0100
0000
0001
1000
0001
1000
0100
0010
0002
0000
1000
0000
,
1003
0100
0001
0100
1000
0010
0001
0010
,
1000
0000
0100
0000
0010
0000
0001
0000
1000
0100
1000
0000
0001
0100
0001
0100
,
0010
0000
0100
0000
0100
0000
0100
0000
0100
0000
0000
0001
0000
1000
0000
0001
,
0010
0000
0100
0000
1000
0000
0010
0000
0100
0001
0100
0001
1000
0100
0010
0001
,
2000
0100
3002
0100
1003
0000
0101
0000
,
0001
0000
1000
0000
1100
0000
0000
1000
0001
0000
0100
0000
0010
0000
0100
0000
,
0002
0100
2003
0100
3001
0000
1100
0000
,
1000
0001
0101
0000
1000
0100
0010
0001
,
2000
0010
3002
0010
1003
0000
0101
0000
,
0001
0010
0110
0000
1000
0100
0001
0100
,
2000
0000
3001
0200
0010
0300
2000
0000
,
3010
0010
0010
0010
0010
0010
0010
0000
,
1000
0100
1000
0000
0100
0010
0000
0010
0001
0000
0100
0001
0100
0001
0010
0000
,
0100
1000
0100
1000
0010
0000
0100
0000
0010
1000
0000
1000
0100
0000
0010
0000
,
0001
0100
0001
0000
0100
0010
0000
0010
1000
0000
0100
0010
0100
0010
0001
0000
,
0100
0010
0100
0010
1000
0000
0001
0100
0001
0000
1000
0100
0010
0001
1000
0000
,
0001
0100
0001
0000
1000
0100
0000
0100
0010
0000
0010
0001
0100
0001
0100
0000
,
0010
1000
0100
1000
0100
0000
0010
0000
0001
0100
0000
0100
0010
0000
1000
0000
,
0001
0010
0001
0000
0001
1000
0001
0000
0001
0100
0001
0000
0010
0001
0100
0010
,
1000
0100
1000
0000
1000
0001
1000
0000
1000
0100
0010
0001
0100
0010
1000
0100
,
0010
0000
0000
0000
;

//---------------dance-couple - ----------------
#NOTES:
     dance-couple:
     :
     Beginner:
     1:
     0.001,0.035,0.000,0.000,0.000:
00000000
00000000
00000000
00000000
,
00000000
00000000
00000000
00000000
,
00000000
00000000
00000000
00000000
,
00000000
00000000
00000000
00000000
,
00000000
00000000
00000000
00000000
,
00000000
00000000
00000000
00000000
,
00000000
00000000
00000000
00000000
,
00000000
00000000
00000000
00000000
,
00000000
00000000
00000000
00000000
,
00000000
00000000
00000000
00000000
,
00000000
00000000
00000000
00000000
,
00000000
00000000
00000000
00000000
,
00000000
00000000
00000000
00000000
,
00000000
00000000
00000000
00000000
,
00000000
00000000
00000000
00000000
,
00000000
00000000
00000000
00000000
,
00000000
00000000
00000000
00000000
,
00000000
00000000
00000000
00000000
,
00000000
00000000
00000000
00000000
,
00000000
00000000
00000000
00000000
,
00000000
00000000
00000000
00000000
,
00000000
00000000
00000000
00000000
,
00000000
00000000
00000000
00000000
,
00000000
00000000
00000000
00000000
,
00000000
00000000
00000000
00000000
,
00000000
00000000
00000000
00000000
,
00000000
00000000
00000000
00000000
,
00000000
00000000
00000000
00000000
,
00000000
00000000
00000000
00000000
,
00000000
00000000
00000000
00000000
,
00000000
00000000
00000000
00000000
,
00000000
00000000
00000000
00000000
,
00000000
00000000
00000000
00000000
,
00000000
00000000
00000000
00000000
,
00000000
00000000
00000000
00000000
,
00000000
00000000
00000000
00000000
,
00000000
00000000
00000000
00000000
,
00000000
00000000
00000000
00000000
,
00000000
00000000
00000000
00000000
,
00000000
00000000
00000000
00000000
,
00000000
00000000
00000000
00000000
,
00000000
00000000
00000000
00000000
,
00000000
00000000
00000000
00000000
,
00000000
00000000
00000000
00000000
,
00000000
00000000
00000000
00000000
,
00000000
00000000
00000000
00000000
,
00000000
00000000
00000000
00000000
,
00000000
00000000
00000000
00000000
,
00000000
00000000
00000000
00000000
,
00000000
00000000
00000000
00000000
,
00000000
00000000
00000000
00000000
,
00000000
00000000
00000000
00000000
,
00000000
00000000
00000000
00000000
,
00000000
00000000
00000000
00000000
,
00000000
00000000
00000000
00000000
,
00000000
00000000
00000000
00000000
,
00000000
00000000
00000000
00000000
,
00000000
00000000
00000000
00000000
,
00000000
00000000
00000000
00000000
,
00000000
00000000
00000000
00000000
,
00000000
00000000
00000000
00000000
,
00000000
00000000
00000000
00000000
,
00000000
00000000
00000000
00000000
,
00000000
00000000
00000000
00000000
,
00000000
00000000
00000000
00000000
,
00000000
00000000
00000000
00000000
,
00000000
00000000
00000000
00000000
,
00000000
00000000
00000000
00000000
,
00000000
00000000
00000000
00000000
,
00000000
00000000
00000000
00000000
,
00000000
00000000
00000000
00000000
,
00000000
00000000
00000000
00000000
,
00000000
00000000
00000000
00000000
,
00000000
00000000
00000000
00000000
,
00000000
00000000
00000000
00000000
,
00000000
00000000
00000000
00000000
,
00000000
00000000
00000000
00000000
,
00000000
00000000
00000000
00000000
,
00000000
00000000
00000000
00000000
,
00000000
00000000
00000000
00000000
,
00000000
00000000
00000000
00000000
,
00000000
00000000
00000000
00000000
,
00000000
00000000
00000000
00000000
,
00000000
00000000
00000000
00000000
,
00000000
00000000
00000000
00000000
,
00000000
00000000
00000000
00000000
,
00000000
00000000
00000000
00000000
,
00000000
00000000
00000000
00000000
,
10000000
00000000
00000000
00000000
;

//---------------dance-single - ----------------
#NOTES:
     dance-single:
     :
     Medium:
     12:
     0.653,0.617,0.383,0.088,0.056:
0000
0000
0000
0000
,
0000
0000
0000
0000
,
0000
0000
0000
0000
,
0000
0000
0000
0000
,
1000
0000
0001
0000
0000
0100
0000
0000
0010
0000
0000
0100
0000
0000
0001
0000
,
1000
0000
0100
0000
0000
0010
0000
0000
0100
0000
0000
1000
0000
0000
0001
0000
,
0100
0100
0000
0100
0100
0000
1001
0000
,
0010
0000
0010
0000
1000
0000
0000
0100
0000
0000
0010
0000
1001
0000
0000
0000
,
0001
0100
0001
0000
0100
1000
0100
0000
,
1000
0010
1000
0000
0010
0001
0100
0001
,
0010
1000
0010
0000
1000
0100
1000
0000
,
0100
0001
0100
0001
0010
0100
1000
0000
,
1000
0100
1000
0000
0100
0001
0100
0000
,
0001
0010
0001
0000
0010
1000
0100
1000
,
0010
0001
0010
0000
0001
0100
0001
0000
,
0100
1000
0100
1000
0010
0100
0001
0000
,
1000
0100
0010
0001
1000
0000
1100
0000
,
0001
0101
1000
1100
,
0001
0010
0100
1000
0001
0000
0011
0000
,
1000
1010
0001
0011
,
1000
0010
0100
0001
1000
0000
1010
0000
,
0001
0011
2000
3200
,
0320
0000
0000
0032
0000
0000
1003
0000
,
0001
1100
1000
0101
,
0001
0000
0100
0000
0001
0000
0010
0000
0000
0010
0000
0000
0010
0000
0100
0000
,
1000
0100
0100
0010
0100
0100
1000
0000
,
1000
0100
1000
0010
0000
0000
0010
0100
,
0001
0100
0100
0010
0100
0100
0001
0000
,
1000
0100
0010
0001
1000
0000
1000
0100
,
0010
0001
1000
0000
1000
0100
0010
0001
,
1000
1000
0100
0100
0001
0001
0100
0100
,
1000
1000
0010
0010
0001
0001
0010
0010
,
1000
0000
0000
0001
0000
0000
1001
0000
,
0110
0000
1001
0000
0001
0100
1000
0000
,
0011
0000
1100
0000
0001
0010
1000
0000
,
1100
0000
0011
0000
1000
1000
1010
0000
,
1010
0000
0101
0000
0001
0001
0101
0000
,
1000
0100
0001
0000
0011
0000
1100
0000
,
1000
0010
0001
0000
1010
0000
0101
0000
,
0110
0000
1001
0000
1000
0001
0101
0000
,
0011
0000
1100
0000
0001
1000
1100
0000
,
0001
0010
0001
0100
0010
0000
1000
0100
,
1000
0010
0100
0000
0001
0100
0001
0010
,
0100
0000
1000
0100
1000
0010
0100
0001
,
0010
0100
0010
0100
1000
0001
1000
0001
,
0100
0110
0000
1010
0000
1100
0000
0110
,
0000
0011
0000
0101
0000
1100
0000
1010
,
0000
0011
0000
1001
0000
1100
0000
0110
,
0010
0000
0000
0001
0000
0000
0100
0000
0000
0001
0000
0000
0010
0000
0000
0000
,
0100
0000
0000
1000
0000
0000
0010
0000
0000
1000
0000
0000
0100
0000
0000
0000
,
1000
0000
0000
0001
0000
0000
0010
0000
0000
0100
0000
0000
1000
0000
0000
0000
,
0001
0100
1000
0100
0001
0000
1000
0100
,
0001
0100
1000
0000
0001
0100
1000
0100
,
0001
0000
1000
0010
0001
0010
1000
0010
,
0100
0001
0100
0001
1000
0100
1000
0100
,
0010
0001
0100
0001
0010
0000
0010
1000
,
0100
1000
0010
0000
0010
0001
0100
0001
,
0010
0000
0100
1000
0010
1000
0100
0010
,
0001
0100
0010
1000
0001
0100
0010
1000
,
0001
0010
0100
1000
0001
0010
0100
1000
,
0001
0100
1000
0010
0001
0100
1000
0010
,
0001
0100
0100
0000
0110
0000
1001
0000
,
0010
1000
0100
0010
0100
1000
0010
0100
,
0010
1000
0100
0010
0001
0100
0001
0100
,
0010
1000
0100
1000
0010
0100
0001
0010
,
0001
0100
0001
0100
0010
1000
0100
0000
,
0010
0001
0100
0010
0100
0001
0010
0100
,
0010
0001
0100
0010
0100
0001
0010
0100
,
1000
0000
0001
0000
0001
0000
0001
0000
0001
0000
0000
1000
0000
0100
0000
0000
,
1000
0001
0100
0000
0001
0010
0010
0100
,
1000
0001
0010
0100
2000
0000
0010
0000
,
0100
0010
0100
3010
,
0001
0010
0100
1000
0002
0000
0010
0000
,
0100
0010
0100
0013
,
1000
0100
0010
0001
2000
0000
0100
0000
,
0010
0100
3020
0230
,
0302
0000
0000
2003
0000
0000
3100
0000
,
0010
0001
0010
0001
1000
0010
0010
0000
,
0100
0001
0100
0001
0010
0100
0100
1000
,
0010
0100
0100
0001
0010
0100
1000
0100
,
0001
0010
0100
0100
1000
0010
0010
0100
,
0100
0001
0010
0001
0010
0100
1000
0010
,
0001
1000
0100
0100
1000
0001
0100
0100
,
0010
0100
0100
0001
0010
0010
0001
0100
,
1000
1000
0100
0100
0010
0010
0001
0100
,
0010
0010
1000
1000
0001
0010
0100
1000
,
1001
0000
0000
0000
;

//---------------dance-single - ----------------
#NOTES:
     dance-single:
     :
     Easy:
     9:
     0.475,0.549,0.072,0.088,0.000:
0000
0000
0000
0000
,
0000
0000
0000
0000
,
0000
0000
0000
0000
,
0000
0000
0000
0000
,
0001
0010
0100
1000
,
0001
0100
0010
1000
,
0001
1000
0010
0110
,
1000
1000
1000
1000
,
0001
0001
0100
0100
,
0010
0000
0010
0000
1000
0100
1000
0000
,
0010
0010
0100
0100
,
0001
0000
0001
0000
1000
0100
1000
0000
,
0001
0001
0010
0010
,
0100
0000
0100
0000
1000
0100
1000
0000
,
0010
0010
0100
0100
,
0000
0001
0000
1000
0000
0001
0000
0100
,
0100
0001
1000
0001
0020
0000
0000
0000
,
0000
0000
0000
0030
,
0100
1000
0001
1000
0020
0000
0000
0000
,
0000
0000
0000
0030
,
0100
0001
1000
0001
2000
0000
0000
0000
,
0000
0000
3100
0010
,
0001
0000
0000
1000
0000
0000
0020
0000
,
0000
0000
0000
0030
,
0100
0100
0001
0001
,
1000
0000
1000
0000
0001
0100
0001
0000
,
0010
0010
0100
0100
,
1000
0000
1000
0000
0001
0100
0001
0000
,
0010
0100
1000
0100
,
0010
0000
0001
0000
0100
0010
1000
0000
,
0001
1000
0001
0000
1000
0001
1000
0000
,
0001
1000
0001
0001
1000
0001
1000
1000
,
0100
0000
0000
0010
0000
0000
1001
0000
,
0010
0000
0010
0000
0010
0001
0100
0000
,
0010
0000
0010
0000
0010
1000
0100
0000
,
0010
0000
0001
0000
0100
0100
0110
0000
,
0010
0000
1000
0000
0100
0100
0110
0000
,
0010
0000
0010
0000
0100
1000
0010
0000
,
0100
0000
0100
0000
0010
1000
0100
0000
,
0010
0000
0001
0000
0100
0010
0010
0000
,
1000
0000
0100
0000
0010
0010
1001
0000
,
1000
0000
0001
0100
0001
0000
1000
0000
,
0001
1000
0001
0000
1000
0000
0001
0010
,
0001
0000
1000
0000
0001
0100
0001
0000
,
1000
0100
0010
0000
0010
0001
1000
0000
,
0000
0001
0000
0100
0000
0010
0000
0110
,
0000
1000
0000
0100
0000
0010
0000
0110
,
0000
0001
0000
1000
0000
0100
0000
0110
,
0010
0000
0100
0000
1000
0100
0010
0000
,
0010
0000
0100
0000
1000
0100
0010
0000
,
0010
0000
0100
0000
1000
0100
0010
0000
,
0001
0000
0100
0010
0100
0000
0001
0000
,
0010
0100
0010
0000
0001
0000
0100
0010
,
0100
0000
0010
0100
0010
0000
1000
0000
,
0001
0100
0010
0000
0010
1000
0100
0000
,
0010
0000
0001
0100
0001
0000
0010
0000
,
0100
1000
0100
0000
0010
0000
0001
0100
,
0001
0000
1000
0000
0100
0010
0100
0000
,
1000
0100
0010
0000
1000
0100
0010
0000
,
0100
0010
0001
0000
0100
0010
0001
0000
,
0010
0001
1000
0000
0010
0001
1000
0000
,
0100
1000
1000
0000
0001
0000
1000
0000
,
0001
0100
0010
0000
0100
0000
0010
0000
,
1000
0100
0010
0000
0100
0000
0010
0000
,
0001
0010
0100
0000
0010
0000
0100
0000
,
1000
0010
0100
0000
0010
0000
0100
0000
,
0001
1000
0100
0000
1000
0000
0100
0000
,
1000
0001
0100
0000
0001
0000
0100
0000
,
0001
0010
0010
0000
0010
0000
0010
0000
,
0100
1000
0100
1000
0001
0100
0001
0000
,
1000
0100
0010
0001
2000
0000
0100
0000
,
0100
0100
0100
3100
,
0001
0100
0010
1000
0002
0000
0100
0000
,
0100
0100
0100
0103
,
1000
0010
0100
0001
2000
0000
0100
0000
,
0100
0100
3200
0320
,
0032
0000
0000
0203
0000
0000
0310
0000
,
1000
0001
1000
0001
1000
0001
1000
0000
,
0001
0100
0100
0000
0010
0100
0000
0100
,
0001
0010
0000
0100
1000
0000
0001
0000
,
0100
0001
0000
1000
0100
0010
0000
0001
,
0100
0001
0000
0010
0100
1000
0000
0100
,
0010
0100
0001
0000
0010
0100
0000
1000
,
0010
0100
0000
0001
0010
1000
0100
0000
,
0010
0010
0100
0100
0010
0100
0010
0000
,
1000
1000
0001
0001
1000
0001
1000
0000
,
1001
0000
0000
0000
;

//---------------dance-single - ----------------
#NOTES:
     dance-single:
     :
     Challenge:
     18:
     0.902,1.000,0.279,0.175,0.809:
0000
0000
0000
0000
,
0000
0000
0000
0000
,
0000
0000
0000
0000
,
0000
0000
0000
0000
,
0001
0000
1000
0100
0000
0100
0010
0001
0100
0000
0010
0100
0000
0010
1000
0000
,
0100
0000
0010
0001
0000
0001
0100
0010
1000
0000
0100
0001
0000
0100
1000
0000
,
0001
0100
0001
0000
1000
0001
0010
0001
0000
0000
0000
0000
0110
0000
0000
0000
,
1000
0000
1000
0000
0001
0000
0010
0001
0100
0010
1000
0000
0100
0010
0000
0100
,
1000
0100
0001
0100
1000
0100
0010
0100
,
1000
0000
0100
0000
0001
0000
0100
0000
1000
0010
0100
0001
0010
0100
1000
0100
,
0010
0000
0001
0000
0100
0000
0010
1000
0100
1000
0010
0000
0100
0000
0001
0000
,
0010
0000
0100
0000
1000
0000
0010
1000
0100
0010
0100
1000
0010
0000
0100
0001
,
0010
0100
0001
0100
0010
0100
1000
0100
,
0010
0000
0100
0000
0001
0000
0100
0000
1000
0010
0100
0001
0010
0001
0100
0010
,
1000
0000
0100
0000
0010
0000
0100
1000
0010
1000
0100
0000
0010
0000
0001
0000
,
0100
0000
0010
0000
1000
0000
0100
0010
0001
0010
0001
1000
0010
1000
0010
0100
,
0002
1000
0010
1000
0200
0000
0000
0000
,
0000
0000
0000
0303
,
2100
0001
0010
0001
0200
0000
0000
0000
,
0000
0000
0000
3300
,
0201
0010
1000
0010
0002
0000
0000
0000
,
0000
0303
2100
3002
,
0203
0000
0000
0320
0000
0000
2000
0000
,
0000
0000
0000
3030
,
0001
0000
0100
0000
1000
0000
0100
0000
0000
0001
0010
0001
0010
0000
0100
0000
,
1000
0000
0010
0100
0010
0000
1000
0000
0100
0000
0010
0001
1000
0000
0001
0000
,
0100
0010
0001
0020
0000
0000
1030
0100
,
0001
0000
0100
1000
0010
0000
1000
0000
0001
0000
0100
0010
1000
0000
0100
0000
,
0001
0100
1000
0010
0002
0000
1003
0100
,
0001
0000
0010
0000
1000
0010
0001
0000
1000
0000
0100
0000
0010
0000
0001
0000
,
0100
0001
0100
0000
0100
0010
0100
0000
0100
1000
0100
0000
0100
0010
0100
0000
,
0010
1000
1000
0000
0010
0001
0001
0000
0010
1000
1000
0000
0010
0001
0001
0000
,
0010
0100
0010
0100
0000
0000
0001
1000
0001
1000
0000
0100
0010
0000
0001
0000
,
1001
0000
0001
0000
0100
0000
1000
0000
0100
0000
0010
1000
0100
0000
0010
0000
,
0001
0000
1000
0000
0100
0000
0001
0000
0100
0010
0001
0100
0010
0000
0100
0000
,
0001
0000
0000
0000
0110
0000
0000
0000
1000
0100
0001
1000
0010
0001
1000
0000
,
0001
0000
0000
0000
0110
0000
0000
0000
1000
0010
0001
1000
0100
0001
1000
0000
,
1001
0000
0001
0000
0100
0000
1000
0000
0100
0010
1000
0001
0010
0000
0100
0000
,
0010
0001
0010
0000
0100
0000
1000
0000
0010
1000
0100
0010
0001
0000
0100
0000
,
0010
0000
0000
0000
0000
0000
0000
0000
1001
0000
0000
0000
0000
0000
0000
0000
0100
0000
0001
1000
0001
0000
0010
0000
0100
0000
0000
0000
0000
0000
0000
0000
,
0010
0000
0000
0000
1001
0000
0000
0000
1000
0200
0001
0000
0301
0000
0000
0000
,
0100
1000
0010
0001
1000
0000
0100
0001
,
0010
1000
0001
0001
0100
1000
0010
0100
,
0001
0000
1000
0100
0010
0100
0001
0100
,
0010
0001
1000
0100
0010
0001
1000
0100
,
0010
0011
0001
0101
0000
1010
1000
1100
,
0000
0101
0100
1100
0000
0011
0010
1010
,
0000
1100
0001
0110
0000
0101
1000
0110
,
1000
0000
0000
1100
0000
0000
0110
0000
0000
0011
0000
0000
1001
0000
0000
0001
,
0100
0000
0000
0110
0000
0000
1010
0000
0000
1001
0000
0000
0101
0000
0000
0100
,
0001
0000
0000
0011
0000
0000
0110
0000
0000
1100
0000
0000
1001
0000
0000
0100
,
0001
0000
0010
0000
0100
0000
1000
0001
1000
0000
0000
0000
0001
0000
0100
0000
,
0010
0000
1000
0001
1000
0000
1000
0000
1000
0000
0010
0000
0100
0000
0001
1000
,
0001
0000
0000
0000
0001
0000
0010
0000
0100
0000
1000
0000
0010
0100
0010
0001
,
0010
1000
0100
0001
1000
0010
0001
0100
,
0010
0000
1000
0000
0100
0000
1000
0001
0010
0000
0000
0000
0010
0000
0001
0000
,
0100
0000
0001
1000
0010
0000
0010
0000
0010
0000
1000
0000
0100
0000
1000
0001
,
0010
0000
0000
0000
0010
0000
0001
0000
0100
0000
0001
0000
0010
0100
0010
1000
,
0010
0001
0010
0001
1000
0100
1000
0100
1000
0010
1000
0010
0100
0001
0100
0001
,
1000
0100
0010
0001
1000
0010
0100
0001
0100
1000
0100
0010
0001
1000
0100
0001
,
0010
0001
1000
0100
0010
0001
0100
0010
1000
0100
0001
0100
0010
1000
0001
0100
,
1000
0000
0100
0000
0100
0000
0000
1000
0001
0000
0100
0010
0000
1000
0100
0001
,
0100
1000
0010
0001
0010
0100
1000
0100
,
0001
0000
0010
0000
0100
0000
1000
0000
0001
0100
0010
0100
0010
1000
0100
0010
,
0001
0000
1000
0000
0100
0000
0001
0100
1000
0001
0100
0000
0010
0000
1000
0000
,
0100
0000
0001
0000
0100
0000
1000
0010
1000
0100
0010
0001
0100
0000
0010
1000
,
0010
0000
0100
0000
0001
0000
0010
0000
1000
0010
1000
0000
0010
0001
0010
0001
,
0100
0000
0010
0000
1000
0000
0001
0000
0001
0100
0010
1000
0100
0000
0010
0001
,
0100
0000
0010
0000
0010
0000
0010
0000
0010
0000
0000
0100
0000
0100
0000
0100
,
0001
0000
1000
0000
0100
0000
0010
0001
0100
1000
0100
1000
0100
0001
0100
0001
,
0010
1000
0100
0001
0020
0000
0100
0000
,
0100
0100
0100
0000
0100
0000
0130
0000
,
0010
0001
0100
1000
0020
0000
0100
0000
,
0001
1000
0001
0130
,
0010
1000
0100
0001
0020
0000
1000
0000
,
0001
1000
0230
2300
,
3020
0000
0000
0032
0000
0000
0203
0000
,
1000
1000
1000
1000
1000
1000
1300
0000
,
0001
0100
0001
0000
0010
0100
0000
0100
1000
0000
0001
0100
1000
0100
0001
0010
,
0100
1000
0100
1000
0010
0100
0001
0010
1000
0010
0100
0001
0100
1000
0010
0100
,
0001
1000
0100
0000
1000
0001
0000
0100
0001
0100
0010
1000
0100
0001
0100
1000
,
0010
0100
0001
0010
0100
1000
0010
0001
0010
1000
0100
0010
0001
0100
0010
0001
,
1000
0100
0010
0000
1000
0001
0000
1000
0100
0010
0001
0100
0010
0100
0010
1000
,
0100
0010
0001
0100
1000
0100
0010
1000
0100
0001
0100
0010
0001
0100
0010
1000
,
0100
0001
0001
0000
0100
1000
1000
0000
0100
0001
0001
0100
1000
0010
0100
0001
,
0010
1000
1000
0000
0010
0001
0001
0000
0010
0100
0001
0100
1000
0010
0100
0001
,
1100
0000
0000
0000
;

//---------------dance-single - ----------------
#NOTES:
     dance-single:
     :
     Beginner:
     6:
     0.256,0.309,0.000,0.080,0.000:
0000
0000
0000
0000
,
0000
0000
0000
0000
,
0000
0000
0000
0000
,
0000
0000
0000
0000
,
1000
0000
0000
0000
,
0001
0000
0000
0000
,
0100
0000
0100
0100
,
0000
0001
0000
0001
,
0001
0000
1000
0000
,
0001
0001
0001
0000
,
1000
0000
0001
0000
,
1000
1000
1000
0000
,
0010
0000
0100
0000
,
0010
0010
0010
0000
,
0100
0000
0010
0000
,
0100
0100
0100
0000
,
0001
0100
2000
0000
,
0000
0000
3000
0000
,
1000
0100
0020
0000
,
0000
0000
0030
0000
,
0010
1000
0200
0000
,
0000
0000
1300
0100
,
0010
0000
0001
0000
,
0100
0100
0100
0000
,
0010
0010
0000
1000
,
0100
0100
0000
0010
,
0001
0001
0000
0100
,
0010
0010
1000
0000
,
0100
0010
0000
0010
,
0001
0001
1000
1000
,
0100
0100
0100
0100
,
0010
0010
0010
0010
,
0001
0000
0000
1000
0000
0000
0001
0000
,
0100
0010
0100
0000
,
0010
0100
0010
0000
,
1000
0000
2000
3000
,
0001
0000
0002
0003
,
0100
0010
0100
0000
,
0010
0100
0010
0000
,
1000
0000
0002
0003
,
0001
0000
2000
3000
,
1000
0100
1000
0000
,
0001
0100
0001
0001
,
0100
0000
0001
0010
,
0001
0000
0010
0000
,
0100
1000
0100
0000
,
0100
0010
0100
0100
,
0010
0000
0001
0010
,
0001
0000
0010
0000
,
0001
0000
0010
0000
,
0001
0000
0010
0000
,
0001
0100
0001
0001
,
0100
0001
0001
0100
,
0001
0000
1000
0000
,
0100
0100
0100
0000
,
1000
0100
1000
1000
,
0100
1000
1000
0100
,
1000
0000
0001
0000
,
0100
0100
0100
0000
,
0010
0010
0010
0000
,
0010
0010
0010
0000
,
0100
0000
0010
0000
,
1000
0000
0100
0000
,
1000
0100
0010
0000
,
0001
0000
0100
0000
,
0001
0100
0010
0000
,
1000
0000
0100
0000
,
1000
0100
0010
0000
,
0001
0000
1000
0000
,
0100
0100
0100
0000
,
1000
0100
0020
0000
,
0000
0000
0030
0000
,
0001
0100
0020
0000
,
0000
0000
0030
0000
,
1000
0100
0020
0000
,
0000
0000
0031
0100
,
0010
0000
0000
0100
0000
0000
0001
0000
,
1000
1000
1000
1000
,
0100
0000
0100
0000
,
0010
0000
0001
0100
,
0000
0001
0000
1000
,
0000
0100
0000
0010
,
0100
0000
1000
0000
,
0001
0000
1000
0000
,
0100
0100
0100
0100
,
0010
0010
0010
0010
,
0010
0000
0000
0000
;

//---------------dance-double - ----------------
#NOTES:
     dance-double:
     :
     Hard:
     15:
     0.754,0.835,0.104,0.255,0.295: // measure 1
00000000
00000000
00000000
00000000
,  // measure 2
00000000
00000000
00000000
00000000
,  // measure 3
00000000
00000000
00000000
00000000
,  // measure 4
00000000
00000000
00000000
00000000
,  // measure 5
10000000
00000000
01000000
00000000
00000000
00010000
00000000
00000000
00001000
00000000
00000000
00000010
00000000
00000000
00000100
00000000
,  // measure 6
00010000
00000000
00100000
00000000
00000000
00010000
00000000
00000000
00001000
00000000
00000000
00000100
00000000
00000000
00000010
00000000
,  // measure 7
00010000
00001000
00010000
00000000
00001000
00010000
00001000
00010000
00000000
00000000
00000000
00000000
00011000
00000000
00000000
00000000
,  // measure 8
00001000
00000000
01000000
00000000
00100000
00000000
00000000
00100000
00000000
10000000
00010000
00000000
00100000
01000000
00000000
10000000
,  // measure 9
01000000
00010000
00001000
00010000
00100000
00010000
00001000
00010000
,  // measure 10
01000000
00000000
00010000
00000000
00001000
00000000
00000100
00000000
00000010
00001000
00000010
00000000
00000100
00000000
00000100
00000000
,  // measure 11
00000001
00000000
00001000
00000000
00000100
00000000
00010000
00001000
00010000
00000000
00001000
00000000
01000000
00000000
00100000
00000000
,  // measure 12
10000000
00000000
01000000
00000000
00010000
00000000
00001000
00000000
00000100
00000010
00000100
00000000
00000002
00000000
00000000
00000000
,  // measure 13
00000103
00001000
00010000
00001000
00000010
00001000
00010000
00001000
,  // measure 14
00000100
00000000
00001000
00000000
00010000
00000000
01000000
00000000
00100000
00010000
00100000
00000000
01000000
00000000
01000000
00000000
,  // measure 15
10000000
00000000
00010000
00000000
01000000
00000000
00001000
00010000
00001000
00000000
00010000
00000000
00000100
00000000
00000010
00000000
,  // measure 16
00000001
00000000
00000100
00000000
00001000
00000000
00010000
00000000
01000000
00100000
01000000
00000000
10000000
00000000
00000000
00000000
,  // measure 17
00010000
01000000
00001000
00010000
00002000
00000000
00000100
00000000
,  // measure 18
00010000
00100000
00010000
00003010
,  // measure 19
00000001
00000100
00001000
00010000
00002000
00000000
00100000
00000000
,  // measure 20
01000000
00010000
00000010
00013000
,  // measure 21
01000000
10000000
00100000
00010000
00002000
00000000
00100000
00000000
,  // measure 22
00000010
00100000
00023000
00030200
,  // measure 23
00000320
00000000
00000031
00000200
00000010
00000300
00002000
00000000
,  // measure 24
00003001
00000100
00001000
00010000
00100000
10000000
00010000
00000000
,  // measure 25
10000000
00000000
01000000
00000000
00010000
00000000
01000000
00000000
00000000
00100000
00001000
00000000
00010000
00000000
00000100
00000000
,  // measure 26
00000010
00000001
00000001
00000100
00000010
00001000
00001010
00000000
,  // measure 27
00000001
00000100
00000010
00000200
00000000
00000310
00010000
00001000
,  // measure 28
00010000
00000000
01000000
00000000
01000000
00000000
10000000
00000000
00010000
01000000
00010000
00000000
01010000
00000000
00000000
00000000
,  // measure 29
10000000
01000000
00010000
00001000
00000200
00000000
00000301
00000100
,  // measure 30
00001000
00010000
01000000
01000000
10000000
00010000
10000000
01000000
,  // measure 31
00010000
00010000
00001000
00001000
00000100
00000100
00000010
00000010
,  // measure 32
00001000
00000100
00001000
00000000
00000100
00000010
00000100
00000000
00000010
00000001
00000010
00000000
00000001
00001000
00000001
00000000
,  // measure 33
00001000
00000100
00001000
00000100
00000000
00000000
00010000
00001000
00000000
00100000
00000000
00010000
01000000
00000000
01000000
00000000
,  // measure 34
01010000
10000000
01000000
00010000
00001000
00000010
00000001
00000100
,  // measure 35
00000001
00000010
00001000
00010000
01000000
10000000
00100000
00010000
,  // measure 36
00100000
00000000
00000000
00000000
01100000
00000000
00000000
00000000
10000000
00010000
10000000
00010000
10000000
00010000
00000000
00000000
,  // measure 37
01000000
00000000
00000000
00000000
01100000
00000000
00000000
00000000
00010000
10000000
00010000
10000000
00010000
10000000
00000000
00000000
,  // measure 38
01000000
00010000
00001000
00000010
00001000
00010000
00100000
10000000
,  // measure 39
01000000
00010000
00001000
00000010
00000001
00000100
00000001
00000010
,  // measure 40
00000100
00000000
00000000
00000000
00000110
00000000
00000000
00000000
00000001
00002000
00003001
00000010
00000100
00000000
00000000
00000000
,  // measure 41
00000010
00000000
00000000
00000000
00000110
00000000
00000000
00000000
00000010
00000002
00001000
00000000
00001003
00000000
00000000
00000000
,  // measure 42
00000001
00000100
00001000
00010000
00200000
00000000
10300000
01000000
,  // measure 43
00010000
00001000
00000010
00000010
00001000
00010000
01000000
10000000
,  // measure 44
00200000
00000000
10300000
00100000
00010000
00001000
00010000
01000000
,  // measure 45
00010000
00001000
00000100
00000010
00010000
00001000
00000100
00000010
,  // measure 46
00000001
00000010
00001000
00000100
00000020
00000000
00000031
00000100
,  // measure 47
00001000
00010000
00100000
10000000
00010000
10000000
01000000
00010000
,  // measure 48
00002000
00000000
00013000
01000000
10000000
00010000
10000000
00100000
,  // measure 49
00010000
00000000
00000000
00001000
00000000
00000000
00000100
00000000
00000000
00000010
00000000
00000000
00010010
00000000
00000000
00000010
,  // measure 50
00010000
00000000
00000000
00001000
00000000
00000000
00000100
00000000
00000000
00000010
00000000
00000000
00010010
00000000
00000000
00000010
,  // measure 51
00010000
00000000
00000000
00001000
00000000
00000000
00000100
00000000
00000000
00000010
00000000
00000000
00010010
00000000
00000000
00010000
,  // measure 52
00001000
01000000
00100000
01000000
00002000
00000000
00013000
00000100
,  // measure 53
00000010
00000100
00010000
00010000
00001000
00100000
01000000
00100000
,  // measure 54
00002000
00000000
00013000
00000010
00000100
00000010
00010000
00010000
,  // measure 55
00001000
01000000
00100000
10000000
00001000
00100000
01000000
10000000
,  // measure 56
00001000
01000000
10000000
01000000
00002000
00000000
00013000
00000100
,  // measure 57
00000001
00000100
00010000
00010000
00001000
00100000
10000000
00100000
,  // measure 58
00002000
00000000
00013000
00000010
00000001
00000010
00001000
00000010
,  // measure 59
00010000
01000000
10000000
00010000
00100000
01000000
10000000
00010000
,  // measure 60
00100000
00001000
00010000
00000100
00000001
00000100
00001000
00010000
,  // measure 61
00100000
01000000
10000000
01000000
00010000
00001000
00010000
00100000
,  // measure 62
00010000
00000000
00000100
00000000
00000100
00000000
00000000
00001000
00000010
00000000
00000010
00000100
00000000
00000100
00000001
00001000
,  // measure 63
00000001
00000100
00001000
00000100
00000010
00000100
00010000
00000100
,  // measure 64
00001000
00000000
00100000
00000000
10000000
00000000
00100000
00000000
01000000
10000000
01000000
00000000
00010000
00000000
00010000
00000000
,  // measure 65
00001000
00000100
00000010
00001000
00001000
00000001
00000100
00001000
,  // measure 66
00010000
00000000
01000000
00000000
10000000
00000000
01000000
00000000
00100000
00010000
00100000
00000000
02000000
00000000
00000000
00000000
,  // measure 67
13000000
01000000
00010000
01000000
00100000
01000000
00001000
01000000
,  // measure 68
00010000
00000000
00000010
00000000
00000001
00000000
00000010
00000000
00000100
00000001
00000100
00000000
00001000
00000000
00001000
00000000
,  // measure 69
00010000
00000000
01000000
00000000
01000000
00000000
01000000
00000000
01000000
00000000
00000000
10000000
00000000
01000000
00000000
00010000
,  // measure 70
00001000
00000000
00000100
00000000
00000001
00000000
00000100
00000000
00000010
00001000
00000010
00000000
00000100
00000000
00000100
00000000
,  // measure 71
00000001
00000010
00001000
00010000
02000000
00000000
13000000
00000000
,  // measure 72
00010000
00000000
01000000
00000000
00001000
00000000
00000000
00010000
00000100
00000000
00000010
00000000
00000011
00000000
00000000
00000000
,  // measure 73
00000001
00000100
00001000
00010000
00200000
00000000
10000000
00000000
,  // measure 74
00010000
00001000
00010000
10300000
,  // measure 75
10000000
01000000
00010000
00001000
00000020
00000000
00000001
00000000
,  // measure 76
00001000
00010000
00002030
00023000
,  // measure 77
20030000
00000000
31000000
00020000
00001000
00030000
00000020
00000000
,  // measure 78
00000100
00000100
00000100
00000100
00000100
00000100
00000130
00000000
,  // measure 79
00000001
00000100
00000001
00000000
00001000
00000100
00000000
00000000
00010000
00000000
00001000
00000000
00100000
00000000
00010000
00000000
,  // measure 80
01000000
00000000
10000000
00000000
01000000
00000000
00010000
00000000
10000000
01000000
00000000
00000000
00100000
00010000
00000000
00000000
,  // measure 81
00001000
00000100
00001000
00000000
00000010
00000100
00000000
00000000
00001000
00000000
00010000
00000000
00001000
00000000
01000000
00000000
,  // measure 82
00100000
00000000
10000000
00000000
01000000
00000000
00010000
00000000
00001000
00000100
00000000
00000000
00000100
00000001
00000000
00000000
,  // measure 83
00000100
00000010
00000100
00000000
00000010
00010000
00000000
00000000
00001000
00000000
01000000
00000000
00100000
00000000
10000000
00000000
,  // measure 84
01000000
00010000
00001000
00000010
00000001
00000001
00001000
00001000
,  // measure 85
00000001
00000100
00000001
00000000
00000100
00000000
00001000
00000000
00010000
00001000
00010000
00000000
01000000
00000000
10000000
00000000
,  // measure 86
00010000
10000000
00010000
00000000
10000000
00000000
00100000
00000000
00010000
00001000
00010000
00001000
00010000
00001000
00010000
00000000
,  // measure 87
00022000
00000000
00000000
00000000
,  // measure 88
00000000
00033000
00000000
00000000
;

//---------------dance-double - ----------------
#NOTES:
     dance-double:
     :
     Medium:
     12:
     0.677,0.626,0.215,0.207,0.024:
00000000
00000000
00000000
00000000
,
00000000
00000000
00000000
00000000
,
00000000
00000000
00000000
00000000
,
00000000
00000000
00000000
00000000
,
00001000
00010000
00000100
00000000
00000010
00000000
00000001
00000000
,
00000100
00000010
00010000
00000000
00001000
00000000
01000000
00000000
,
00100000
10000000
00000000
10000000
00100000
00000000
00100000
01000000
00000000
00000000
00000000
00000000
01100000
00000000
00000000
00000000
,
00010000
00000000
10000000
00000000
01000000
00000000
00000000
00100000
00000000
00000000
01000000
00000000
10010000
00000000
00000000
00000000
,
00010000
01000000
00001000
00010000
00001000
01000000
00010000
01000000
,
00001000
00010000
00000100
00000010
00000001
00000001
00001000
00001000
,
00000001
00000100
00001000
00000100
00000010
00000100
00001000
00010000
,
00001000
00001000
00010000
00010000
01000000
10000000
00010000
00000000
,
10000000
01000000
00010000
01000000
10000000
01000000
00100000
01000000
,
00010000
00001000
00010000
00001000
00000100
00000100
00000010
00000010
,
00001000
00000001
00000010
00000100
00001000
00001000
00000001
00000100
,
00000010
00000010
00000100
00000100
00000001
00001000
00000001
00000000
,
00000001
00000010
00000100
00001000
00020000
00000000
00130000
00000000
,
00020000
01030000
00020000
10030000
,
10000000
01000000
00100000
00010000
00002000
00000000
00003100
00000000
,
00002000
00003010
00002000
00003001
,
00000001
00000100
00000010
00010000
00002000
00000000
00103000
00000000
,
00002000
01003000
00020000
00230000
,
02300000
00000000
00000000
23000000
00000000
00000000
30020000
00000000
,
01000000
00000000
01000000
00000000
01000000
01000000
01030000
00000000
,
10000000
01000000
00100000
01000000
00000000
01000000
00010000
00001000
,
00010000
00001000
00010000
00000100
00000010
00000010
00000100
00001000
,
00000001
00000100
00000010
00000200
00000000
00000300
00000010
00001000
,
00000100
00001000
00000100
00010000
00001000
01000000
01000000
00100000
,
10000000
01000000
00100000
00010000
10000000
00000000
10000000
01000000
,
00100000
00010000
01000000
00100000
10000000
01000000
00100000
00010000
,
01000000
01000000
00001000
00010000
00000100
00000100
00010000
00001000
,
00100000
00100000
00001000
00010000
00000010
00000010
00010000
00001000
,
00000100
00000000
00000000
00000001
00000000
00000000
00001000
00000000
,
00001001
00000000
00001010
00000000
00000001
00000100
00001000
00000000
,
00011000
00000000
01010000
00000000
01000000
10000000
00010000
01000000
,
00100000
00000000
01100000
00000000
10000000
01000000
00010000
00000000
,
00000100
00000000
00000110
00000000
00000001
00000100
00001000
00000000
,
01000000
00100000
10000000
00000000
00010000
10000000
01000000
00010000
,
00001000
00000100
00000010
00000000
00001000
00000001
00000010
00000001
,
00000100
00000000
00000110
00000000
00000010
00010000
00100000
00000000
,
10000000
00000000
11000000
00000000
00100000
00001000
00000010
00000000
,
00000001
00000100
00000001
00000010
00000100
00000000
00010000
00001000
,
00010000
01000000
00100000
00000000
00010000
01000000
00010000
10000000
,
01000000
00000000
00010000
00001000
00000100
00000010
00001000
00000001
,
00000100
00000100
00000010
00000010
00001000
00000001
00000100
00001000
,
00010000
00011000
00000000
01001000
00000000
01100000
00000000
10100000
,
00000000
11000000
00000000
01010000
00000000
00011000
00000000
00001100
,
00000000
00000110
00000000
00001010
00000000
00001001
00000000
00000011
,
00001000
00000100
00000010
00000001
00000100
00000010
00000100
00000010
,
00001000
00000100
00000010
00000001
00000100
00000010
00000100
00000010
,
00001000
00000100
00000010
00000001
00000100
00000010
00000100
00000010
,
00010000
00001000
00010000
01000000
00100000
00000000
00010000
01000000
,
00010000
10000000
01000000
00000000
00100000
00010000
00100000
00001000
,
00010000
00000000
00000100
00001000
00000010
00000100
00000001
00000010
,
00000001
00000100
00000001
00000100
00000010
00001000
00000010
00001000
,
00000100
00010000
00001000
01000000
00100000
00000000
10000000
01000000
,
10000000
00100000
00010000
00000000
00001000
00010000
00001000
00000100
,
00000010
00000000
00001000
00000100
00001000
00000001
00000100
00000010
,
00001000
00000100
00000010
00000001
00001000
00000100
00000010
00000001
,
00000100
00000010
00001000
00000100
00010000
00001000
00100000
00010000
,
01000000
00100000
10000000
01000000
00100000
00010000
00001000
00000100
,
00000010
00000000
00000001
00000000
00000001
00000000
00000000
00000001
00001000
00000000
00000000
00000001
00000000
00000000
00001000
00000000
,
00001100
00000100
00000010
00000100
00001000
00000100
00000010
00000001
,
00000100
00000010
00010000
00000010
00001000
00000100
00010000
00001000
,
01000000
00100000
10000000
00010000
00100000
00100000
01000000
10000000
,
01000000
01000000
00010000
00001000
00000100
00000001
00001000
00000000
,
00000001
00000100
00001000
00000100
00000001
00000100
00001000
00000100
,
00000010
00010000
00001000
00010000
00000010
00010000
00001000
01000000
,
00010000
00000000
00100000
01000000
10000000
01000000
00100000
00000000
,
00001000
00010000
00000100
00000010
00000001
00000100
00000001
00000000
,
00001000
00000100
00010000
00001000
00100000
00000000
00110000
00000000
,
10000000
01000000
00100000
00000000
01100000
00000000
10010000
00000000
,
10000000
00100000
01000000
00001000
00020000
00000000
00030100
00000000
,
00020000
00030010
00020000
00031000
,
00000100
00000010
00010000
00001000
00200000
00000000
01300000
00000000
,
00200000
00310000
00002000
00003200
,
00000320
00000000
00000000
00000032
00000000
00000000
00000203
00000000
,
00000310
00001000
00000010
00001000
00000100
00000010
00000010
00000000
,
00000001
00000100
00000010
00000100
00000001
00000010
00000100
00000010
,
00000001
00000100
00001000
00010000
01000000
10000000
00010000
00000000
,
10000000
01000000
00100000
01000000
10000000
00100000
01000000
00100000
,
10000000
01000000
00010000
00001000
00000010
00000100
00010000
00000000
,
00100000
01000000
00001000
00010000
01000000
00100000
00001000
00010000
,
00000100
00000010
00000001
00000100
00000010
00001000
00000001
00000000
,
00001000
00000100
00001000
00000100
00010000
00001000
00010000
00001000
,
00100000
00010000
01000000
10000000
01000000
00010000
00100000
01000000
,
20020000
00000000
00000000
00000000
,
00000000
30030000
00000000
00000000
;

//---------------dance-double - ----------------
#NOTES:
     dance-double:
     :
     Easy:
     9:
     0.495,0.487,0.223,0.056,0.000:
00000000
00000000
00000000
00000000
,
00000000
00000000
00000000
00000000
,
00000000
00000000
00000000
00000000
,
00000000
00000000
00000000
00000000
,
10000000
01000000
00100000
00010000
,
00001000
00000100
00000010
00000001
,
00001000
00000100
00000010
00000001
00001000
00000000
00001001
00000000
,
00000001
00001000
00010000
10000000
,
00010000
01000000
00010000
00000000
10000000
00000000
01000000
00000000
,
00010000
00000000
00001000
00000000
00000100
00000010
00000100
00000000
,
00000001
00000000
00001000
00000000
00000001
00000010
00000100
00000000
,
00010000
00000000
00001000
00000000
01000000
00100000
10000000
00000000
,
00010000
01000000
00001000
00010000
,
00000100
00000000
00001000
00000000
00000010
00000100
00000010
00000000
,
00001000
00000000
00000100
00000000
00010000
00001000
01000000
00000000
,
00010000
00000000
00100000
00000000
01000000
10000000
00010000
00000000
,
11000000
01100000
00120000
01000000
,
00100000
01000000
00100000
01030000
,
01001000
00011000
00010200
00000010
,
00001000
00000010
00001000
00000310
,
00000011
00000101
00000120
00001000
,
00000100
00001000
00000130
00001000
,
00010000
00000000
00000000
00100000
00000000
00000000
20000000
00000000
,
01000000
00100000
01000000
30100000
,
10000000
01000000
00100000
01000000
00000000
10000000
01000000
00000000
,
00100000
00001000
00010000
00000010
,
00001000
00000001
00000100
00000001
00000000
00000000
00001000
00000100
,
00001000
00000000
00000010
00000000
00010000
00001000
00010000
00000000
,
01000000
10000000
00010000
00000000
01000000
00000000
00001000
00010000
,
00000100
00000000
00001000
00000000
00000010
00000100
00000001
00000000
,
00001000
00000100
00001000
00000000
00000100
00010000
00000100
00000000
,
00010000
00001000
00010000
00000000
00001000
01000000
00001000
00000000
,
00100000
00000000
00000000
01000000
00000000
00000000
10000000
00000000
,
10010000
00000000
01100000
00000000
00010000
10000000
01000000
00000000
,
01100000
00000000
00101000
00000000
00001000
00010000
00000100
00000000
,
00001000
00000000
00000010
00000000
00000100
00000100
00000100
00000000
,
00000001
00000000
00000010
00000000
00000100
00000100
00000100
00000000
,
00010100
00000000
00011000
00000000
00001000
01000000
00100000
00000000
,
10100000
00000000
10010000
00000000
00010000
00100000
01000000
00000000
,
10000000
00000000
01000000
00000000
00010000
00001000
00010000
00000000
,
00001000
00000000
00000100
00000000
00000001
00001000
00000001
00000000
,
00001000
00000100
00001000
00000000
00000100
00000000
00010000
00000000
,
00001000
00000000
01000000
00000000
01000000
00100000
10000000
00000000
,
01000000
10000000
01000000
00010000
,
00001000
00000000
00000010
00000000
00000001
00001000
00000001
00001000
,
00000010
00000000
00000100
00000001
00000100
00000000
00000010
00000000
,
00010000
00000000
00001000
00000000
00100000
00000000
00010000
01000000
,
00010000
00100000
01000000
10000000
,
00010000
10000000
01000000
00100000
00010000
00000000
10000000
00000000
,
00010000
10000000
01000000
00100000
00010000
00000000
10000000
00000000
,
00010000
10000000
01000000
00100000
00010000
00000000
10010000
00000000
,
10000000
01000000
10000000
00000000
00010000
00000000
01000000
00001000
,
01000000
00000000
00001000
00000000
00010000
00000100
00010000
00000000
,
00000100
00000000
00000010
00000001
00000010
00000000
00000001
00000000
,
00001000
00000100
00000010
00000000
00000001
00000000
00000100
00000000
,
00000001
00000010
00000001
00000000
00001000
00000000
00000100
00001000
,
00000100
00000000
00010000
00000000
00001000
01000000
00001000
00000000
,
00100000
00000000
01000000
10000000
01000000
00000000
00100000
00000000
,
00010000
01000000
00100000
00000000
00010000
01000000
00100000
00000000
,
10000000
01000000
00010000
00001000
,
00000010
00000001
00000100
00000010
,
00001000
00000001
00000001
00000000
00001001
00000000
00000110
00000000
,
00000001
00001000
00000100
00010000
,
00001000
00000000
01000000
00000000
00010000
10000000
01000000
00100000
,
00010000
10000000
01000000
00010000
,
00001000
00000010
00000002
00000103
,
00000001
00000100
00001000
00010000
,
00100000
00000000
10000000
00000000
00010000
10000000
00010000
00100000
,
01000000
00000000
10000000
01000000
10000000
00000000
00010000
00000000
,
11000000
01010000
10010000
10010000
,
10000000
01000000
00010000
00000000
00001000
00000000
00000010
00000000
,
00000001
00000100
00000110
00001001
,
00000001
00000100
00001000
00000000
00010000
00000000
00100000
00000000
,
10000000
00010000
00100000
01000000
,
10000000
01000000
00010000
00000000
00001000
00000000
00000010
00000000
,
00000001
00000100
00000010
00010000
,
00001000
00000000
00000000
01000000
00000000
00000000
00100000
00000000
,
10000000
00010000
10000000
00000000
00010000
10000000
00010000
00000000
,
10000000
00000000
01000000
00000000
00100000
00001000
00010000
00000000
,
00000100
00000000
00001000
00000000
00000010
00000100
00000001
00000000
,
00000010
00000000
00000001
00000000
00000100
00000010
00010000
00000000
,
00001000
00000000
01000000
00000000
00100000
00100000
10000000
00100000
,
01000000
00000000
00010000
00000000
00100000
01000000
10000000
00000000
,
01000000
00000000
00010000
00000000
00001000
00000010
00001000
00000000
,
00000010
00000001
00000001
00000000
00001000
00000000
00000001
00000000
,
00001000
00000100
00000100
00000000
00010000
00001000
00010000
00001000
,
00022000
00000000
00000000
00000000
,
00000000
00033000
00000000
00000000
;

//---------------dance-double - ----------------
#NOTES:
     dance-double:
     :
     Challenge:
     18:
     0.891,1.000,0.319,0.175,0.682: // measure 1
00000000
00000000
00000000
00000000
,  // measure 2
00000000
00000000
00000000
00000000
,  // measure 3
00000000
00000000
00000000
00000000
,  // measure 4
00000000
00000000
00000000
00000000
,  // measure 5
00000001
00000000
00000100
00000000
00000010
00001000
00000000
00001000
00000100
00000000
00000100
00010000
00000000
00010000
01000000
00000000
,  // measure 6
10000000
00000000
00100000
00000000
01000000
00010000
00000000
00010000
00001000
00000000
00001000
00000010
00000000
00000010
00000100
00000000
,  // measure 7
00000001
00000010
00000001
00000000
00001000
00000100
00001000
00000100
00000000
00000000
00000000
00000000
00010100
00000000
00000000
00000000
,  // measure 8
00010000
00000000
00010000
00000000
00001000
00000000
01000000
00100000
00000000
00100000
01000000
00000000
00010000
00100000
00000000
00100000
,  // measure 9
01000000
10000000
01000000
00010000
00001000
00000010
00000001
00000010
,  // measure 10
00001000
00000000
00010000
00000000
01000000
00000000
10000000
00000000
01000000
00100000
00010000
00100000
01000000
10000000
00100000
01000000
,  // measure 11
00010000
00000000
01000000
00000000
00001000
00000000
00010000
00000100
00010000
00000100
00000010
00000000
00000001
00000000
00000100
00000000
,  // measure 12
00000010
00000000
00001000
00000000
00000100
00000000
00010000
00000000
00001000
01000000
00001000
01000000
00100000
00000000
10000000
00000000
,  // measure 13
01000000
00100000
00001000
00010000
00000100
00000010
00000001
00000100
,  // measure 14
00001000
00000000
00000100
00000000
00000001
00000000
00001000
00000000
00000001
00000010
00000100
00001000
00000100
00000010
00000001
00000100
,  // measure 15
00000010
00000000
00010000
00000000
00001000
00000000
01000000
00010000
10000000
00010000
01000000
00000000
00100000
00000000
10000000
00000000
,  // measure 16
01000000
00000000
00010000
00000000
00001000
00000000
00000010
00000001
00000010
00000001
00001000
00000010
00001000
00000010
00000100
00000001
,  // measure 17
00000010
00000100
00010000
01000000
21000000
00000000
00010000
00000000
,  // measure 18
01000000
00001000
01000000
00010000
,  // measure 19
31000000
00010000
00000010
00000100
00000102
00000000
00001000
00000000
,  // measure 20
00000100
00010000
00000100
00001000
,  // measure 21
00000103
00001000
00100000
01000000
21000000
00000000
00010000
00000000
,  // measure 22
01000000
00001000
32000000
03020000
,  // measure 23
00030200
00000000
00000000
00000320
00000000
00000000
00000032
00000000
,  // measure 24
00000100
00010000
00000100
00001003
,  // measure 25
00000010
00000000
00010000
00000000
00001000
00000000
00010000
00000000
00000000
00001000
01000000
00001000
01000000
00000000
00010000
00000000
,  // measure 26
10000000
00000000
01000000
00100000
01000000
00000000
00010000
00000000
00001000
00000000
00000100
00000010
00000100
00000000
00000001
00000000
,  // measure 27
00001000
00000100
00010000
00002000
00000000
00000000
01003000
00010000
,  // measure 28
00100000
00000000
01000000
10000000
01000000
10000000
01000000
10000000
00010000
00000000
01000000
00001000
00010000
00000000
00000100
00000000
,  // measure 29
00000001
00000100
00001000
00010000
00200000
00000000
01300000
00010000
,  // measure 30
00001000
00000000
00000010
00000000
00000001
00000100
00000001
00000000
00000100
00000000
00001000
00000000
00010000
00000000
00100000
00000000
,  // measure 31
10000000
01000000
10000000
00000000
10000000
00010000
10000000
00000000
00010000
01000000
00010000
00000000
00010000
00100000
00010000
00000000
,  // measure 32
00001000
00000100
00001000
00000000
00001000
00000010
00001000
00000000
00000001
00000100
00000001
00000000
00000001
00000010
00000001
00000000
,  // measure 33
00001000
00000100
00000010
00000001
00000000
00000000
00000100
00001000
00000000
00010000
00000000
00100000
10000000
00000000
00010000
00000000
,  // measure 34
10010000
00000000
00010000
00000000
00001000
00000000
00000010
00000000
00000100
00000000
00000001
00001000
00000100
00000000
00010000
00000000
,  // measure 35
00001000
00000000
00100000
00000000
00010000
00000000
01000000
00000000
00100000
10000000
01000000
00100000
00010000
00000000
01000000
00000000
,  // measure 36
01001000
00000000
00000000
00000000
00010100
00000000
00000000
00000000
00000100
00010000
00001000
01000000
00010000
00100000
00000000
00000000
,  // measure 37
00101000
00000000
00000000
00000000
00010010
00000000
00000000
00000000
00000010
00010000
00001000
00100000
00010000
01000000
00000000
00000000
,  // measure 38
00010000
00000000
10000000
00000000
00010000
00000000
01000000
00000000
00001000
00010000
00000100
00000010
00000001
00000000
00000100
00000000
,  // measure 39
00001000
00010000
00100000
00000000
01000000
00000000
00010000
00000000
10000000
01000000
00100000
01000000
10000000
00000000
01000000
00000000
,  // measure 40
01100000
00000000
00000000
00000000
00011000
00000000
00000000
00000000
00000100
00000010
00000001
00000010
00000100
00000000
00000000
00000000
,  // measure 41
00000110
00000000
00000000
00000000
00011000
00000000
00000000
00000000
00100000
01000000
10000000
00000000
10010000
00000000
00000000
00000000
,  // measure 42
10000000
01000000
00001000
00010000
00000020
00000000
00000031
00000100
,  // measure 43
00010000
00001000
00100000
00100000
10000000
01000000
00010000
00001000
,  // measure 44
00000200
00000000
00000310
00010000
00001000
01000000
00010000
00100000
,  // measure 45
01000000
00100000
00001000
00010000
00100000
00010000
00001000
00000100
,  // measure 46
00000010
00001000
00000100
00001000
00001010
00000000
00010000
00001000
,  // measure 47
00100000
00001000
00011000
00000000
00010000
01000000
10000000
01000000
,  // measure 48
01100000
00000000
00100000
00001000
00010000
00001000
00000100
00000010
,  // measure 49
00001010
00000000
00000000
00001100
00000000
00000000
00011000
00000000
00000000
00110000
00000000
00000000
01010000
00000000
00000000
10000000
,  // measure 50
11000000
00000000
00000000
01100000
00000000
00000000
00101000
00000000
00000000
00011000
00000000
00000000
00010010
00000000
00000000
00000010
,  // measure 51
00000110
00000000
00000000
00000101
00000000
00000000
00001100
00000000
00000000
00010100
00000000
00000000
01001000
00000000
00000000
00010000
,  // measure 52
10010000
01000000
00010000
00001000
00000200
00000000
00000301
00000100
,  // measure 53
00001000
00010000
01000000
01000000
10000000
00100000
00010000
00001000
,  // measure 54
00000020
00000000
00000000
00000000
00000031
00000000
00000010
00000000
00001000
00000000
00010000
00000000
01000000
10000000
01000000
10000000
,  // measure 55
00010000
00100000
01000000
00100000
00001000
01000000
00100000
01000000
,  // measure 56
00001000
00100000
10000000
00100000
00002000
00000000
00013000
00000010
,  // measure 57
00000001
00000010
00010000
00010000
00001000
01000000
10000000
01000000
,  // measure 58
00002000
00000000
00013000
00000100
00000001
00000100
00001000
00000010
,  // measure 59
00000100
00000001
00000100
00000001
00001000
00000100
00001000
00000000
00000100
00010000
00000100
00010000
00001000
01000000
00001000
00000000
,  // measure 60
00100000
00010000
00100000
00010000
10000000
01000000
00100000
00010000
00100000
01000000
10000000
00010000
00100000
00001000
00010000
00000000
,  // measure 61
00001000
01000000
00001000
00010000
00000010
00001000
00000010
00000100
00000001
00001000
00000001
00000100
00000010
00001000
00000001
00000000
,  // measure 62
00000010
00000000
00000100
00000000
00000100
00000000
00000000
00010000
01000000
00000000
10000000
00010000
00000000
01000000
00100000
10000000
,  // measure 63
00010000
01000000
10000000
01000000
00001000
00010000
00000100
00000001
,  // measure 64
00000100
00000000
00000010
00000000
00000001
00000000
00000100
00000000
00000010
00001000
00000010
00000100
00000010
00010000
00001000
00010000
,  // measure 65
00000100
00000000
00010000
00000000
00001000
00000000
01000000
00010000
01000000
00100000
10000000
00000000
01000000
00000000
00010000
00000000
,  // measure 66
00001000
00000000
00000010
00000000
00000001
00000000
00001000
00000100
00001000
00000100
00001000
00000100
00000010
00000000
00000001
00000000
,  // measure 67
00000100
00000000
00000010
00000000
00010000
00000000
00001000
00000000
00010000
00001000
00010000
00000000
00001000
01000000
00001000
01000000
,  // measure 68
00100000
00000000
10000000
00000000
01000000
00000000
00010000
00000000
00001000
00010000
00001000
00010000
00000100
00000000
00000010
00000000
,  // measure 69
00000001
00000000
00000000
00000000
00001000
00000100
00000010
00000100
00001000
00000000
00000100
00000000
00010000
00000000
01000000
00000000
,  // measure 70
10000000
00000000
00010000
00000000
01000000
00000000
00100000
10000000
00010000
01000000
00010000
10000000
00100000
01000000
00010000
10000000
,  // measure 71
01000000
00100000
00010000
00001000
00000100
00000000
00001001
00000000
,  // measure 72
00000001
00000000
00000100
00000000
00001000
00000000
00000000
00010000
01000000
00000000
10000000
00000000
00010000
00000000
00000000
00000000
,  // measure 73
10000000
01000000
00010000
00001000
00000010
00000000
00000101
00000000
,  // measure 74
00000010
00011000
01000000
10100000
,  // measure 75
10000000
01000000
00010000
00001000
00000100
00000000
00010010
00000000
,  // measure 76
00001000
01010000
00200000
20300000
,  // measure 77
32000000
00000000
00000000
03020000
00000000
00000000
00032000
00000000
,  // measure 78
00100000
00100000
00100000
00100000
00100000
00100000
00103000
00000000
,  // measure 79
00001000
01000000
00001000
00000000
01000000
00100000
00000000
00100000
10000000
00000000
01000000
00100000
01000000
00100000
00001000
00000000
,  // measure 80
00010000
00000100
00010000
00000100
00000010
00000000
00000001
00000100
00000001
00000000
00001000
00000100
00010000
00001000
00100000
00000000
,  // measure 81
00010000
01000000
00000000
00000000
00010000
10000000
00000000
10000000
01000000
00000000
00100000
00001000
00100000
00001000
00010000
00000000
,  // measure 82
00000100
00000010
00000001
00000010
00000100
00000000
00001000
00000001
00000100
00000010
00001000
00000100
00001000
00000001
00000100
00000010
,  // measure 83
00010000
00001000
00010000
00000000
00001000
01000000
00000000
01000000
00100000
00000000
10000000
01000000
10000000
01000000
00010000
00000000
,  // measure 84
00001000
00010000
00001000
00010000
00000100
00000000
00001000
00000010
00001000
00000000
00000001
00000100
00000010
00000000
00001000
00000000
,  // measure 85
00000001
00000010
00000001
00000000
00000001
00000100
00000001
00000000
00001000
00000100
00001000
00000000
00001000
00000010
00001000
00010000
,  // measure 86
01000000
00000000
00100000
10000000
00100000
00000000
01000000
00000000
00001000
00010000
00000100
00000010
00000100
00010000
00001000
01000000
,  // measure 87
00012000
00000000
00000000
00000000
,  // measure 88
00000000
00003000
00000000
00000000
;
