#TITLE:Nichismoke;
#SUBTITLE:;
#ARTIST:ヒャダイン vs. Snoop Dogg;
#TITLETRANSLIT:;
#SUBTITLETRANSLIT:;
#ARTISTTRANSLIT:Hyadain vs. Snoop Dogg;
#GENRE:;
#CREDIT:Silverhawke;
#MENUCOLOR:;
#METERTYPE:DDR;
#BANNER:Nichismoke.png;
#BACKGROUND:Nichismoke-bg.png;
#LYRICSPATH:;
#CDTITLE:cdtitle.png;
#MUSIC:Nichismoke.mp3;
#OFFSET:-0.028;
#SAMPLESTART:5.021;
#SAMPLELENGTH:15.000;
#SELECTABLE:YES;
#LISTSORT:;
#BPMS:0.000=180.000,112.000=90.000,142.000=180.000;
#STOPS:;
#BGCHANGES:2.000=Nichismoke.avi=1.000=1=0=0,
99999=-nosongbg-=1.000=0=0=0 // don't automatically add -songbackground-
;
#ATTACKS:;

//---------------dance-single - ----------------
#NOTES:
     dance-single:
     :
     Hard:
     12:
     0.589,0.757,0.482,0.225,0.043:
0000
0000
0000
0000
,
0000
0000
0000
0000
,
0000
0000
0000
0000
,
0000
0000
0000
0000
,
2100
0000
3001
0000
0010
0100
1000
0100
,
0000
0010
0000
0001
0000
0100
0100
0010
,
0000
0010
1000
0010
1000
0100
0010
0011
,
0000
1100
0000
1010
0000
0101
0000
2002
,
0000
0000
3003
0000
1000
0100
0001
0100
,
0000
1000
0000
0001
0000
0110
0000
2002
,
0000
0000
3003
0000
0001
0100
1000
0100
,
0000
0001
0000
1000
0000
0110
0000
1001
,
0100
0000
0010
0000
1000
0100
0010
0000
,
0001
0000
0100
0010
0100
0001
1000
0000
,
0100
0000
0010
0000
0100
1000
0000
0001
,
0000
0100
0000
0101
0000
1100
0000
1001
,
0000
0001
1000
0000
0100
0000
0010
0000
,
0100
1000
0001
0100
0100
0010
0000
0000
,
1000
0000
0001
0100
0001
0000
1000
0100
,
0000
0100
0010
0001
0100
0000
0110
0000
,
0101
0000
0101
0000
0101
0000
1000
0100
,
0000
0100
0001
1000
0000
0010
0001
1000
,
1100
0000
1100
0000
1100
0000
0001
0100
,
0000
0100
1000
0001
0000
0001
0010
1000
,
1010
0000
0011
0000
1010
0000
0001
0010
,
1000
0010
0100
1000
0000
0010
0001
0010
,
0100
0000
0000
0001
0000
1000
0100
0010
,
0000
0000
0001
0100
0000
0000
0010
0000
1000
0100
0000
0000
,
0011
0001
0100
0010
1000
0100
0010
0001
,
1000
0000
0010
0100
0010
0100
0010
0000
1000
0001
1000
0001
2000
0000
3000
0000
,
0101
0100
0010
1000
0100
0010
0001
1000
,
0010
0000
0100
0001
0100
0001
0100
0000
0110
0000
1000
0000
1000
0000
0000
0000
,
0002
0010
1003
0001
2000
0010
3001
1000
,
0002
0100
1003
0010
1000
1100
1100
1100
,
0010
0001
0100
0001
0010
1000
0010
0100
,
1000
1000
1000
1000
,
1000
0000
1000
0000
0001
0100
0010
0100
,
0000
0100
0001
0100
0000
0100
1000
0100
,
0000
0100
0010
1000
0000
1000
0100
1000
,
0000
1000
0001
1000
0000
1000
0100
0010
,
0000
0001
0001
1000
0000
0100
0010
0010
,
0000
0001
0001
0100
0000
0010
1000
1000
,
0000
0100
0010
0100
0000
1000
0001
1000
,
0000
0010
0100
0010
0000
1000
0001
1000
,
0000
0001
0020
0000
0031
0100
0010
0000
,
0100
0001
1000
0100
0100
0010
0100
1000
,
0000
1000
0010
0000
0101
0000
0010
0000
,
1100
0000
0010
0100
1000
0010
0100
0001
,
0000
1000
0100
1000
0001
0010
0001
1000
,
0000
0220
0000
0330
0000
0001
0100
0010
,
0000
1000
0100
0010
0000
0001
0100
1000
,
0000
1001
0000
0220
0000
0000
0000
0000
,
0330
0000
0001
0100
0102
0000
1003
0000
,
0010
0100
0001
0100
0000
0010
0000
1000
,
0000
0100
0100
0010
0000
0010
0001
0010
,
0001
0100
0010
1010
0000
0101
0000
0011
,
0000
1100
0000
2002
0000
0000
3003
0000
,
0001
0100
1000
0100
0000
0001
0000
1000
,
0000
0110
0000
2002
0000
0000
3003
0000
,
1000
0100
0001
0100
0000
1000
0000
0001
,
0000
0110
0000
1001
0000
0000
0220
0000
,
0000
0000
0330
0000
;

//---------------dance-single - ----------------
#NOTES:
     dance-single:
     :
     Medium:
     10:
     0.505,0.560,0.278,0.214,0.000:
0000
0000
0000
0000
,
0000
0000
0000
0000
,
0000
0000
0000
0000
,
0000
0000
0000
0000
,
0002
0000
0103
0000
0010
1000
0001
0010
,
0000
0100
0000
1000
0000
0001
0000
0100
,
0000
0100
0010
0000
0100
0010
1000
0001
,
0000
0010
0000
0011
0000
1100
0000
2002
,
0000
0000
3003
0000
0001
0010
0100
1000
,
0000
0010
0000
0100
0000
0010
0000
2002
,
0000
0000
3003
0000
1000
0100
0010
0001
,
0000
1000
0000
0010
0000
0100
0000
0110
,
0000
0001
0001
0001
,
1000
0100
0010
0100
1000
0000
0001
0000
,
1000
0000
0010
0000
0100
0001
0000
1000
,
0000
0100
0000
0010
0000
0100
0000
2000
,
0000
3001
0001
0100
,
0010
0100
0010
0000
1000
0000
0100
0000
,
0010
0100
1000
0100
0010
0000
0001
0100
,
0000
0100
0001
0000
1000
0100
0010
0000
,
0001
0000
0001
0000
0011
0000
1000
0100
,
0000
0100
0010
0000
0001
1000
0010
0000
,
1000
0000
1000
0000
1010
0000
0010
1000
,
0000
1000
0001
0000
0010
0100
1000
0000
,
0001
0000
1000
0000
1001
0000
0001
0010
,
0000
0010
0100
0000
1000
0010
0100
0001
,
1000
0000
0000
0100
0000
0010
0001
1000
,
0000
0002
0203
0320
,
1030
0100
1100
0000
0001
0100
0101
0000
,
1000
0100
0010
0001
0010
0100
1000
0000
,
0001
0010
0011
0000
1000
0010
1010
0000
,
0001
0100
0010
1000
0200
0310
0010
0000
,
0001
0100
1000
0001
1000
0100
0001
1000
,
0100
0001
1000
0001
0100
1000
1000
1000
,
0001
0001
0100
0100
0010
1000
0100
0010
,
0110
0100
0100
0100
,
0100
0000
0100
0000
1000
0000
0001
0100
,
0010
0000
1000
0000
0100
0010
0100
0010
,
0000
0001
0101
1000
,
1100
0000
0001
0000
0100
0010
1000
0100
,
0000
0000
1000
0001
1000
0000
0001
1000
,
0001
0000
0100
0000
0010
1000
0010
0100
,
0000
0000
0001
0010
0100
0000
1000
0010
,
0100
0000
0001
1000
0001
0010
0100
1000
,
0000
0001
0011
1000
,
1010
0000
0001
0000
0010
0100
0010
0100
,
0000
1000
0010
0100
,
0001
0000
1000
0100
0010
0001
0010
0100
,
0000
1000
0001
0000
1001
0000
0000
1000
,
0000
0002
0000
0000
0003
1000
0100
1000
,
0000
1000
0100
1000
0000
1000
0100
1000
,
0000
0101
0000
2200
0000
0000
0000
0000
,
3300
0000
0010
0001
2000
0000
3100
0000
,
0010
0001
1000
0010
0000
0100
0000
0001
,
0000
1000
0000
0100
0000
0100
0010
0000
,
0100
0010
0001
1000
0000
0010
0000
1010
,
0000
0101
0000
2002
0000
0000
3003
0000
,
1000
0010
0100
0001
0000
0010
0000
0100
,
0000
0010
0000
2002
0000
0000
3003
0000
,
0001
0100
0010
1000
0000
0001
0000
0010
,
0000
0100
0000
0110
0000
0000
2002
0000
,
0000
0000
3003
0000
;

//---------------dance-single - ----------------
#NOTES:
     dance-single:
     :
     Easy:
     7:
     0.363,0.494,0.107,0.086,0.000:
0000
0000
0000
0000
,
0000
0000
0000
0000
,
0000
0000
0000
0000
,
0000
0000
0000
0000
,
1000
0100
0010
0100
,
1000
0001
0100
0100
,
0001
0010
0100
1000
,
0010
0100
0001
1000
,
1001
0000
0100
0100
,
0010
1000
0100
0010
,
0001
0000
0100
0100
,
0001
0010
0100
1000
,
0001
0000
0100
0000
,
0100
0010
1000
0010
,
0100
0001
0010
0100
,
1000
0001
0100
0010
,
1000
0000
0100
0000
,
0010
0001
0100
0000
,
0010
1000
0100
0010
,
0100
1000
0010
0000
,
0100
0100
0100
0001
,
0010
0100
1000
0000
,
0001
0001
0001
0010
,
0100
1000
0001
0000
,
1000
0010
1000
0100
,
0010
0001
0100
0010
,
1000
0000
0001
0000
,
2002
0000
0000
3003
,
0100
0000
0100
0000
0100
0010
0100
0000
,
0001
0010
0001
0000
1000
0010
1000
0000
,
0001
0000
0100
0000
0010
1000
0010
0000
,
1000
0100
1000
0000
0002
0000
0003
0000
,
1000
0100
0010
0000
0001
0100
0010
0000
,
1000
0100
0010
0001
0010
0100
0100
0100
,
1000
1100
0110
0011
,
1001
1000
1000
1000
,
1000
1000
0001
0100
,
0010
0100
0001
1000
,
0100
0010
0001
0010
,
0100
1000
0001
0100
,
0010
0100
0001
1000
,
0100
0010
0001
0100
,
0010
0100
0001
0010
,
0100
0000
1000
0001
1000
0000
0100
0010
,
0000
0100
1000
1000
,
0001
0001
0100
0010
,
0100
0001
0010
0010
,
0100
0000
0100
0000
1000
0000
0001
0100
,
0000
0100
0000
0000
0100
0000
0000
0100
,
0000
0200
0000
0000
0300
0001
0000
0001
,
0000
1000
0000
1000
0000
0010
0000
0100
,
0000
1001
0000
0220
0000
0000
0000
0000
,
0330
0000
0001
1000
0001
0000
0100
0000
,
0010
0100
0001
1000
,
0100
0100
1000
0010
,
0100
0001
0010
0100
,
1000
0001
1001
0000
,
0100
0100
0010
0001
,
0100
0010
1000
0000
,
0100
0100
1000
0010
,
0100
0001
1000
0220
,
0000
0000
0330
0000
;

//---------------dance-single - ----------------
#NOTES:
     dance-single:
     :
     Beginner:
     2:
     0.125,0.195,0.000,0.000,0.000:
0000
0000
0000
0000
,
0000
0000
0000
0000
,
0000
0000
0000
0000
,
0000
0000
0000
0000
,
0001
0000
0000
0000
,
0001
0000
0000
0000
,
1000
0000
1000
0000
,
1000
0000
0000
0000
,
0100
0000
0000
0000
,
0010
0000
0000
0000
,
0100
0000
0100
0000
,
0100
0000
0100
0000
,
0100
0000
0000
0000
,
1000
0000
0000
0000
,
0001
0000
0001
0000
,
0001
0000
0000
0000
,
0100
0000
0000
0000
,
0010
0000
0000
0000
,
0100
0000
0100
0000
,
0001
0000
0000
0000
,
1000
1000
1000
0000
,
0000
0000
0000
0000
,
0001
0001
0001
0000
,
0000
0000
0000
0000
,
0100
0100
0100
0000
,
0000
0000
0000
0000
,
0010
0000
0010
0000
,
0010
0000
0000
0000
,
1000
0000
1000
0000
,
0100
0100
0100
0000
,
0001
0000
0001
0000
,
0100
0100
0100
0000
,
0000
1000
0000
1000
,
0000
1000
0000
0000
,
0100
0000
0100
0000
,
0100
0000
0000
0000
,
0000
0000
0001
0000
,
0000
0000
0001
0000
,
0000
0000
1000
0000
,
0000
0000
1000
0000
,
0000
0000
0010
0000
,
0010
0000
0010
0000
,
0000
0000
0100
0000
,
0100
0000
0100
0000
,
0000
0000
0001
0000
,
0001
0000
0001
0000
,
0000
0000
1000
0000
,
1000
0000
1000
0000
,
0000
0000
0100
0000
,
0000
0000
0000
0000
0000
0000
0000
0001
,
0000
0000
0000
0001
0000
0000
0000
0001
,
0000
0000
0000
0001
0000
0000
0000
0000
,
0000
0000
1000
0000
,
0000
0000
1000
0000
,
0000
0000
0001
0000
,
0001
0000
0001
0000
,
0000
0000
0010
0000
,
0000
0000
0100
0000
,
0000
0000
0010
0000
,
0010
0000
0010
0000
,
0010
0000
0000
0010
;

//---------------dance-double - ----------------
#NOTES:
     dance-double:
     :
     Hard:
     12:
     0.595,0.757,0.460,0.182,0.064: // measure 1
00000000
00000000
00000000
00000000
,  // measure 2
00000000
00000000
00000000
00000000
,  // measure 3
00000000
00000000
00000000
00000000
,  // measure 4
00000000
00000000
00000000
00000000
,  // measure 5
00000102
00000000
00000013
00000000
00000100
00010000
00001000
01000000
,  // measure 6
00000000
01010000
00000000
00110000
00000000
00100000
01000000
10000000
,  // measure 7
00000000
01000000
00100000
01000000
00100000
00001000
00010000
00000100
,  // measure 8
00000000
00000011
00000000
00000100
00000000
00001010
00000000
00001002
,  // measure 9
00000000
00000000
00000103
00000000
00000001
00000100
00001000
00010000
,  // measure 10
00000000
00100000
00000000
11000000
00000000
00100000
00000000
02010000
,  // measure 11
00000000
00000000
03100000
00000000
10000000
01000000
00010000
00001000
,  // measure 12
00000000
00000010
00000000
00001100
00000000
00000010
00000000
00000101
,  // measure 13
00000010
00000000
00010000
00001000
00010000
00000000
01000000
00000000
,  // measure 14
00100000
00010000
01000000
00000000
00100000
10000000
01000000
00000000
,  // measure 15
00010000
00000000
00001000
00000000
00000100
00000010
00000000
00001000
,  // measure 16
00000000
00000101
00000000
00000001
00000000
00001100
00000000
00000100
,  // measure 17
00010000
00000000
00001000
00000000
01000000
00010000
00100000
00000000
,  // measure 18
01000000
10000000
00100000
00010000
00100000
10000000
00000000
00000000
,  // measure 19
10000000
01000000
00100000
00001000
00100000
00000000
00001000
00010000
,  // measure 20
00000000
00000100
00001000
00000010
00000100
00000100
00000001
00001000
,  // measure 21
00001100
00000000
00001100
00000000
00001100
00000000
00000100
00010000
,  // measure 22
00000000
00001000
00100000
01000000
00000000
10000000
00100000
01000000
,  // measure 23
01010000
00000000
01010000
00000000
01010000
00000000
01000000
00001000
,  // measure 24
00000000
00010000
00000100
00000010
00000000
00000001
00000100
00000010
,  // measure 25
00001010
00000000
00000101
00000000
00001010
00000000
00000010
00010000
,  // measure 26
00001000
00010000
01000000
00100000
00000000
00010000
01000000
00100000
,  // measure 27
10000000
00000000
00000000
01000000
00000000
00010000
00001000
00010000
,  // measure 28
00000000
00000000
00000100
00001000
00000000
00000000
00000010
00000000
00000100
00000001
00000000
00000000
,  // measure 29
00000010
00000100
00001100
00001000
00000010
00000100
00000101
00000001
,  // measure 30
00000010
00000000
00000100
00010000
00000100
00010000
00000100
00000000
00010000
00001000
00010000
00001000
00020000
00000000
00000000
00000000
,  // measure 31
00031000
01000000
01100000
00100000
10000000
01000000
01100000
00100000
,  // measure 32
00001000
00000000
01000000
00010000
01000000
00010000
01000000
00000000
00010000
00000000
00100000
00000000
00100000
00000000
00000000
00000000
,  // measure 33
00002000
00010000
01003000
00001000
00020000
00001000
00030100
00010000
,  // measure 34
00001000
00000010
00000001
00000010
00001000
00010000
00010000
00010000
,  // measure 35
00001000
01000000
00100000
10000000
01000000
00100000
01000000
10000000
,  // measure 36
00010000
00010000
00010000
00010000
,  // measure 37
00010000
00000000
00020000
00000000
20030000
00000000
31000000
00100000
,  // measure 38
01000000
00000000
10000000
01000000
00010000
00001000
00000100
00000001
,  // measure 39
00000000
00001000
00001100
00000001
,  // measure 40
00000101
00001000
00000010
00000100
00001000
00000100
00000010
00001000
,  // measure 41
00000000
00000000
00000000
00000100
00000000
00010000
00000000
00001000
00000000
01000000
00000000
00010000
,  // measure 42
00000000
00000000
00100000
00000000
00000000
00000000
01000000
00000000
00000000
10000000
00000000
00000000
01000000
00000000
00000000
00010000
00000000
00000000
00001000
00000000
00000000
00010000
00000000
00000000
,  // measure 43
00000000
00000100
00001000
00000100
00000100
00000010
00000001
00000100
,  // measure 44
00000100
00000010
00010000
00001000
01000000
00010000
00100000
01000000
,  // measure 45
00000000
00000000
10000000
00000000
11000000
01000000
00100000
00000000
,  // measure 46
00001000
00010000
00001000
00000100
00000010
00001000
00000001
00000010
,  // measure 47
00000000
00000100
00010000
00000000
00010100
00000000
00001000
00000000
,  // measure 48
01001000
00010000
10000000
01000000
00100000
00001000
00010000
00000100
,  // measure 49
00000000
00000010
00000001
00000010
00000100
00001000
00000100
00010000
,  // measure 50
00000000
00022000
00000000
00033000
00000000
00001000
00000100
00000001
,  // measure 51
00000000
00000001
00000100
00001000
00000000
00010000
01000000
10000000
,  // measure 52
00000000
00100000
00000000
02200000
00000000
00000000
00000000
00000000
,  // measure 53
03300000
00000000
00100000
10000000
21000000
00000000
30100000
00000000
,  // measure 54
01000000
00001000
00010000
00000100
00000000
00001100
00000000
00001010
,  // measure 55
00000000
00000010
00000100
00000001
00000000
00000100
00000010
00000100
,  // measure 56
00000010
00010000
00001000
01000000
00000000
10100000
00000000
01000000
,  // measure 57
00000000
00110000
00000000
20010000
00000000
00000000
31000000
00000000
,  // measure 58
10000000
01000000
00010000
00001000
00000000
00000010
00000000
00000101
,  // measure 59
00000000
00000010
00000000
00001200
00000000
00000000
00000310
00000000
,  // measure 60
00000001
00000100
00001000
00010000
00000000
00100000
00000000
01010000
,  // measure 61
00000000
00100000
00000000
11000000
00000000
00000000
20020000
00000000
,  // measure 62
00000000
00000000
30030000
00000000
;

//---------------dance-double - ----------------
#NOTES:
     dance-double:
     :
     Medium:
     9:
     0.439,0.560,0.128,0.075,0.011: // measure 1
00000000
00000000
00000000
00000000
,  // measure 2
00000000
00000000
00000000
00000000
,  // measure 3
00000000
00000000
00000000
00000000
,  // measure 4
00000000
00000000
00000000
00000000
,  // measure 5
00020000
00000000
00031000
00000000
00010000
00000000
00000100
00001000
,  // measure 6
00000000
00000010
00000000
00000100
00000000
00000001
00001000
00000001
,  // measure 7
00000000
00000010
00000100
00000000
00010000
00001000
01000000
00010000
,  // measure 8
00000000
10000000
00000000
01000000
00000000
00100000
00000000
00010000
,  // measure 9
00000000
00000000
01000000
00000000
00100000
00000000
10000000
00100000
,  // measure 10
00000000
01000000
00000000
00010000
00000000
00100000
00000000
00001000
,  // measure 11
00000000
00000000
00010000
00000000
00000100
00001000
00000000
00000010
,  // measure 12
00000000
00000100
00000000
00000001
00000000
00000010
00000000
00000100
,  // measure 13
00010000
00001000
01000000
00100000
,  // measure 14
10000000
00010000
10000000
00000000
01000000
00000000
00100000
00000000
,  // measure 15
00001000
00000000
00010000
00000000
00000010
00000100
00000000
00001000
,  // measure 16
00000000
00010000
00000000
00001000
00000000
01000000
00000000
00100000
,  // measure 17
10000000
00010000
00100000
00001000
,  // measure 18
00010000
00000010
00001000
00000000
00000001
00000100
00000000
00000000
,  // measure 19
00000000
00000001
00000010
00000000
00000010
00000000
00000010
00000100
,  // measure 20
00000000
00010000
00001000
00000000
01000000
00000000
00100000
00000000
,  // measure 21
10000000
00000000
10000000
00000000
10000000
00000000
01000000
00010000
,  // measure 22
00000000
00010000
00001000
00010000
00000000
00001000
00000100
00000000
,  // measure 23
00000001
00000000
00000001
00000000
00000001
00000000
00000001
00000100
,  // measure 24
00000000
00001000
00010000
00001000
00000000
00001000
00010000
00100000
,  // measure 25
10000000
00000000
00010000
00000000
10000000
00000000
01000000
00010000
,  // measure 26
00001000
00000000
00010000
00000000
00001000
00000010
00000001
00000000
,  // measure 27
00001000
00000000
00000000
00000001
00000000
00000100
00000010
00010000
,  // measure 28
00000000
00001000
01001000
01010000
,  // measure 29
10000000
00010000
01010000
00000000
00001000
00010000
00010100
00000000
,  // measure 30
00001000
00000000
00000010
00000000
00000100
00000010
00000100
00000000
00000010
00000000
00001000
00000000
00000001
00000000
00000000
00000000
,  // measure 31
00001000
00000100
00010100
00000000
00001000
01000000
01010000
00000000
,  // measure 32
00010000
00000000
10000000
00000000
01000000
00100000
01000000
00000000
10000000
00000000
00010000
00000000
00010000
00000000
00000000
00000000
,  // measure 33
01000000
00001000
00010000
00000000
00000100
00010000
00001000
00000000
,  // measure 34
00100000
00001000
00010000
00000010
00000100
00000001
00000001
00000001
,  // measure 35
00001001
00001100
00010100
00011000
,  // measure 36
01001000
01000000
02000000
00000000
,  // measure 37
00000000
03100000
10000000
00010000
,  // measure 38
01000000
00000000
00001000
00000000
00010000
00001000
00010000
00001000
,  // measure 39
00000000
00000100
00000010
00001000
,  // measure 40
00000001
00000000
00000010
00000000
00000100
00010000
00000100
00010000
,  // measure 41
00000000
00001000
01000000
00010000
,  // measure 42
00100000
00000000
01000000
00000000
10000000
00010000
10000000
00010000
,  // measure 43
00000000
01000000
00010000
00001000
,  // measure 44
00000100
00000000
00000010
00000000
00001000
00000001
00001000
00000001
,  // measure 45
00000000
00000100
00001000
00010000
,  // measure 46
00100000
00000000
10000000
00000000
00010000
00100000
01000000
10000000
,  // measure 47
00000000
01000000
00010000
00001000
,  // measure 48
00000010
00000000
00000001
00000000
00000100
00000010
00010000
00001000
,  // measure 49
00000000
01000000
00000000
00000000
00100000
00000000
00000000
10000000
,  // measure 50
00000000
00020000
00000000
00000000
00000000
01030000
00100000
01000000
,  // measure 51
00000000
00100000
10000000
00100000
00000000
10000000
00010000
10000000
,  // measure 52
00000000
01000000
00000000
00020000
00000000
00000000
00000000
00000000
,  // measure 53
00030000
00000000
00001000
00010000
00002000
00000000
00013000
00000000
,  // measure 54
00001000
00000000
01000000
00010000
00000000
00100000
00000000
01000000
,  // measure 55
00000000
10000000
00010000
10000000
00000000
00100000
01000000
00000000
,  // measure 56
00001000
00010000
00000100
00001000
00000000
00000001
00000000
00000100
,  // measure 57
00000000
00000010
00000000
00001000
00000000
00000000
00000100
00000000
,  // measure 58
00000010
00000000
00000001
00000010
00000000
00000100
00000000
00001000
,  // measure 59
00000000
00000010
00000000
00010000
00000000
00000000
00001000
00000000
,  // measure 60
01000000
00010000
00000000
00100000
00000000
01000000
00000000
10000000
,  // measure 61
00000000
00100000
00000000
01000000
00000000
00000000
20020000
00000000
,  // measure 62
00000000
00000000
30030000
00000000
;

//---------------dance-double - ----------------
#NOTES:
     dance-double:
     :
     Easy:
     7:
     0.320,0.461,0.000,0.032,0.000: // measure 1
00000000
00000000
00000000
00000000
,  // measure 2
00000000
00000000
00000000
00000000
,  // measure 3
00000000
00000000
00000000
00000000
,  // measure 4
00000000
00000000
00000000
00000000
,  // measure 5
00001000
01000000
00010000
00000000
,  // measure 6
10000000
01000000
00100000
00000000
,  // measure 7
00001000
00010000
00001000
00001000
,  // measure 8
00010000
00000100
00001000
00000000
,  // measure 9
00000010
00000100
00000001
00000000
,  // measure 10
00000010
00000100
00010000
00000000
,  // measure 11
00001000
00100000
01000000
10000000
,  // measure 12
01000000
00010000
00001000
00000000
,  // measure 13
00000100
00000010
00001000
00000000
,  // measure 14
00000100
00000010
00001000
00000000
,  // measure 15
00010000
01000000
10000000
01000000
,  // measure 16
00100000
00010000
01000000
00000000
,  // measure 17
00100000
01000000
00010000
00000000
,  // measure 18
00100000
01000000
00010000
00000000
,  // measure 19
00001000
00000000
00000100
00000000
,  // measure 20
00000010
00001000
00000001
00000000
,  // measure 21
00000010
00000010
00000010
00000100
,  // measure 22
00010000
00001000
01000000
00000000
,  // measure 23
00100000
00100000
00100000
01000000
,  // measure 24
00001000
00010000
00000010
00000000
,  // measure 25
00000100
00000001
00000100
00000010
,  // measure 26
00010000
00001000
00100000
00000000
,  // measure 27
01000000
00000000
10000000
00000000
,  // measure 28
00010000
01000000
00100000
00000000
,  // measure 29
10000000
00000000
01000000
00000000
00100000
00010000
01000000
00000000
,  // measure 30
00001000
00010000
00001000
00010000
00001000
00000100
00000010
00000000
,  // measure 31
00001000
00000000
00000100
00000000
00000010
00000001
00000100
00000000
,  // measure 32
00000010
00001000
00000010
00001000
00000100
00010000
00010000
00000000
,  // measure 33
00001000
01000000
00010000
00000000
01000000
00010000
10000000
00000000
,  // measure 34
01000000
10000000
00100000
10000000
01000000
00100000
00100000
00000000
,  // measure 35
00001000
00010000
00001000
00010000
00000100
00001000
00000100
00001000
,  // measure 36
00000010
00000010
00000020
00000000
,  // measure 37
00000000
00000030
00010000
00010000
,  // measure 38
00001000
00001000
01000000
00010000
,  // measure 39
00100000
00000000
01000000
10000000
,  // measure 40
01000000
00100000
00001000
00010000
,  // measure 41
00000100
00000000
00001000
00001000
,  // measure 42
00000010
00000010
00000100
00000001
,  // measure 43
00001000
00000000
00000001
00000001
,  // measure 44
00000100
00000100
00000010
00010000
,  // measure 45
00001000
00000000
01000000
00010000
,  // measure 46
00100000
01000000
10000000
01000000
,  // measure 47
00010000
00000000
00001000
00000100
,  // measure 48
00000010
00001000
00000001
00000100
,  // measure 49
00000010
00000000
00000000
00000000
00010000
00000000
00000000
00001000
,  // measure 50
00000000
01000000
00000000
00000000
00000000
00100000
00000000
00100000
,  // measure 51
00000000
10000000
00000000
10000000
00000000
00010000
00000000
00010000
,  // measure 52
00000000
00100000
00000000
02000000
00000000
00000000
00000000
00000000
,  // measure 53
03000000
00100000
00001000
01000000
,  // measure 54
00010000
00000000
10000000
01000000
,  // measure 55
00100000
00000000
00001000
00010000
,  // measure 56
00001000
00001000
00010000
00000100
,  // measure 57
00001000
00000000
00000010
00000100
,  // measure 58
00000001
00000000
00000010
00000100
,  // measure 59
00010000
00000000
00001000
00100000
,  // measure 60
01000000
10000000
01000000
00010000
,  // measure 61
00001000
00000000
00000100
00000020
,  // measure 62
00000000
00000000
00000030
00000000
;
