#TITLE:Move;
#SUBTITLE:;
#ARTIST:Audition;
#TITLETRANSLIT:;
#SUBTITLETRANSLIT:;
#ARTISTTRANSLIT:;
#GENRE:;
#CREDIT:Silverhawke;
#MENUCOLOR:;
#METERTYPE:DDR;
#BANNER:Move.png;
#BACKGROUND:Move-bg.png;
#LYRICSPATH:;
#CDTITLE:cdtitle.png;
#MUSIC:Move.mp3;
#OFFSET:-0.019;
#SAMPLESTART:61.717;
#SAMPLELENGTH:12.000;
#SELECTABLE:YES;
#LISTSORT:;
#BPMS:0.000=140.000;
#STOPS:;
#BGCHANGES:;
#ATTACKS:;

//---------------dance-single - ----------------
#NOTES:
     dance-single:
     :
     Hard:
     12:
     0.527,0.533,0.302,0.097,0.113:
0000
0000
0000
0000
,
0000
0000
0000
0000
,
0000
0000
0000
0000
,
0000
0000
0000
0000
,
1001
0000
0010
0100
0000
0001
0100
0100
,
0010
0000
1000
0100
0000
0001
0100
0100
,
0010
0000
0001
0100
0000
1000
0100
0100
,
0010
0000
1000
0100
0000
0010
0001
0001
,
0100
0000
0010
1000
0000
0001
0100
0100
,
0010
0000
1000
0100
0000
0010
0100
0100
,
1000
0000
0001
0100
0000
1000
0100
0100
,
0001
0000
1000
0000
0100
0000
1000
0001
1000
0000
0100
0000
0010
0000
0001
0000
,
1000
0000
0010
0100
0000
0001
0010
0100
,
0200
0000
1300
0001
0000
0100
0010
1000
,
2000
0000
3001
0100
0000
1000
0100
0001
,
0001
1000
0001
1000
0010
0100
0010
0100
,
0002
0000
0013
0100
0000
1000
0100
0010
,
0020
0000
0031
0100
0000
1000
0100
0001
,
0002
0000
0013
0100
0000
1000
0100
0010
,
0001
0000
1000
0000
0010
0000
0100
0010
0100
0000
0001
0000
0010
0000
0100
0000
,
2000
0100
0000
0100
0000
0010
3000
0010
,
0200
0001
0000
0001
0000
0010
0300
0010
,
2000
0100
0000
0100
0000
0001
3000
0001
,
0020
0100
0000
0100
0000
0001
0030
0001
,
1000
1100
0000
1100
0000
0101
0000
0101
,
0000
0011
0000
0011
0000
1010
0000
1000
,
0010
0110
0000
0110
0000
1001
0000
1001
,
0000
1100
0000
1100
0000
0011
0000
0001
,
0100
0000
0000
0100
0000
0000
0100
0000
0000
0000
0010
0000
0000
0000
1000
0000
,
0001
0000
0000
0001
0000
0000
0001
0000
0000
0000
0010
0000
0000
0000
0100
0000
,
1000
0000
0000
1000
0000
0000
1000
0000
0000
0000
0001
0000
0000
0000
0100
0000
,
0010
0000
0000
0010
0000
0000
0010
0000
0000
0000
0100
0000
0000
0000
0010
0000
,
1000
0000
0000
1000
0000
0000
1000
0000
0100
0000
0010
0000
0100
0000
1000
0000
,
0001
0000
0000
0001
0000
0000
0001
0000
0100
0000
1000
0000
0100
0000
0001
0000
,
0010
0000
0000
0010
0000
0000
0010
0000
0100
0000
1000
0000
0001
0000
0100
0000
,
0010
0000
0100
0000
0001
0000
1000
0001
1000
0000
0100
0000
0010
0000
0001
0000
,
0100
0010
1000
0010
0100
0010
1000
0100
,
0110
0000
0000
1100
0000
0101
0000
0000
,
0001
0100
1000
0100
0001
0100
1000
0100
,
0110
0000
0000
1010
0000
0101
0000
0000
,
0001
0000
0100
0000
0001
0000
0010
0000
0100
0000
1000
0100
0000
0000
0010
0000
,
0001
0000
0100
0000
1000
0000
0100
0000
0001
0000
1000
0100
0000
0000
0010
0000
,
0001
0000
0010
0000
0100
0000
1000
0000
0010
0000
0100
0001
0000
0000
0010
0000
,
0100
1100
0000
0011
0000
1100
0000
0000
,
0001
0000
0100
0000
0001
0000
0010
0000
0100
0000
1000
0010
0000
0000
0100
0000
,
0001
0000
1000
0000
0100
0000
1000
0000
0001
0000
0010
0100
0000
0000
0010
0000
,
1000
0000
0010
0000
0001
0000
0100
0000
0010
0000
1000
0100
0000
0000
0010
0000
,
0001
0101
0000
1010
0000
0101
0000
0000
,
0001
0000
1000
0000
0100
0000
1000
0000
0001
0100
0001
0000
0010
0000
0010
0000
,
0000
0000
0100
0000
0001
0000
0100
0000
1000
0100
1000
0000
0010
0000
0010
0000
,
0000
0000
0100
0000
1000
0000
0100
0000
0001
1000
0001
0000
0010
0000
0010
0000
,
0000
0000
0100
0000
0100
0000
1000
0001
1000
0001
1000
0000
0010
0000
0010
0000
,
1001
0000
0000
0000
;

//---------------dance-single - ----------------
#NOTES:
     dance-single:
     :
     Challenge:
     11:
     0.430,0.477,0.302,0.000,0.005:
0000
0000
0000
0000
,
0000
0000
0000
0000
,
0000
0000
0000
0000
,
0000
0000
0000
0000
,
0010
0000
0100
0001
MMMM
0100
1000
0001
,
0100
0000
0010
1000
MMMM
0010
0001
0100
,
0010
0000
1000
0100
MMMM
0100
1000
0010
,
0100
0000
0001
0100
MMMM
0100
0001
0010
,
0100
0000
1000
0010
MMMM
1000
0100
0001
,
0010
0000
0001
0010
MMMM
0001
0100
1000
,
0010
0000
1000
0100
MMMM
1000
0010
0001
,
0100
0000
0001
0100
MMMM
0001
0010
1000
,
0100
0000
1001
0000
0010
0000
MMMM
1000
,
0001
0000
0110
0000
0100
0000
MMMM
1000
,
0010
0000
0110
0000
0001
0000
MMMM
0010
,
0100
0000
1010
0000
1000
0100
0001
0100
,
1000
0000
0101
0000
0010
0000
MMMM
0001
,
1000
0000
0101
0000
0010
0000
MMMM
0010
,
0100
0000
0101
0000
1000
0000
MMMM
1000
,
0010
0100
1000
0100
0001
0010
MMMM
0000
,
0001
0001
0100
0100
,
1000
0000
1000
0000
0010
MMMM
0010
0000
,
0001
0001
0010
0010
,
1000
0000
1000
0000
0100
MMMM
0100
0000
,
0001
0001
0100
0100
,
1000
MMMM
1000
0000
0010
MMMM
0010
0000
,
0001
0001
0010
0010
,
1000
MMMM
1000
0000
0100
MMMM
0100
0000
,
0001
0000
0101
0000
1000
0100
0001
MMMM
,
1000
0000
1100
0000
0001
0100
1000
MMMM
,
0001
0000
0110
0000
0010
1000
0100
MMMM
,
0001
0000
0110
0000
0010
0001
0100
MMMM
,
1000
0000
0001
0000
1000
0100
1000
0000
,
0001
0000
1000
0000
0001
0100
0001
0000
,
1000
MMMM
1000
0000
0001
MMMM
0001
0000
,
1100
0000
0101
0000
1001
MMMM
1001
0000
,
1000
0010
1000
0010
0100
0001
0100
0001
,
0101
MMMM
0000
0011
0000
1100
MMMM
0000
,
0001
0010
0001
0010
0100
1000
0100
1000
,
1100
MMMM
0000
0101
0000
1010
MMMM
0000
,
0001
0100
1000
0100
0001
MMMM
0001
0000
,
1000
0100
0001
0100
1000
MMMM
1000
0000
,
1000
0100
0010
MMMM
1000
0100
0010
0000
,
0001
0101
0000
1100
0000
1001
MMMM
0000
,
1000
0100
0001
0100
1000
MMMM
1000
0000
,
0001
0100
1000
0100
0001
MMMM
0001
0000
,
0001
0100
0010
MMMM
0001
0100
0010
0000
,
1000
1100
0000
0101
0000
1001
MMMM
0000
,
1000
0100
0010
0001
0100
0010
1000
0100
,
MMMM
0001
0010
0100
1000
0001
0100
0010
,
MMMM
0001
1000
0100
0001
0100
0010
0001
,
MMMM
0000
0001
0000
1000
0000
0010
0100
0010
0000
1000
0000
0100
0000
0010
0000
,
1001
0000
0000
0000
;

//---------------dance-single - ----------------
#NOTES:
     dance-single:
     :
     Medium:
     7:
     0.316,0.365,0.022,0.000,0.000:
0000
0000
0000
0000
,
0000
0000
0000
0000
,
0000
0000
0000
0000
,
0000
0000
0000
0000
,
0010
1000
0001
0010
,
0001
1000
0010
0100
,
0001
0010
0100
0100
,
1000
0010
1000
0000
0001
0000
0000
0000
,
0100
0001
0010
0010
,
0100
1000
0010
0010
,
0100
0001
1000
0100
,
0010
0100
0010
0000
1000
0000
0000
0000
,
0010
0001
0100
1000
,
0100
0001
0010
1000
,
0010
0001
0100
1000
,
0100
0000
0001
1000
0001
0000
0000
0000
,
1000
0100
0001
0100
,
1000
0010
0001
0010
,
1000
0100
0001
0100
,
1000
0001
1000
0000
0100
0010
0100
0000
,
1000
1000
0100
0100
,
0001
0001
0010
0010
,
1000
1000
0010
0010
,
0001
0001
0100
0100
,
1000
1000
0010
0010
,
0001
0001
0100
0100
,
1000
1000
0100
0100
,
0001
0001
0010
0010
,
1000
0100
1000
0100
,
0001
0100
0001
0100
,
1000
0010
1000
0010
,
0001
0010
0001
0010
,
1000
0100
0001
0100
,
1000
0010
0001
0010
,
1000
0100
0001
1000
,
0010
0001
0100
0110
,
0010
0010
1000
0100
,
0010
0000
0000
0010
0000
0010
0000
0000
,
0010
0001
0100
0100
,
0010
0000
0000
0010
0000
0010
0000
0000
,
0010
1000
0100
1000
,
0001
0100
0001
0010
,
0100
1000
0010
0100
,
0001
0100
0000
0100
0000
0100
0000
0000
,
0001
0000
1000
0000
0001
0100
0001
0000
,
1000
0000
0001
0000
1000
0100
1000
0000
,
0010
0000
0100
0000
0001
0010
0100
0000
,
1000
0001
0000
0001
0000
0001
0000
0000
,
0100
0000
0001
0000
0010
0001
0100
0001
,
0010
0000
0010
0000
0100
1000
0010
1000
,
0100
0000
0100
0000
1000
0001
0100
0001
,
1000
0000
0010
0000
0100
0001
1000
0000
,
1001
0000
0000
0000
;

//---------------dance-single - ----------------
#NOTES:
     dance-single:
     :
     Easy:
     4:
     0.211,0.253,0.011,0.076,0.000:
0000
0000
0000
0000
,
0000
0000
0000
0000
,
0000
0000
0000
0000
,
0000
0000
0000
0000
,
0010
0000
0010
0000
,
0010
0100
0001
0000
,
0010
0000
0010
0000
,
0010
0100
1000
0000
,
0010
0000
0010
0000
,
0010
0100
0001
0000
,
0010
0000
0010
0000
,
0010
0100
1000
0000
,
0001
0000
1000
0000
,
0001
0100
1000
0000
,
0001
0000
1000
0000
,
0100
0001
1000
0000
,
0100
0000
0100
0000
,
0010
0001
0100
0000
,
0010
0000
0010
0000
,
1000
0100
0010
0000
,
0001
0000
0100
0000
,
1000
0100
0001
0000
,
1000
0000
0100
0000
,
0001
0100
1000
0000
,
0001
0000
0010
0000
,
1000
0010
0001
0000
,
1000
0000
0010
0000
,
0001
0010
1000
0000
,
0002
0000
0103
0000
,
2000
0000
3100
0000
,
0002
0000
0013
0000
,
2000
0000
3010
0000
,
0002
0000
1003
0000
,
2000
0000
3001
0000
,
0002
0000
0103
0000
,
1000
0100
0001
0100
,
1000
1000
1000
0000
,
0001
0000
0001
0000
,
0001
0001
0001
0000
,
0100
0000
0100
0000
,
0010
1000
0100
0000
,
0010
0001
0100
0000
,
0100
0001
0010
0000
,
0100
1000
0010
0000
,
1000
0100
0001
0100
,
1000
0100
0001
0100
,
1000
0010
0001
0010
,
1000
0000
1000
0000
,
0001
0100
1000
0100
,
0001
0100
1000
0100
,
0001
0010
1000
0010
,
0001
0000
1000
0000
,
1001
0000
0000
0000
;

//---------------dance-single - ----------------
#NOTES:
     dance-single:
     :
     Beginner:
     1:
     0.077,0.112,0.011,0.000,0.000:
0000
0000
0000
0000
,
0000
0000
0000
0000
,
0000
0000
0000
0000
,
0000
0000
0000
0000
,
1000
0000
0000
0000
,
0001
0000
0000
0000
,
0100
0000
0000
0000
,
0010
0000
0000
0000
,
1000
0000
0000
0000
,
0100
0000
0000
0000
,
0010
0000
0000
0000
,
0001
0000
0000
0000
,
1000
0000
0000
0000
,
0010
0000
0000
0000
,
0100
0000
0000
0000
,
0001
0000
0000
0000
,
1000
0000
0000
0000
,
0100
0000
0000
0000
,
0010
0000
0000
0000
,
0001
0000
0000
0000
,
1000
0000
0000
0000
,
0000
0000
0000
0000
,
0001
0000
0000
0000
,
0000
0000
0000
0000
,
0100
0000
0000
0000
,
0000
0000
0000
0000
,
0010
0000
0000
0000
,
0000
0000
0000
0000
,
1000
0000
0000
0000
,
0100
0000
0000
0000
,
0001
0000
0000
0000
,
0100
0000
0000
0000
,
1000
0000
0000
0000
,
0010
0000
0000
0000
,
0001
0000
0000
0000
,
0010
0000
0000
0000
,
1000
0000
1000
0000
,
1000
0000
0000
0000
,
0001
0000
0001
0000
,
0001
0000
0000
0000
,
1000
0000
0000
0000
,
0001
0000
0000
0000
,
1000
0000
0000
0000
,
0001
0000
0000
0000
,
0100
0000
0100
0000
,
0100
0000
0000
0000
,
0010
0000
0010
0000
,
0010
0000
0000
0000
,
0100
0000
0000
0000
,
0010
0000
0000
0000
,
0100
0000
0000
0000
,
0010
0000
0000
0000
,
1001
0000
0000
0000
;

//---------------dance-double - ----------------
#NOTES:
     dance-double:
     :
     Hard:
     11:
     0.467,0.533,0.237,0.065,0.076:
00000000
00000000
00000000
00000000
,
00000000
00000000
00000000
00000000
,
00000000
00000000
00000000
00000000
,
00000000
00000000
00000000
00000000
,
00000011
00000000
00000010
00001000
00000000
00001000
00000010
00000001
,
00000100
00000000
00000100
00001000
00000000
00001000
00010000
01000000
,
10000000
00000000
10000000
00100000
00000000
00100000
01000000
10000000
,
01000000
00000000
01000000
00001000
00000000
00001000
00010000
00000100
,
00000010
00000000
00000010
00000001
00000000
00000001
00001000
00000100
,
00010000
00000000
00010000
00100000
00000000
00100000
01000000
00010000
,
10000000
00000000
10000000
01000000
00000000
01000000
00010000
00001000
,
00000100
00000010
00000100
00000001
00001000
00000001
00000010
00000100
,
00002000
00000000
00000010
00000000
00003100
00000000
00010000
00001000
,
02000000
00000000
00100000
00000000
03010000
00000000
10000000
01000000
,
00200000
00000000
00010000
00000000
01300000
00000000
00010000
01000000
,
00000000
01001000
00000000
00011000
00000000
00010100
00000000
00000100
,
00000020
00000000
00000001
00000000
00000130
00000000
00010000
00001000
,
02000000
00000000
00100000
00000000
03010000
00000000
10000000
01000000
,
00020000
00000000
00001000
00000000
00030100
00000000
00000010
00000001
,
00000100
00000000
00000110
00000000
00000010
00010000
00001000
00010000
,
00000100
00000100
00000100
00010000
,
01000000
01000000
01000000
00001000
,
00000010
00000010
00000010
00010000
,
00100000
00100000
00100000
00010000
,
00001000
01000000
10000000
00010000
,
00001000
00100000
01000000
00001000
,
00000100
00000010
00000001
00001000
,
00010000
00000000
01000000
00000000
00100000
10000000
01000000
00000000
,
00100000
00010000
01000000
00000000
00010000
00000000
00110000
00000000
,
00001000
00010000
00000100
00000000
00001000
00000000
00001100
00000000
,
00000010
00000001
00000100
00000000
00000010
00000000
00000110
00000000
,
00010000
00001000
01000000
00000000
00100000
00000000
01100000
00000000
,
10000000
01000000
00010000
00000000
00001000
00000000
00011000
00000000
,
00010000
00001000
00000100
00000000
00000001
00000000
00001001
00000000
,
00000001
00000010
00001000
00000000
00001000
00010000
01000000
00000000
,
10000000
00000000
00100000
00000000
01000000
00000000
00010000
10000000
00010000
00000000
00100000
00000000
01000000
00000000
00000000
00000000
,
10000000
01000000
00010000
01000000
10000000
01000000
00010000
01000000
,
00100000
00000000
00000000
00101000
00000000
00010100
00000000
00000000
,
00000100
00001000
00000010
00000001
00000010
00001000
00000100
00001000
,
00000010
00000000
00000000
00010010
00000000
01001000
00000000
00000000
,
01000000
00000000
00100000
00000000
10000000
00000000
01000000
00000000
00100000
00000000
00010000
10000000
00000000
00000000
00000000
00000000
,
00010000
00000000
01000000
00000000
00001000
00000000
00010000
00000000
00000100
00000000
00000010
00000001
00000000
00000000
00000000
00000000
,
00000100
00000000
00001000
00000000
00010000
00000000
00100000
00000000
00010000
00000000
00001000
00010000
00000000
00010000
00001000
00000000
,
00000000
01001000
00000000
00011000
00000000
00010100
00000000
00000000
,
00000100
00000000
00001000
00000000
00000010
00000000
00000100
00000000
00000001
00000000
00000010
00000100
00000000
00000000
00001000
00000000
,
00000100
00000000
00010000
00000000
00001000
00000000
01000000
00000000
00100000
00000000
10000000
01000000
00000000
00000000
00100000
00000000
,
00001000
00000000
00000100
00000000
00000010
00000000
00001000
00000000
00000100
00000000
00000010
00000001
00000000
00000001
00000100
00000000
,
00000000
00010010
00000000
00011000
00000000
00101000
00000000
00000000
,
00000000
00100000
00000000
00000000
00100000
00000000
01000000
00000000
10000000
00000000
01000000
00000000
00010000
00000000
00001000
00000000
,
00000000
00001000
00000000
00000000
00000100
00000000
00000010
00000000
00001000
00000000
00000100
00000000
00000010
00000000
00000001
00000000
,
00001000
00000001
00000000
00000001
00000010
00000000
00000100
00000000
00010000
00000000
00001000
00000000
00100000
00000000
01000000
00000000
,
00000000
00000000
10000000
00000000
10000000
00000000
01000000
00100000
01000000
00000000
10000000
00000000
00100000
00000000
01000000
00000000
,
10010000
00000000
00000000
00000000
;

//---------------dance-double - ----------------
#NOTES:
     dance-double:
     :
     Medium:
     8:
     0.352,0.365,0.011,0.130,0.000: // measure 1
00000000
00000000
00000000
00000000
,  // measure 2
00000000
00000000
00000000
00000000
,  // measure 3
00000000
00000000
00000000
00000000
,  // measure 4
00000000
00000000
00000000
00000000
,  // measure 5
10000000
00010000
01000000
00010000
,  // measure 6
00100000
00001000
00010000
00000100
,  // measure 7
00000010
00000001
00000100
00000001
,  // measure 8
00001000
00000000
00010000
00000000
10000000
00000000
00100000
10000000
,  // measure 9
01000000
00100000
00010000
01000000
,  // measure 10
00001000
00010000
00000100
00000010
,  // measure 11
00000100
00000000
00010000
00000000
00001000
00000000
00100000
00010000
,  // measure 12
01000000
00000000
00001000
00000000
00000100
00000010
00000100
00000010
,  // measure 13
00001000
00000000
00000001
00000000
00001000
00000000
00000001
00000010
,  // measure 14
00000200
00000000
00000300
00000000
00001000
00000000
00000100
00010000
,  // measure 15
00002000
00003000
00010000
00001000
,  // measure 16
01000000
00010000
01000000
00000000
00100000
00000000
10000000
01000000
,  // measure 17
00200000
00000000
00300000
00000000
00010000
00000000
01000000
00001000
,  // measure 18
00020000
00000000
00030000
00000000
00001000
00000000
00000100
00000010
,  // measure 19
00002000
00003000
00000001
00000100
,  // measure 20
00000010
00000000
00001000
00000000
00000100
00010000
00001000
00000000
,  // measure 21
01000000
01000000
01000000
01000000
,  // measure 22
00100000
00000000
00100000
00000000
00100000
00000000
00100000
10000000
,  // measure 23
01000000
01000000
01000000
01000000
,  // measure 24
00010000
00000000
00010000
00000000
00010000
00001000
00000100
00000000
,  // measure 25
00000010
00000010
00000010
00000010
,  // measure 26
00001000
00000000
00001000
00000000
00001000
00000000
00001000
00000100
,  // measure 27
00010000
00010000
00010000
00010000
,  // measure 28
01000000
00000000
01000000
00000000
01000000
10000000
01000000
00100000
,  // measure 29
00020000
10030000
00010000
01000000
,  // measure 30
00002000
00013000
00000100
00001000
,  // measure 31
00000020
00000130
00000010
00001000
,  // measure 32
00000200
00010300
00001000
01000000
,  // measure 33
00200000
10300000
01000000
00010000
,  // measure 34
00002000
00013000
00001000
00000100
,  // measure 35
00000002
00000000
00001003
00000000
00000100
00000010
00000001
00000000
,  // measure 36
00001000
00000100
00001000
00000000
00000100
00000000
00001100
00000000
,  // measure 37
00001000
00000100
00010000
00001000
,  // measure 38
01000000
00000000
00000000
01000000
00000000
01000000
00000000
00000000
,  // measure 39
00100000
10000000
01000000
00010000
,  // measure 40
00001000
00000000
00000000
00001000
00000000
00001000
00000000
00000000
,  // measure 41
00000100
00000000
00000010
00000000
00001000
00000010
00001000
00000000
,  // measure 42
00000010
00000000
00000100
00000000
00000001
00000100
00000001
00000000
,  // measure 43
00001000
00000100
00010000
00001000
,  // measure 44
01000000
00100000
00000000
00100000
00000000
00100000
00000000
00000000
,  // measure 45
10000000
00000000
01000000
00000000
10000000
01000000
00100000
00010000
,  // measure 46
01000000
00000000
00010000
00000000
01000000
00001000
00010000
00000000
,  // measure 47
00000100
00000000
00010000
00000010
00000100
00000000
00000010
00000000
,  // measure 48
00001000
00000100
00000000
00000010
00000000
00000001
00000000
00000000
,  // measure 49
00001000
00000100
00001000
00000000
00000100
00000000
00010000
00000000
,  // measure 50
00001000
00010000
00001000
00000000
00010000
00000000
01000000
00000000
,  // measure 51
00100000
00010000
01000000
00000000
00100000
00000000
10000000
00000000
,  // measure 52
01000000
00000000
00010000
00000000
00001000
00000010
00000001
00001000
,  // measure 53
00000001
00000000
00000000
00000000
;

//---------------dance-double - ----------------
#NOTES:
     dance-double:
     :
     Challenge:
     12:
     0.370,0.449,0.205,0.000,0.000:
00000000
00000000
00000000
00000000
,
00000000
00000000
00000000
00000000
,
00000000
00000000
00000000
00000000
,
00000000
00000000
00000000
00000000
,
00010000
00000000
00001000
01000000
00000000
01000000
00100000
10000000
,
01000000
00000000
00100000
00001000
00000000
00001000
00010000
00000100
,
00000010
00000000
00000001
00000100
00000000
00000100
00000010
00010000
,
00001000
00000000
01000000
00010000
00000000
00010000
00100000
01000000
,
10000000
00000000
00010000
01000000
00000000
01000000
00001000
00010000
,
00000100
00000000
00000010
00000001
00000000
00000001
00000100
00001000
,
00010000
00000000
00100000
10000000
00000000
10000000
00010000
01000000
,
00001000
00000000
00010000
00000100
00000000
00000100
00000010
00000001
,
00000100
00000000
MMMMMMMM
00000000
00000010
00000100
00001000
MMMMMMMM
,
00010000
00000000
MMMMMMMM
00000000
00001000
01000000
00100000
MMMMMMMM
,
01000000
00000000
MMMMMMMM
00000000
10000000
01000000
00010000
MMMMMMMM
,
00000010
00000011
0000MMMM
00000110
0000MMMM
00001100
0000MMMM
00010000
,
00001000
00000000
MMMMMMMM
00000000
00010000
00100000
01000000
MMMMMMMM
,
00100000
00000000
MMMMMMMM
00000000
01000000
00010000
00001000
MMMMMMMM
,
00000010
00000000
MMMMMMMM
00000000
01000000
00100000
MMMMMMMM
01000000
,
00100000
00100000
10000000
00010000
00100000
00100000
00010000
00000000
,
MMMMMMMM
01000000
MMMMMMMM
00000100
,
MMMMMMMM
00100000
MMMMMMMM
00000010
,
MMMMMMMM
00100000
MMMMMMMM
00000100
,
MMMMMMMM
01000000
MMMMMMMM
00000010
,
MMMMMMMM
00100000
MMMMMMMM
00000100
,
MMMMMMMM
01000000
MMMMMMMM
00000010
,
MMMMMMMM
01000000
MMMMMMMM
00000010
,
MMMMMMMM
00100000
MMMMMMMM
00010000
,
10000000
00000000
10000000
01000000
00010000
MMMM0000
MMMM0000
00000000
,
00000001
00000000
00000001
00000100
00001000
0000MMMM
0000MMMM
00000000
,
10000000
00000000
10000000
01000000
00010000
MMMM0000
MMMM0000
00000000
,
00000001
00000000
00000001
00000100
00001000
0000MMMM
0000MMMM
00000000
,
10000000
00000000
10000000
00100000
00010000
MMMM0000
MMMM0000
00000000
,
00000001
00000000
00000001
00000010
00001000
0000MMMM
0000MMMM
00000000
,
10000000
00000000
10000000
00100000
00010000
MMMM0000
MMMM0000
00000000
,
00000001
00000000
00000001
00000010
00001000
0000MMMM
0000MMMM
00000000
,
11000000
MMMMMMMM
01010000
MMMMMMMM
00011000
MMMMMMMM
00001100
MMMMMMMM
,
00000101
00000000
00000001
00001000
00000000
00010000
10000000
00000000
,
10100000
MMMMMMMM
00110000
MMMMMMMM
00011000
MMMMMMMM
00001010
MMMMMMMM
,
00000011
00000000
00000001
00001000
00000000
00010000
10000000
00000000
,
00010000
10000000
01000000
00010000
00001000
00000010
00000001
MMMMMMMM
,
00000010
00001000
00000100
00010000
00001000
01000000
00100000
MMMMMMMM
,
00010000
00100000
00010000
01000000
00001000
00010000
00000100
00000010
,
00000001
00000101
MMMMMMMM
00001100
MMMMMMMM
00011000
00000000
00000000
,
10000000
01000000
00010000
01000000
10000000
MMMM0000
MMMM0000
MMMM0000
,
00001000
00000010
00000001
00000010
00001000
0000MMMM
0000MMMM
0000MMMM
,
00010000
01000000
10000000
01000000
00010000
MMMM0000
MMMM0000
MMMM0000
,
00000000
01010000
MMMMMMMM
00011000
MMMMMMMM
00001100
00000000
00000000
,
00010000
01000000
10000000
00100000
00010000
MMMMMMMM
00001000
MMMMMMMM
,
00010000
00000100
00000001
00001000
00000010
MMMMMMMM
00000100
MMMMMMMM
,
00010000
01000000
10000000
00100000
00010000
MMMMMMMM
00001000
MMMMMMMM
,
00000100
00000001
00000010
00001000
00010000
01000000
00001000
00000100
,
00000001
00000000
00000000
00000000
;

//---------------dance-double - ----------------
#NOTES:
     dance-double:
     :
     Easy:
     3:
     0.184,0.225,0.000,0.000,0.000: // measure 1
00000000
00000000
00000000
00000000
,  // measure 2
00000000
00000000
00000000
00000000
,  // measure 3
00000000
00000000
00000000
00000000
,  // measure 4
00000000
00000000
00000000
00000000
,  // measure 5
00001000
00000000
00010000
00000000
,  // measure 6
00001000
00000000
01000000
00000000
,  // measure 7
00010000
00000000
10000000
00000000
,  // measure 8
01000000
01000000
01000000
00000000
,  // measure 9
00010000
00000000
00001000
00000000
,  // measure 10
00010000
00000000
00000100
00000000
,  // measure 11
00001000
00000000
00000010
00000000
,  // measure 12
00000100
00000100
00000100
00000000
,  // measure 13
00000001
00000000
00001000
00000100
,  // measure 14
00000100
00000000
00010000
00001000
,  // measure 15
00001000
00000000
01000000
00010000
,  // measure 16
00010000
00000000
10000000
00000000
,  // measure 17
01000000
00000000
00100000
00001000
,  // measure 18
00001000
00000000
00010000
00000100
,  // measure 19
00000100
00000000
00001000
00000000
,  // measure 20
00000010
00000100
00000001
00001000
,  // measure 21
00000100
00000000
00000100
00000000
,  // measure 22
00000100
00010000
00001000
01000000
,  // measure 23
00010000
00000000
00010000
00000000
,  // measure 24
00010000
10000000
01000000
00000000
,  // measure 25
00100000
00000000
00100000
00000000
,  // measure 26
00100000
00001000
00010000
00000100
,  // measure 27
00001000
00000000
00001000
00000000
,  // measure 28
00001000
00000010
00000100
00000000
,  // measure 29
00000001
00000000
00000001
00000000
,  // measure 30
00001000
00000000
00001000
00000000
,  // measure 31
00000100
00010000
00001000
00000000
,  // measure 32
00010000
00000000
00001000
00000000
,  // measure 33
01000000
00010000
10000000
00000000
,  // measure 34
01000000
00000000
10000000
00000000
,  // measure 35
00100000
01000000
00010000
00000000
,  // measure 36
10000000
00000000
01000000
00000000
,  // measure 37
00100000
00100000
00100000
00000000
,  // measure 38
00001000
00000000
00001000
00000000
,  // measure 39
00010000
00010000
00010000
00000000
,  // measure 40
00000100
00000000
00000100
00000000
,  // measure 41
00001000
00000000
00000010
00000000
,  // measure 42
00000100
00000000
00000001
00000000
,  // measure 43
00001000
00000000
00000100
00000000
,  // measure 44
00010000
00000000
00000000
00000000
,  // measure 45
00001000
00000000
01000000
00000000
,  // measure 46
00010000
00000000
10000000
00000000
,  // measure 47
01000000
01000000
01000000
00000000
,  // measure 48
00100000
00000000
00000000
00000000
,  // measure 49
00010000
00000000
01000000
00000000
,  // measure 50
00001000
00000000
00010000
00000000
,  // measure 51
00000100
00001000
00000010
00000000
,  // measure 52
00000100
00000001
00001000
00000100
,  // measure 53
00010000
00000000
00000000
00000000
;
