#TITLE:Kailua;
#SUBTITLE:;
#ARTIST:kors k;
#TITLETRANSLIT:;
#SUBTITLETRANSLIT:;
#ARTISTTRANSLIT:;
#GENRE:;
#CREDIT:Silverhawke;
#MENUCOLOR:;
#METERTYPE:DDR;
#BANNER:Kailua.png;
#BACKGROUND:Kailua-bg.png;
#LYRICSPATH:;
#CDTITLE:cdtitle.png;
#MUSIC:Kailua.mp3;
#OFFSET:-0.387;
#SAMPLESTART:67.776;
#SAMPLELENGTH:14.980;
#SELECTABLE:YES;
#LISTSORT:;
#DISPLAYBPM:146.000;
#BPMS:0.000=146.000,35.250=389.333,36.000=146.000,163.250=389.333,164.000=146.000;
#STOPS:35.000=0.193
,163.000=0.193
;
#BGCHANGES:;
#ATTACKS:;

//---------------dance-single - ----------------
#NOTES:
     dance-single:
     :
     Hard:
     10:
     0.490,0.479,0.234,0.242,0.017:
0000
0000
0000
0000
,
0000
0000
0000
0000
,
0000
0000
0000
0000
,
0000
0000
0000
0000
,
0000
0000
0000
0000
,
0020
0000
0000
0230
0000
0000
0302
0000
,
0100
0010
0100
0010
,
2003
0000
0000
3200
0000
0000
0320
0000
,
0100
0000
0001
0000
0130
1000
1001
0000
,
0110
1000
0001
1100
,
0001
0100
0001
0000
1000
0100
0010
0000
,
0100
1100
0001
0101
,
0010
0100
0001
0010
0100
1000
0001
0000
,
1000
0100
0001
0000
0001
0100
1000
0000
,
0010
0100
0001
0000
0001
0100
0010
0000
,
1000
0001
0010
0100
1000
0001
0100
0000
,
0010
0100
0001
0000
0010
0100
1000
0000
,
0001
0100
0001
0100
0010
0100
0001
0000
,
1000
0100
1000
0100
0010
0100
1000
0000
,
0001
0100
0100
0000
1000
0100
0100
0000
,
0001
0100
1000
0100
0001
0010
0100
0000
,
1100
0100
0010
0001
0010
0100
1000
0000
,
0101
0100
0010
1000
0010
0100
0001
0000
,
1100
1000
0001
0000
0101
0001
1000
0000
,
0010
0000
1000
0000
0100
1000
0100
1000
0000
0000
0001
0000
0100
0001
0100
0001
,
2000
0000
0000
3200
0000
0000
0320
0000
,
0000
0001
0000
0001
,
0230
0000
0000
2300
0000
0000
3020
0000
,
0000
0100
0000
0100
,
2030
0000
0000
3002
0000
0000
0023
0000
,
0000
0100
0000
0100
,
0032
0000
0000
2003
0000
0000
3020
0000
,
0000
0000
0100
0000
0030
0010
1000
0100
,
0010
0001
0100
0000
0001
0000
0101
0000
,
0010
1000
0100
0000
1000
0000
1100
0100
,
0010
0001
0100
0000
0010
0000
0110
0000
,
0010
1000
0100
0000
0010
0100
0010
0001
,
0101
0000
0100
0000
0001
1000
0100
0000
,
0010
0100
1000
0000
0001
0100
1000
0000
,
0100
0001
0100
0001
1000
0100
1000
0100
,
0001
0100
0010
0100
1000
0001
1001
0000
,
1000
0000
0010
0100
0001
0000
0010
0100
,
1000
0100
0010
0000
0001
0100
1000
0100
,
0010
0000
1000
0100
0010
0000
0001
0000
,
1000
0100
0001
0100
0010
0000
0001
0100
,
0010
0000
1000
0010
0100
0000
0001
0100
,
1000
0100
0010
0000
1000
0100
0010
0001
,
0100
0000
1000
0100
0001
0000
1000
0000
,
0100
0010
0001
0100
0010
0000
1000
0001
,
0102
0000
0013
0100
2000
0000
3020
0000
,
0130
0001
0100
1000
0100
0000
0010
1000
,
0002
0000
0013
0100
2000
0000
3020
0000
,
0130
0001
0010
0100
1000
0001
0100
0000
,
0102
0000
1003
0100
0000
1000
0002
0000
,
0103
0000
0010
1000
0100
0010
0001
0000
,
2000
0000
3100
1000
0020
0000
0130
0001
,
0010
0001
0100
0010
1000
0100
0010
0000
,
1001
0100
0001
0000
1001
0100
1000
0000
,
1000
0100
0010
0100
1000
0001
0100
0000
,
0110
0001
0100
0000
0110
1000
0010
0000
,
1000
0001
0010
1000
0010
0001
0100
0000
,
1010
0100
0010
0000
0101
0010
0100
0000
,
0011
0101
1100
1010
,
1000
0100
0001
0100
1000
0010
0001
0010
,
1000
0100
0001
0100
0010
0001
0100
1000
,
1001
0000
0000
0000
;

//---------------dance-single - ----------------
#NOTES:
     dance-single:
     :
     Medium:
     8:
     0.372,0.394,0.182,0.234,0.000:
0000
0000
0000
0000
,
0000
0000
0000
0000
,
0000
0000
0000
0000
,
0000
0000
0000
0000
,
0000
0000
0000
0000
,
0020
0000
0000
2030
0000
0000
3002
0000
,
0000
0000
0000
0000
,
2003
0000
0000
3200
0000
0000
0310
0000
,
0001
0000
1000
0000
0010
0100
0010
0000
,
0100
0000
0001
0000
1000
0100
0010
0000
,
0002
0000
0103
0000
0010
1000
0100
0000
,
0010
0000
0100
0000
1000
0001
0100
0000
,
0001
1000
0100
0100
,
1000
0001
1000
0001
,
0100
0010
0100
0010
,
0100
0000
0001
0000
1000
0100
0010
0000
,
0100
0000
1000
0000
0001
0100
0010
0000
,
0100
0001
1000
0001
,
0100
0010
0100
0010
,
1000
0000
0100
0000
0010
0100
1000
0000
,
0001
0000
0100
0000
0010
1000
0001
0000
,
0010
0100
0010
0000
0001
0000
0100
0000
,
0010
0100
0010
0000
0100
0000
0001
0000
,
1000
0100
0010
0100
,
1000
0001
1000
0002
0000
0103
0010
0000
,
0200
0000
0000
0320
0000
0000
2030
0000
,
0000
0000
0000
0000
,
3002
0000
0000
0023
0000
0000
0230
0000
,
0000
0000
0000
0000
,
2300
0000
0000
3020
0000
0000
0230
0000
,
0000
0000
0000
0000
,
0302
0000
0000
0203
0000
0000
0320
0000
,
0000
0000
0000
0000
,
2030
0100
3002
0100
,
0023
1000
0230
0001
,
2300
0010
3002
0100
,
2003
0100
3002
0010
,
1003
0000
0010
0000
1000
0100
0010
0000
,
0001
0000
0100
0000
0001
0100
0010
0000
,
1000
0001
0100
0000
0001
1000
0100
0000
,
1000
0001
1000
0001
1000
0001
0100
0000
,
0010
0000
0000
1100
0000
0000
0101
0000
,
1000
0000
0010
0000
0100
0001
0010
0000
,
0100
0000
0000
1100
0000
0000
0101
0000
,
0100
0000
0010
0000
1000
0001
0010
0000
,
0100
0000
0000
1010
0000
0000
0011
0000
,
0100
0000
1000
0000
0100
0001
0010
0000
,
0100
0000
0000
1001
0000
0000
0110
0000
,
0001
0000
0010
0000
1000
0100
0010
0001
,
0100
0000
0000
0011
0000
0000
1100
0000
,
0001
0100
0001
0000
1000
0100
1000
0000
,
0001
0000
0000
1010
0000
0000
0101
0000
,
1000
0010
1000
0000
0001
0010
0001
0000
,
1000
0000
0000
0110
0000
0000
1001
0000
,
0100
1000
0010
0000
0100
0001
0010
0000
,
0001
1001
1000
1001
,
0100
0001
0010
0000
0100
1000
0010
1000
,
0001
0010
0001
0000
0010
1000
0010
0000
,
1000
0100
1000
0000
0100
0001
0100
0000
,
0001
0100
0001
0000
0100
1000
0100
0000
,
1000
0010
1000
0000
0010
0001
0010
0000
,
0001
1100
0001
0100
,
0010
0101
1000
0010
,
1000
1100
0001
0101
,
1000
0100
0001
0010
1000
0010
0001
1000
,
1001
0000
0000
0000
;

//---------------dance-single - ----------------
#NOTES:
     dance-single:
     :
     Beginner:
     1:
     0.071,0.113,0.000,0.000,0.000:
0000
0000
0000
0000
,
0000
0000
0000
0000
,
0000
0000
0000
0000
,
0000
0000
0000
0000
,
0000
0000
0000
0000
,
0001
0000
0000
0000
,
0000
0000
0000
0000
,
1000
0000
0000
0000
,
0000
0000
0000
0000
,
0000
0000
0000
0000
,
1000
0000
0000
0000
,
0001
0000
0000
0000
,
0100
0000
0000
0000
,
0010
0000
0000
0000
,
1000
0000
0000
0000
,
0100
0000
0000
0000
,
0010
0000
0000
0000
,
0001
0000
0000
0000
,
0100
0000
0000
0000
,
0010
0000
0000
0000
,
1000
0000
0000
0000
,
0001
0000
0000
0000
,
0010
0000
0000
0000
,
0100
0000
0000
0000
,
1000
1000
1000
0000
,
0001
0000
0000
0000
,
0000
0000
0000
0000
,
0100
0000
0000
0000
,
0000
0000
0000
0000
,
0010
0000
0000
0000
,
0000
0000
0000
0000
,
1000
0000
0000
0000
,
0000
0000
0000
0000
,
0001
0000
0000
0000
,
0001
0000
0000
0000
,
0010
0000
0000
0000
,
0010
0000
0000
0000
,
0100
0000
0000
0000
,
0100
0000
0000
0000
,
1000
0000
0000
0000
,
1000
0000
0000
0000
,
0000
0000
0000
0000
,
0001
0000
0000
0000
,
0100
0000
0000
0000
,
0010
0000
0000
0000
,
1000
0000
0000
0000
,
0100
0000
0000
0000
,
0010
0000
0000
0000
,
0001
0000
0000
0000
,
1000
0000
0000
0000
,
0100
0000
0000
0000
,
0010
0000
0000
0000
,
0001
0000
0000
0000
,
1000
0000
0000
0000
,
0010
0000
0000
0000
,
0100
0000
0000
0000
,
0001
0000
0000
0000
,
1000
0000
0000
0000
,
0010
0000
0000
0000
,
0100
0000
0000
0000
,
0001
0000
0000
0000
,
0010
0000
0010
0000
,
0010
0000
0000
0000
,
0100
0000
0100
0000
,
0100
0000
0000
0000
,
0010
0000
0000
0000
;

//---------------dance-single - ----------------
#NOTES:
     dance-single:
     :
     Easy:
     4:
     0.198,0.253,0.000,0.121,0.000:
0000
0000
0000
0000
,
0000
0000
0000
0000
,
0000
0000
0000
0000
,
0000
0000
0000
0000
,
0000
0000
0000
0000
,
0010
0000
0000
0020
,
0000
0000
0000
0030
,
0100
0000
0000
0200
,
0000
0000
0000
0300
,
0100
0000
0001
0000
,
0100
0010
0100
0000
,
0001
0000
1000
0000
,
0100
0010
0100
0000
,
1000
0001
0100
0000
,
0001
1000
0100
0000
,
0010
0000
0001
0000
,
0100
0010
1000
0000
,
0010
0100
0010
0000
,
0100
0010
0100
0000
,
0001
1000
0001
0000
,
1000
0001
1000
0000
,
0001
0100
0001
0000
,
0100
1000
0100
0000
,
1000
0010
1000
0000
,
0010
0001
0010
0000
,
0001
0000
0000
0002
,
0000
0000
0000
0003
,
1000
0000
0000
2000
,
0000
0000
0000
3000
,
0010
0000
0000
0020
,
0000
0000
0000
0030
,
0100
0000
0000
0200
,
0000
0000
0000
0300
,
0001
0100
0000
0010
,
0000
1000
0000
0100
,
0000
0010
0000
0001
,
0000
1000
0000
0010
,
0000
0100
0000
0001
,
0000
1000
0000
0001
,
0100
0000
0010
0000
,
1000
0100
0010
0001
,
1000
0100
1000
0100
,
0000
0010
0001
0010
,
0001
0100
0001
0100
,
0000
0010
1000
0010
,
1000
0001
1000
0001
,
0000
0010
0001
0010
,
0001
1000
0001
1000
,
0000
0010
1000
0001
,
0200
0000
0302
0000
,
0023
0000
0230
0000
,
2300
0000
3020
0000
,
0230
0000
0302
0000
,
1003
0100
1000
0000
,
0001
0100
0001
0000
,
1000
0010
0100
0001
,
0010
0100
1000
0000
,
0001
0000
0100
0000
,
1000
0000
0010
0000
,
0001
0000
0010
0000
,
1000
0000
0100
0000
,
0001
0000
1000
0000
,
0001
0000
1000
0000
,
0010
0100
0010
0100
,
0001
1000
0100
0010
,
0001
0000
0000
0000
;

//---------------dance-single - ----------------
#NOTES:
     dance-single:
     :
     Challenge:
     13:
     0.638,0.704,0.078,0.658,0.355:
0000
0000
0000
0000
,
0000
0000
0000
0000
,
0000
0000
0000
0000
,
0000
0000
0000
0000
,
0000
0000
0000
0000
,
2010
0000
0000
3002
0000
0000
0023
0000
,
0000
0100
0000
0100
0000
0100
0000
0100
,
0032
0100
0000
2003
0000
0100
3002
0100
,
0000
0000
0000
0000
0100
0000
0000
0000
0000
0000
0000
0000
0100
0000
0000
0000
0000
0000
0000
0000
0103
0000
0000
0000
2002
3003
0000
0000
0000
0000
0000
0000
,
0110
0000
1001
0000
0010
1000
0100
0010
,
0001
1000
0001
1000
0001
0000
0000
0010
0100
0000
1000
0000
0010
0000
0100
0000
,
0001
0000
1000
0000
0010
0100
0000
0010
0100
0000
0000
0001
0010
0000
0100
0000
,
1000
0010
0100
1000
0100
0001
0010
0100
,
1000
0001
0100
0001
0010
0100
1000
0010
,
0100
0000
0001
0000
0100
0000
0001
0000
1000
0000
0100
0000
1000
0000
0100
0010
,
0100
0000
0000
1000
0001
0000
0000
0100
0000
0010
0000
1000
0001
0000
1000
0000
,
0100
0010
0001
0100
1000
0100
0001
0010
,
0100
1000
0000
0100
1000
0000
0000
0001
0100
0000
0001
0000
0010
0000
0100
0000
,
1000
0010
0000
1000
0010
0000
0000
0100
0001
0000
0010
0000
0100
0000
0010
0000
,
0001
0100
0000
0001
0100
0000
0000
0010
0100
0000
0001
0000
0010
0000
0100
0000
,
1000
0010
0000
1000
0010
0000
0000
0100
0010
0000
0100
0000
0001
0000
0010
0000
,
0100
1000
0000
0100
0010
0000
0000
0001
0100
0000
0001
0000
0010
0000
0100
0000
,
1000
0010
0000
0100
0010
0000
0000
0100
0001
0000
0010
0000
0100
0000
0010
0000
,
0001
0100
0000
0010
0100
0000
0000
0010
1000
0000
0100
0000
0010
0000
0100
0000
,
2000
0000
3020
0000
0130
0001
1000
0200
0000
0310
0100
1000
0001
0100
0010
1000
,
0200
0000
0000
0320
0000
0000
0032
0000
,
0000
0000
0000
0000
,
2003
0000
0000
3020
0000
0000
0230
0000
,
0000
0000
0000
0000
,
0302
0000
0000
0203
0000
0000
2300
0000
,
0000
0000
0000
0000
,
3020
0000
0000
0032
0000
0000
2003
0000
,
0000
0000
0000
0000
3002
0023
0230
2300
,
3002
0000
1000
0203
0001
0000
0320
0000
,
1000
0000
0100
0000
1000
0000
0100
2030
,
3200
0000
0010
2300
0100
0000
3002
0000
,
0010
0000
1000
0000
0023
0032
0203
0320
,
2030
0000
0001
3020
1000
0000
0100
0000
,
2030
0000
0010
0000
0001
3200
1000
0320
,
0001
0000
0001
0000
0031
1000
0001
1000
,
0001
0000
1000
0000
0001
0000
1000
0000
0001
0000
1000
0000
0001
0000
1000
0000
0001
0000
1000
0000
0001
0000
1000
0000
0020
0030
0000
0000
0000
0000
0000
0000
,
0102
0000
0013
0200
1000
0300
0002
0000
,
0010
0000
0100
0000
0013
0100
1000
0000
,
0120
0000
1030
0002
0010
0003
0200
0000
,
0310
1000
0010
0001
0100
0000
0010
1000
,
2001
0000
3010
0200
0001
0300
0020
0000
,
1000
0000
0001
0000
0130
1000
0010
0000
,
0210
0000
0301
2000
0100
3000
0020
0000
,
0031
0100
1000
0000
0120
2030
3002
0023
,
0230
1000
0310
0002
0100
1003
0020
1000
,
0130
0100
0010
0001
0100
0100
1000
0020
,
0230
0001
0310
2000
0100
3001
0020
0001
,
0130
0100
0001
1000
0200
0320
0032
2003
,
3020
0100
1030
0002
0010
1003
0100
1000
,
0020
0130
1000
0100
0001
0020
0100
0032
,
1003
1000
0100
0100
0001
0001
0100
0100
,
1000
0010
1000
0000
0001
0010
0001
0000
1000
0100
0010
0000
0001
0100
0010
0000
,
1000
0100
1000
0000
0100
0010
0000
0010
0001
0100
0001
0000
0001
0100
0000
0100
,
0010
1000
0010
0000
0010
1000
0000
1000
0001
0010
0100
0000
1000
0000
0001
0010
,
0001
0100
0001
0000
0100
0010
0000
0010
1000
0100
1000
0000
1000
0100
0000
0100
,
0010
0001
0010
0000
0010
0001
0000
0001
1000
0010
0100
0000
0001
0000
1000
0010
,
1000
0100
1000
0100
0001
0100
0001
0100
,
1000
0010
1000
0010
0001
0010
0001
0010
,
1000
0001
1000
0000
0001
1000
0001
0000
1000
0001
1000
0000
0001
1000
0001
0000
,
0100
0010
0100
0010
0100
0010
0100
0010
0100
0010
0100
0010
0100
0010
0100
0010
,
1000
0000
0000
0000
;

//---------------dance-double - ----------------
#NOTES:
     dance-double:
     :
     Hard:
     12:
     0.447,0.479,0.069,0.251,0.017:
00000000
00000000
00000000
00000000
,
00000000
00000000
00000000
00000000
,
00000000
00000000
00000000
00000000
,
00000000
00000000
00000000
00000000
,
00000000
00000000
00000000
00000000
,
20000000
00000000
00000000
32000000
00000000
00000000
03200000
00000000
,
00000000
00001000
00000000
00001000
00000000
00001000
00000000
00301000
,
00020000
00000000
00000000
00030200
00000000
00000000
00000320
00000000
,
00000000
00000001
00000000
00000001
00000000
00000031
00001001
00000000
,
00000110
00000000
00001001
00000000
00001000
00000100
00010000
00001000
,
01000000
00100000
01000000
00000000
00010000
00000000
00000000
00000000
00010000
00000000
10000000
00000000
01000000
00000000
00000000
00000000
,
00100000
00000000
00001000
00000000
00010000
00000000
00000000
00000000
00001000
00000000
00000000
00100000
00000000
00000000
00010000
00000000
,
10000000
00000000
01000000
00100000
00010000
00000000
00001000
00000100
,
00000010
00000000
00000001
00000000
00000100
00000010
00010000
00000000
,
00001000
01000000
00010000
00100000
01000000
10000000
00010000
00000000
,
01000000
00000000
00000000
00000000
00001000
00000000
00000000
00010000
00000000
00000100
00000000
00000000
00001000
00000000
00000000
00000000
,
00000001
00000100
00001000
00010000
00001000
00000100
00000010
00000000
,
00100000
01000000
10000000
01000000
00100000
00010000
00100000
00000000
,
00000010
00000100
00000001
00000100
00000010
00001000
00000100
00000000
,
01000000
00010000
00100000
01000000
10000000
01000000
00100000
00000000
,
00000010
00001000
00000100
00010000
00001000
00100000
00010000
00000000
,
10000000
01000000
00010000
00001000
10000000
00010000
01000000
00000000
,
00000100
00001000
00000001
00010000
00001000
00000100
00000001
00000000
,
00001001
00000110
00011000
01100000
,
10000000
01000000
00100000
00010000
00001000
00000100
00000010
00000001
,
00002000
00000000
00000000
00203000
00000000
00000000
20300000
00000000
,
00000000
00000000
00000000
00000000
,
32000000
00000000
00000000
03020000
00000000
00000000
00030020
00000000
,
00000000
00000000
00000000
00000000
,
00000230
00000000
00000000
00002300
00000000
00000000
00203000
00000000
,
00000000
00000000
00000000
00000000
,
20300000
00000000
00000000
30002000
00000000
00000000
00003002
00000000
,
00000000
00000000
00000000
00000000
00000103
00001000
00010000
00100000
,
20000000
00000000
00000000
32000000
00000000
00000000
03002000
00000000
,
00000000
00000000
00000000
00000000
00000000
00000000
00000000
00013000
,
00000020
00000000
00000000
00000032
00000000
00000000
00020003
00000000
,
00000000
00000000
00000000
00000000
00031000
01000000
10000000
00010000
,
00200000
00000000
00000000
20300000
00000000
00000000
00000000
00000000
,
32000000
00000000
00000000
00000000
00000000
03020000
00000000
00002000
,
00000000
00000000
00000000
00000000
,
00000000
00000000
00000000
00033000
,
10000000
01000000
00010000
10000000
00100000
00010000
01000000
00000000
,
00100000
10000000
00100000
00000000
01000000
00001000
01000000
00000000
,
00001000
00010000
00000100
00001000
00010000
00100000
00001000
00000000
,
00010000
00000010
00000100
00000010
00000001
00000010
00001000
00000000
,
00000001
00000100
00001000
00000001
00000010
00001000
00000100
00000000
,
00010000
00001000
00010000
00000000
00001000
01000000
00001000
00000000
,
00100000
00010000
01000000
00000100
00001000
00000010
00000001
00000000
,
00000010
00001000
00000100
00000000
00010000
00001000
01000000
00100000
,
10000000
01000000
00010000
00001000
00000100
00000010
00001000
00000000
,
01000000
10000000
00100000
00010000
00001000
00000100
00010000
00000000
,
10000000
01000000
00010000
00001000
00100000
00001000
00000100
00000000
,
00000010
00001000
00000001
00000000
00000100
00001000
01000000
00010000
,
00100000
00000000
00001000
00010000
00000100
00000000
00000010
00000000
,
00000001
00000100
00001000
00000000
01000000
10000000
01000000
00100000
,
00001000
00000010
00010000
00001000
01000000
00100000
00010000
00000100
,
00000010
00001000
00010000
00100000
10000000
01000000
00010000
00000100
,
00000010
00000010
00000001
00000001
00000100
00000100
00001000
00001000
,
00010000
00100000
10000000
01000000
00010000
00001000
00000100
00000100
,
00010000
00010000
01000000
01000000
00100000
00100000
10000000
10000000
,
01000000
00100000
00010000
00001000
00000100
00000010
00000001
00000001
,
00000010
00000001
00000100
00000010
00001000
00000100
00010000
00001000
,
00100000
00010000
01000000
00100000
10000000
01000000
00100000
00010000
,
00001000
00000100
00000010
00000001
00000010
00000100
00001000
00010000
,
00100000
01000000
10000000
01000000
00010000
00001000
00000001
00001000
,
00011000
00000000
00000000
00000000
;

//---------------dance-double - ----------------
#NOTES:
     dance-double:
     :
     Challenge:
     14:
     0.652,0.704,0.035,0.624,0.355:
00000000
00000000
00000000
00000000
,
00000000
00000000
00000000
00000000
,
00000000
00000000
00000000
00000000
,
00000000
00000000
00000000
00000000
,
00000000
00000000
00000000
00000000
,
00000002
00000000
00000000
00000203
00000000
00000000
00000320
00000000
,
00000000
00001000
00000000
00001000
00000000
00001000
00000000
00001030
,
00000200
00010000
00000300
00020000
00000000
00031000
02000000
00100000
,
00000000
00100000
00000000
00100000
00000000
03100000
10010000
00000000
,
01100000
10000000
01000000
00100000
01000000
10000000
00100000
01000000
,
00010000
00100000
00001000
00100000
00010000
00000000
01000000
00001000
00010000
00000000
00000100
00000000
00000010
00000000
00000001
00000000
,
00000100
00000000
00000010
00000000
00001000
00000100
00000000
00001000
00000100
00000000
00000000
00010000
00001000
00000000
01000000
00000000
,
00010000
00100000
10000000
00100000
00010000
00001000
00000100
00000001
,
00000100
00000010
00000001
00000100
00000010
00001000
00000100
00010000
,
00001000
00000000
01000000
00000000
00100000
00000000
10000000
00000000
01000000
00000000
00100000
00000000
00010000
00000000
01000000
00001000
,
00010000
00000000
00000000
00001000
00010000
00000000
00000000
00000100
00000000
00000010
00000000
00000001
00000100
00000000
00000001
00000000
,
00000010
00000100
00010000
00001000
01000000
00100000
10000000
01000000
,
00100000
00001000
00000000
00100000
00001000
00000000
00010000
00000000
00000100
00010000
00000000
00000100
00010000
00000000
00000010
00000000
,
00000100
00000001
00000000
00000100
00000001
00000000
00001000
00000000
00000100
00010000
00000000
00000100
00010000
00000000
00001000
00000000
,
00100000
01000000
00000000
00100000
01000000
00000000
10000000
00000000
00100000
01000000
00000000
00100000
01000000
00000000
00001000
00000000
,
00010000
00000100
00000000
00010000
00000100
00000000
00000010
00000000
00000001
00000100
00000000
00000001
00000100
00000000
00000010
00000000
,
00010000
00001000
00000000
00010000
00001000
00000000
00100000
00000000
00010000
01000000
00100000
00000000
10000000
00000000
01000000
00000000
,
00100000
00001000
00000000
00100000
00001000
00000000
00010000
00000000
00000100
00000010
00000001
00000000
00000100
00000000
00000010
00000000
,
00000101
00001000
00000100
00010000
00101000
01000000
10000000
00100000
,
20000000
00000000
32000000
00000000
03010000
00001000
00000010
00000001
00000000
00000001
00000100
00000010
00001000
00000100
00010000
00001000
,
00200000
00000000
00000000
02300000
00000000
00000000
23000000
00000000
,
00000000
00000000
00000000
00000000
,
30200000
00000000
00000000
00320000
00000000
00000000
00030200
00000000
,
00000000
00000000
00000000
00000000
,
00000302
00000000
00000000
00000023
00000000
00000000
00020030
00000000
,
00000000
00000000
00000000
00000000
,
00032000
00000000
00000000
02003000
00000000
00000000
23000000
00000000
,
00000000
00000000
00000000
00000000
30200000
00320000
00032000
00003200
,
00000302
00000000
00000000
00002003
00000000
00000000
00003200
00000000
,
00010000
00000000
00001000
00000000
00010000
00000000
00001300
00000200
,
00020300
00000000
00000000
02030000
00000000
00000000
23000000
00000000
,
01000000
00000000
00010000
00000000
30200000
00320000
00032000
00003200
,
00000320
00000000
00000000
00002030
00000000
00000000
00000100
00000000
,
00003002
00000000
00000010
00000000
00000103
00002000
00000000
00203000
,
00310000
10000000
01000000
00010000
00001000
00000100
00000001
00000010
,
00001000
00010000
00001000
00010000
00001000
00010000
00001000
00010000
00001000
00010000
00001000
00010000
00001000
00000000
00000000
00000000
,
02000000
03010000
00100000
20000000
30010000
01000000
20000000
30100000
,
00010000
00001000
00000010
00001000
00010000
00000100
00000010
00000001
,
00002000
00003100
00010000
00000020
00001030
00000001
00000200
00001300
,
00010000
00000010
00000100
00010000
00001000
00100000
10000000
00010000
,
02000000
03100000
10000000
00020000
01030000
00100000
00020000
00031000
,
01000000
00010000
00100000
01000000
10000000
01000000
00010000
00001000
,
00000020
00000031
00000100
00002000
00003001
00000010
00020000
00031000
,
00000100
00000010
00010000
00001000
00200000
02300000
03002000
00003200
,
00020300
01030000
10000000
00020000
01030000
10000000
00020000
00130000
,
01000000
00001000
00100000
01000000
00010000
00000100
00000010
00000002
,
00000023
00000130
00010000
00000020
00000130
00010000
00002000
00103000
,
01000000
00001000
00100000
01000000
20000000
32000000
03020000
00030200
,
00000320
00000031
00000100
00002000
00013000
00100000
01000000
00001000
,
00020000
00030100
00000010
00001000
00010000
00200000
00310000
00002000
,
01003000
10000000
01000000
00100000
00001000
00000100
00000010
00001000
,
00010000
00000100
00000001
00001000
00010000
00100000
10000000
01000000
,
00100000
00010000
00100000
00001000
00000000
00010000
00001000
00000000
00010000
00000100
00001000
00000100
00000000
00000010
00000001
00000000
,
00000100
00000001
00001000
00000100
00000000
00001000
00000100
00000000
00010000
00001000
00100000
00010000
00000000
00100000
00010000
00000000
,
01000000
00100000
10000000
01000000
00000000
01000000
00100000
00000000
00010000
00100000
00001000
00010000
00000000
00010000
00000100
00000000
,
00000010
00000001
00000100
00000010
00000000
00000010
00001000
00000000
00000100
00010000
00001000
00100000
00000000
00100000
00010000
00000000
,
10000000
01000000
00010000
00001000
00000010
00001000
00010000
00100000
,
00010000
00000100
00001000
01000000
00010000
00000010
00001000
00010000
,
01000000
00100000
10000000
00100000
01000000
00100000
10000000
00000000
01000000
00100000
00010000
00100000
01000000
00100000
00010000
00000000
,
00001000
00000100
00000010
00000100
00001000
00000100
00000010
00000000
00000001
00000100
00000010
00001000
00000100
00010000
00001000
01000000
,
00010000
00000000
00000000
00000000
;

//---------------dance-double - ----------------
#NOTES:
     dance-double:
     :
     Medium:
     8:
     0.335,0.366,0.035,0.165,0.000:
00000000
00000000
00000000
00000000
,
00000000
00000000
00000000
00000000
,
00000000
00000000
00000000
00000000
,
00000000
00000000
00000000
00000000
,
00000000
00000000
00000000
00000000
,
00001000
00000000
00000000
00010000
00000000
00000000
00000100
00000000
,
00000000
00010000
00001000
00010000
00000000
00001000
01000000
00001000
,
00000000
01000000
00100000
01000000
00000000
00100000
10000000
00100000
,
00000000
10000000
01000000
10000000
00000000
00010000
01000000
00000000
,
00010000
00010000
10000000
10010000
,
20000000
00000000
31000000
00000000
00010000
00001000
00000010
00000000
,
00000001
00000100
00000001
00001000
,
00000100
00010000
00001000
01000000
,
00100000
10000000
01000000
00010000
,
00001000
00000010
00000100
00010000
,
00001000
00000000
01000000
00000000
00100000
10000000
00010000
00000000
,
00100000
01000000
00001000
00000100
,
00000010
00000000
00000010
00000000
00000001
00000100
00000001
00000000
,
00000010
00000000
00000010
00000000
00000100
00001000
00000100
00000000
,
00010000
00001000
01000000
10000000
,
01000000
00100000
10000000
01000000
,
00010000
00000000
00001000
00000000
01000000
00100000
01000000
00000000
,
00001000
00000000
00010000
00000000
00000100
00000010
00000100
00000000
,
00011000
00000000
00011000
00000000
,
00001000
00000000
01000000
00000000
00100000
10000000
01000000
00010000
,
01000000
00000000
00000000
00100000
00000000
00000000
00002000
00000000
,
00000000
00000000
00000000
00003000
,
00010000
00000000
00000000
00000100
00000000
00000000
00000020
00000000
,
00000000
00000000
00000000
00000030
,
00000001
00000000
00000000
00000100
00000000
00000000
00002000
00000000
,
00000000
00000000
00000000
00003000
,
00010000
00000000
00000000
00100000
00000000
00000000
20000000
00000000
,
00000000
00000000
30010000
00010000
,
10000000
01000000
10000000
01000000
,
00100000
00010000
00100000
00010000
,
00001000
00000100
00001000
00000100
,
00000010
00000001
00000010
00000001
,
00001000
00000010
00001000
00000010
,
00010000
00000100
00010000
00000100
,
00010000
00001000
00010000
00000000
00001000
01000000
00001000
00000000
,
01000000
00000000
00100000
00000000
10000000
01000000
00100000
00000000
,
00020000
00000000
00000000
02030000
00000000
00000000
03100000
00000000
,
10000000
01000000
00010000
00001000
,
00000020
00000000
00000000
00000032
00000000
00000000
00000103
00000000
,
00000010
00000000
00001000
00000000
00000100
00010000
00000100
00000000
,
00020000
00000000
00000000
00032000
00000000
00000000
01003000
00000000
,
00100000
00000000
10000000
00000000
01000000
00100000
01000000
00000000
,
20000000
00000000
00000000
30200000
00000000
00000000
01300000
00000000
,
00001000
00000000
00010000
00000000
00000100
00001000
00000100
00000010
,
00000002
00000000
00000000
00000203
00000000
00000000
00000310
00000000
,
00001000
00000100
00001000
00000000
00000100
00010000
00000100
00000000
,
00020000
00000000
00000000
00032000
00000000
00000000
01003000
00000000
,
00100000
10000000
01000000
00100000
01000000
10000000
00100000
00000000
,
02000000
00000000
00000000
03002000
00000000
00000000
00013000
00000000
,
00000100
00000000
00000010
00000000
00000100
00001000
00000100
00000010
,
00000100
00010000
00001000
00100000
,
01000000
00010000
00001000
00000010
,
00000001
00000100
00000010
00000000
00000010
00000100
00000001
00000000
,
00000001
00001000
00010000
10000000
,
10000000
01000000
00100000
00000000
00100000
01000000
10000000
00000000
,
10000000
00010000
00001000
00000001
,
00000001
00000100
00001000
00010000
,
00100000
10000000
01000000
00001000
,
00000001
00000100
00000001
00000000
00000100
00000010
00000100
00000000
,
00000010
00010000
00000010
00000000
00010000
00001000
00010000
00000000
,
00011000
00000000
00000000
00000000
;

//---------------dance-double - ----------------
#NOTES:
     dance-double:
     :
     Easy:
     5:
     0.228,0.310,0.009,0.009,0.000: // measure 1
00000000
00000000
00000000
00000000
,  // measure 2
00000000
00000000
00000000
00000000
,  // measure 3
00000000
00000000
00000000
00000000
,  // measure 4
00000000
00000000
00000000
00000000
,  // measure 5
00000000
00000000
00000000
00000000
,  // measure 6
00001000
00000000
00000000
01000000
00000000
00000000
00010000
00000000
,  // measure 7
00000000
01000000
00000000
01000000
,  // measure 8
00100000
00000000
00000000
10000000
00000000
00000000
01000000
00000000
,  // measure 9
00000000
00100000
00000000
00100000
,  // measure 10
00000000
00010000
00000000
00010000
,  // measure 11
01000000
00100000
01000000
00000000
00010000
00000000
00000000
00000000
,  // measure 12
00010000
00100000
00001000
00000000
,  // measure 13
00010000
00000100
00000010
00000001
,  // measure 14
00001000
00000000
00000010
00000000
,  // measure 15
00000100
00000010
00001000
00000100
,  // measure 16
00010000
00000000
00010000
00000000
,  // measure 17
00001000
01000000
00010000
00100000
,  // measure 18
01000000
00000000
01000000
00000000
,  // measure 19
01000000
10000000
01000000
00000000
,  // measure 20
01000000
00000000
01000000
00000000
,  // measure 21
01000000
00100000
00001000
00000000
,  // measure 22
00010000
00000000
00010000
00000000
,  // measure 23
00000100
00000010
00000001
00000000
,  // measure 24
00000100
00001000
00000100
00000010
,  // measure 25
00001000
00000000
00000100
00010000
,  // measure 26
00001000
00000000
00000000
01000000
00000000
00000000
00010000
00000000
,  // measure 27
00000000
00000000
00000000
00000000
,  // measure 28
10000000
00000000
00000000
01000000
00000000
00000000
00010000
00000000
,  // measure 29
00000000
00000000
00000000
00000000
,  // measure 30
00001000
00000000
00000000
00000010
00000000
00000000
00000001
00000000
,  // measure 31
00000000
00000000
00000000
00000000
,  // measure 32
00000100
00000000
00000000
00001000
00000000
00000000
00010000
00000000
,  // measure 33
00000000
00000000
00000000
00000000
00100000
10000000
00100000
00000000
,  // measure 34
10000000
00000000
00000000
01000000
00000000
00000000
00010000
00000000
,  // measure 35
00000000
00000000
00000000
00000000
00000000
00000000
00000000
00001000
,  // measure 36
00001000
00000000
00000000
00000100
00000000
00000000
00000001
00000000
,  // measure 37
00000000
00000000
00000000
00000000
00001000
00000100
00001000
00000000
,  // measure 38
00000100
00000000
00000000
00010000
00000000
00000000
00000000
00000000
,  // measure 39
00000000
00000000
00000000
00000000
00000000
00001000
00000000
02000000
,  // measure 40
00000000
00000000
00000000
00000000
,  // measure 41
00000000
00000000
00000000
03000000
,  // measure 42
01000000
00000000
00000000
00100000
00000000
00000000
10000000
00000000
,  // measure 43
01000000
00100000
01000000
10000000
,  // measure 44
00010000
00000000
00000000
01000000
00000000
00000000
00001000
00000000
,  // measure 45
00010000
00000100
00010000
00000100
,  // measure 46
00001000
00000000
00000000
00000010
00000000
00000000
00000100
00000000
,  // measure 47
00000001
00000010
00000001
00000100
,  // measure 48
00000010
00000000
00000000
00010000
00000000
00000000
00001000
00000000
,  // measure 49
01000000
00000000
00010000
00000000
00100000
01000000
00100000
00000000
,  // measure 50
00010000
00000000
00000000
10000000
00000000
00000000
01000000
00000000
,  // measure 51
00010000
00001000
00000010
00000001
,  // measure 52
00001000
00000000
00000000
00000010
00000000
00000000
00000100
00000000
,  // measure 53
00000010
00000000
00010000
00000000
00001000
01000000
00001000
00000000
,  // measure 54
00010000
00000000
00000000
01000000
00000000
00000000
10000000
00000000
,  // measure 55
00100000
00000000
01000000
00000000
00010000
01000000
00000000
00100000
,  // measure 56
00000000
10000000
10000000
10000000
,  // measure 57
10000000
01000000
10000000
00000000
10000000
01000000
10000000
00000000
,  // measure 58
10000000
01000000
00010000
00001000
,  // measure 59
00000100
00000001
00000010
00000001
,  // measure 60
00000100
00001000
00010000
00100000
,  // measure 61
10000000
01000000
00010000
00001000
,  // measure 62
00000010
00000001
00000100
00000001
,  // measure 63
00000010
00001000
00010000
01000000
,  // measure 64
10000000
00100000
00010000
00100000
,  // measure 65
10000000
01000000
10000000
00000000
00010000
01000000
00010000
00000000
,  // measure 66
10010000
00000000
00000000
00000000
;
