#TITLE:蛇神;
#SUBTITLE:;
#ARTIST:Zektbach;
#TITLETRANSLIT:Kagachi;
#SUBTITLETRANSLIT:;
#ARTISTTRANSLIT:;
#GENRE:;
#CREDIT:Silverhawke;
#MENUCOLOR:;
#METERTYPE:DDR;
#BANNER:Kagachi.png;
#BACKGROUND:Kagachi-bg.png;
#LYRICSPATH:;
#CDTITLE:cdtitle.png;
#MUSIC:Kagachi.mp3;
#OFFSET:-0.028;
#SAMPLESTART:86.129;
#SAMPLELENGTH:15.000;
#SELECTABLE:YES;
#LISTSORT:;
#BPMS:0.000=170.000;
#STOPS:;
#BGCHANGES:0.000=Kagachi.avi=1.000=1=1=0,
99999=-nosongbg-=1.000=0=0=0 // don't automatically add -songbackground-
;
#ATTACKS:;

//---------------dance-single - ----------------
#NOTES:
     dance-single:
     :
     Hard:
     12:
     0.648,0.683,0.539,0.587,0.117:
0000
0000
0000
0000
,
0000
0000
0000
0000
,
0000
0000
0000
0000
,
0000
0000
0000
0000
,
0010
0000
1000
0000
0001
0010
0001
0000
0000
0000
0100
0000
0010
1000
0010
0000
,
0000
0000
1000
0000
0001
0010
0000
0100
1000
0000
0100
0000
0010
0000
0001
0000
,
0100
0000
0010
0000
1000
0100
1000
0000
0000
0000
0001
0000
0010
0100
0010
0000
,
0000
0000
0001
0000
1000
0010
0000
0100
0001
0000
0010
0000
0100
0000
1000
0000
,
0001
0000
0100
0000
0010
1000
0001
0000
0000
0000
0100
0000
0001
1000
0100
0000
,
0000
0000
0010
0000
0100
1000
0000
0001
0010
0000
0001
0000
0100
0000
0010
0000
,
1000
0000
0100
0000
0010
0100
1000
0000
0000
0000
0001
0000
0100
0010
1000
0000
,
0000
0000
0001
0000
1000
0100
0000
0010
0100
0000
1000
0000
0010
0000
0100
0000
,
0101
0000
0000
1100
0000
0000
1010
0000
,
0110
0000
0000
0101
0000
0000
0011
0000
,
0110
0000
0000
1100
0000
0000
1010
0000
,
0011
0000
0000
0101
0000
0000
1100
0000
,
1010
0000
0010
0100
0001
0010
0110
0000
,
1100
0000
1000
0100
0001
0100
1100
0000
,
1010
0000
0010
0100
0001
0010
0110
0000
,
1001
0000
0001
0100
1000
0100
0002
0000
,
0003
0000
0000
0000
,
1200
0000
0000
0320
,
0032
0000
0000
0000
,
0003
0000
2000
0000
,
3020
0000
0230
0300
,
0012
0010
0010
2003
,
3200
0010
0010
0010
,
0310
0100
2000
0010
,
3002
0100
2003
3100
,
1001
0000
0000
0100
0000
0000
0010
0000
0000
0000
0100
0000
1100
0000
0000
0000
,
0001
0000
0000
0100
0000
0000
0010
0000
0000
0000
1000
0000
1001
0000
0000
0000
,
0100
0000
0000
0010
0000
0000
1000
0000
0000
0000
0001
0000
0011
0000
0000
0000
,
0010
0000
0000
0100
0000
0000
1000
0000
0000
0000
0001
0000
0101
0000
0000
0000
,
1100
0000
0000
0100
0010
0000
0100
0000
0000
0000
1000
0000
1001
0000
0000
0000
,
0101
0000
0000
0100
0010
0000
0100
0000
0000
0000
0001
0000
0011
0000
0000
0000
,
0110
0000
0000
0100
1000
0000
0010
0000
0000
0000
0100
0000
0101
0000
0000
0000
,
1001
0000
0000
0100
0010
0000
1000
0000
0100
0000
0001
0000
0100
0000
1000
0000
,
0020
1000
0230
1000
,
0302
1000
0100
1000
,
0013
0100
2000
0001
,
3200
0001
0320
0001
,
0230
1000
0320
0001
,
0230
1000
0010
0001
,
0310
0001
2000
0100
,
3002
0010
0203
1000
,
0301
0000
1000
0100
0010
0000
0110
0000
,
0100
0000
1000
0001
0100
0000
0110
0000
,
0010
0000
1000
0001
0010
0000
0011
0000
,
0001
0000
1000
0100
0001
0000
0101
0000
,
0100
1000
0001
0100
0110
0000
1001
0000
,
0010
1000
0100
0010
0011
0000
1100
0000
,
0001
0100
1000
0100
0101
0000
1010
0000
,
1000
0000
1000
0000
0001
0000
0001
0000
0100
0000
0010
0000
1000
0001
1000
0001
,
0020
0000
0230
0000
2300
0000
3000
0001
,
0200
0000
0000
0000
0310
0000
0010
1000
0200
0000
0000
0000
0300
0000
0000
0000
,
0020
0000
0032
0000
2003
0000
3000
0001
,
0200
0310
2002
3003
,
0002
0000
0023
0000
0230
0000
0300
1000
,
0020
0000
0000
0000
0130
0000
0100
0001
0020
0000
0000
0000
0030
0000
0000
0000
,
0200
0000
2300
0000
3002
0000
0003
0100
,
0020
1030
2002
3003
,
0010
1000
0100
1000
0010
0100
0002
0010
,
1003
0010
0100
0001
0010
0100
1000
0100
,
0010
0001
0100
1000
0100
0001
0020
0100
,
0031
1000
0100
0010
0100
1000
0001
0100
,
0020
0000
2030
0000
3002
0000
0003
0010
,
0110
1100
1001
0101
,
0120
0001
2030
0100
,
3002
0000
0000
0000
0100
0000
0000
0000
0103
0000
0100
0000
0100
0000
0100
0010
,
1000
0000
0001
0101
0000
1000
1100
0000
,
0010
0000
0100
0101
0000
0010
0110
0000
,
1000
0000
0001
0101
0000
1000
1100
0000
,
0010
0000
0100
0101
0000
0010
1010
0000
,
0100
0001
0010
0110
0100
1000
1001
0000
,
0001
0100
0010
0110
0100
0001
1001
0000
,
1000
0100
0010
0110
0100
1000
1001
0000
,
0110
0100
0001
0011
0010
0100
1100
1000
,
0002
0000
0203
0000
0320
0000
0030
1000
,
0200
0320
0230
1300
,
0020
0000
0230
0000
0302
0000
0003
1000
,
0020
0230
0302
0013
,
0100
1000
0010
1000
0200
0000
0310
0001
,
0100
0001
0020
0000
0230
0000
1300
0000
,
0001
0100
1000
0100
0002
0000
1003
0100
,
0001
0100
2000
0000
3020
0000
0100
0030
;

//---------------dance-single - ----------------
#NOTES:
     dance-single:
     :
     Medium:
     10:
     0.464,0.580,0.064,0.467,0.000:
0000
0000
0000
0000
,
0000
0000
0000
0000
,
0000
0000
0000
0000
,
0000
0000
0000
0000
,
0001
0100
0010
0000
0001
0100
0010
0000
,
0001
0100
0010
1000
0100
0010
0001
0000
,
1000
0100
0010
0000
1000
0100
0010
0000
,
1000
0100
0010
0001
0100
0010
1000
0000
,
0010
1000
0100
0000
0010
1000
0100
0000
,
0010
1000
0100
0010
0001
1000
0010
0000
,
0100
0001
0010
0000
0100
0001
0010
0000
,
0100
0001
0010
0100
1000
0001
0100
0000
,
0001
0000
0000
1000
0000
0000
1100
0000
,
0100
0000
0000
0010
0000
0000
0011
0000
,
0001
0000
0000
1000
0000
0000
1010
0000
,
0010
0000
0000
0100
0000
0000
0101
0000
,
0001
0000
0001
0010
0000
0010
0100
0000
,
1000
0000
1000
0010
0000
0010
0100
0000
,
0001
0000
0001
1000
0000
1000
0100
0000
,
0010
0000
0010
0001
0000
0001
1000
0000
,
0000
0000
0000
0000
,
0002
0000
0000
0103
,
0020
0000
0000
0000
,
0030
0000
1000
0000
,
0001
0000
0100
0000
,
0020
0000
0000
1030
,
0200
0000
0000
0000
,
0300
0000
0010
0000
,
0001
0000
1000
0000
,
0010
0000
0100
0001
0000
0001
0100
0000
,
0010
0000
1000
0100
0000
0100
1000
0000
,
0001
0000
0010
0100
0000
0100
1000
0000
,
0001
0000
0100
0010
0000
0010
1000
0000
,
0001
0000
1000
0100
0000
0010
0001
0000
,
0100
0000
0010
1000
0000
0001
0100
0000
,
0010
0000
1000
0100
0000
0010
0001
0000
,
0100
0000
0010
1000
0100
0010
0001
0000
,
2000
3100
0002
0103
,
2000
0000
3100
0000
0010
0001
0010
0000
,
0100
1000
0002
0103
,
2000
3100
0002
0013
,
2000
3100
0020
0031
,
0200
0000
0310
0000
1000
0001
1000
0000
,
0100
0010
0002
0103
,
2000
3010
0200
0301
,
2000
0001
0001
3001
,
0200
0010
0010
0310
,
0002
1000
1000
1003
,
0020
0100
0100
0130
,
2000
3000
2000
3000
2000
3000
2000
3000
,
0200
0300
0200
0300
0200
0300
0200
0300
,
0002
0003
0002
0003
0002
0003
0002
0003
,
0020
0030
0020
0030
0010
1000
0010
0100
,
0001
0000
1000
0000
0100
0000
0000
0010
,
0001
0100
0110
0000
,
0001
0000
0100
0000
0010
0000
0000
1000
,
0100
0010
1001
0000
,
1000
0000
0100
0000
0010
0000
0000
0001
,
0100
0010
0110
0000
,
1000
0000
0001
0000
0100
0000
0000
1000
,
0100
0010
1001
0000
,
2000
0000
3100
0000
0010
0001
0100
0000
,
0020
0000
1030
0000
0001
1000
0100
0000
,
0020
0000
0031
0000
0100
0010
1000
0000
,
0002
0000
0013
0000
0100
1000
0001
0000
,
0200
0000
0320
0000
2030
0000
3000
0001
,
0010
0100
1000
0001
,
0200
0300
0020
0030
,
1000
0000
1000
0000
1000
0001
1000
0001
,
0010
0000
0010
0100
0000
0100
1000
0000
,
0001
0000
0001
0100
0000
0100
0010
0000
,
1000
0000
1000
0001
0000
0001
0010
0000
,
0001
0000
0001
0100
0000
0100
0010
0000
,
1000
0000
1000
0100
0000
0010
0001
0000
,
1000
0000
1000
0010
0000
0100
0001
0000
,
0010
0000
0010
0100
0000
1000
0001
0000
,
1000
0000
0100
0010
0001
0100
0010
0000
,
0100
0000
0001
0000
1000
0000
0000
0100
,
0010
0001
0200
0300
,
0001
0000
1000
0000
0100
0000
0000
0010
,
0100
1000
0002
0003
,
0200
0000
0320
0000
2030
0000
3000
0001
,
0020
0230
2300
3000
,
0002
0000
0203
0000
0320
0000
0030
2000
,
3200
0320
0230
0300
;

//---------------dance-single - ----------------
#NOTES:
     dance-single:
     :
     Easy:
     5:
     0.225,0.239,0.000,0.024,0.000: // measure 1
0000
0000
0000
0000
,  // measure 2
0000
0000
0000
0000
,  // measure 3
0000
0000
0000
0000
,  // measure 4
0000
0000
0000
0000
,  // measure 5
0001
0000
1000
0000
,  // measure 6
0001
1000
0010
0000
,  // measure 7
0100
0000
0010
0000
,  // measure 8
0100
0010
1000
0000
,  // measure 9
1000
0000
0001
0000
,  // measure 10
1000
0001
0010
0000
,  // measure 11
0100
0000
0010
0000
,  // measure 12
0100
0010
0001
0000
,  // measure 13
1000
0000
0000
1000
0000
0000
0000
0000
,  // measure 14
0100
0000
0000
0100
0000
0000
0000
0000
,  // measure 15
0001
0000
0000
0001
0000
0000
0000
0000
,  // measure 16
0010
0000
0000
0010
0000
0000
0000
0000
,  // measure 17
1000
0000
0000
1000
0000
0000
1000
0000
,  // measure 18
0010
0000
0000
0010
0000
0000
0010
0000
,  // measure 19
0100
0000
0000
0100
0000
0000
0100
0000
,  // measure 20
0001
0000
0000
0001
0000
0000
0001
0000
,  // measure 21
0000
0000
0000
0000
,  // measure 22
1000
0000
0000
0100
,  // measure 23
0020
0000
0000
0000
,  // measure 24
0030
0000
0001
0000
,  // measure 25
0100
0000
0010
0000
,  // measure 26
1000
0000
0000
0001
,  // measure 27
0020
0000
0000
0000
,  // measure 28
0030
0000
0100
0000
,  // measure 29
1000
0000
0001
0000
,  // measure 30
0100
0000
0100
0000
,  // measure 31
0001
0000
0001
0000
,  // measure 32
0010
0000
0010
0000
,  // measure 33
1000
0000
1000
0000
,  // measure 34
0100
0000
0100
0000
,  // measure 35
0010
0000
0010
0000
,  // measure 36
0001
0000
0001
0000
,  // measure 37
0100
0010
0100
0010
,  // measure 38
1000
0000
0001
0000
,  // measure 39
0010
0100
0000
0100
,  // measure 40
0000
0100
1000
0000
,  // measure 41
0010
0000
0100
0000
,  // measure 42
0001
0000
1000
0000
,  // measure 43
0100
0010
0000
0010
,  // measure 44
0000
0010
0001
0000
,  // measure 45
0100
0000
0010
0000
,  // measure 46
1000
1000
1000
0000
,  // measure 47
0001
0001
0001
0000
,  // measure 48
0100
0100
0100
0000
,  // measure 49
0010
0010
0010
0000
,  // measure 50
1000
0100
1000
0000
,  // measure 51
0100
0001
0100
0000
,  // measure 52
0001
0010
0001
0000
,  // measure 53
0010
1000
0010
1000
,  // measure 54
0100
0000
0010
0000
,  // measure 55
0001
0000
1000
0000
,  // measure 56
0010
0000
0100
0000
,  // measure 57
0001
0000
1000
0000
,  // measure 58
0001
0000
0100
0000
,  // measure 59
0010
0000
1000
0000
,  // measure 60
0100
0000
0010
0000
,  // measure 61
0001
0000
1000
0000
,  // measure 62
0100
0000
0100
0010
,  // measure 63
0001
0000
0001
0000
,  // measure 64
1000
0000
1000
0010
,  // measure 65
0100
0000
0100
0000
,  // measure 66
0001
1000
0001
0000
,  // measure 67
1000
0100
1000
0000
,  // measure 68
0100
0000
0010
0000
,  // measure 69
0001
0001
0001
0001
,  // measure 70
0001
0000
1000
0000
,  // measure 71
0100
0000
0010
0000
,  // measure 72
0001
0000
0100
0000
,  // measure 73
0010
1000
0100
0000
,  // measure 74
0010
0000
0001
0000
,  // measure 75
0100
0000
0010
0000
,  // measure 76
0100
0000
0001
0000
,  // measure 77
0010
0100
1000
0000
,  // measure 78
0001
0100
0001
0000
,  // measure 79
1000
0100
1000
0000
,  // measure 80
0001
0010
0001
0000
,  // measure 81
1000
0010
1000
0000
,  // measure 82
0001
0100
0001
0000
,  // measure 83
0100
1000
0100
0000
,  // measure 84
1000
0010
1000
0000
,  // measure 85
0010
0001
0020
0030
;

//---------------dance-double - ----------------
#NOTES:
     dance-double:
     :
     Hard:
     12:
     0.640,0.649,0.443,0.571,0.137:
00000000
00000000
00000000
00000000
,
00000000
00000000
00000000
00000000
,
00000000
00000000
00000000
00000000
,
00000000
00000000
00000000
00000000
,
10000000
00000000
01000000
00000000
00100000
01000000
00000000
00000000
00100000
00000000
00001000
00000000
00010000
00001000
00000000
00000000
,
00010000
00000000
00000100
00000000
00001000
00000100
00000000
00000100
00000010
00000000
00000001
00000000
00000100
00000000
00000010
00000000
,
00000100
00000000
00000001
00000000
00000100
00000010
00000000
00000000
00001000
00000000
00000100
00000000
00010000
00001000
00000000
00000000
,
00100000
00000000
00010000
00000000
01000000
00100000
00000000
00100000
10000000
00000000
01000000
00000000
00010000
00000000
00001000
00000000
,
00000100
00000000
00000010
00000000
00010000
00000010
00000000
00000000
00001000
00000000
00000100
00000000
00000010
00000001
00000000
00000000
,
00000010
00000000
00000100
00000000
00010000
00001000
00000000
00001000
01000000
00000000
00100000
00000000
10000000
00000000
01000000
00000000
,
00100000
00000000
00001000
00000000
00100000
00010000
00000000
00000000
01000000
00000000
10000000
00000000
01000000
00100000
00000000
00000000
,
10000000
00000000
01000000
00000000
00010000
00001000
00000000
00001000
00000100
00000000
00000010
00000000
00001000
00000000
00000001
00000000
,
00000011
00000000
00000000
00000101
00000000
00000000
00001010
00000000
,
00001100
00000000
00000000
00010100
00000000
00000000
00011000
00000000
,
01001000
00000000
00000000
01100000
00000000
00000000
10100000
00000000
,
11000000
00000000
00000000
00110000
00000000
00000000
00101000
00000000
,
00011000
00000000
00001000
00010000
00000100
00000010
00000011
00000000
,
00000101
00000000
00000100
00000010
00010000
00001000
01001000
00000000
,
01010000
00000000
00010000
00100000
01000000
10000000
10100000
00000000
,
01010000
00000000
01000000
00001000
00010000
00000100
00000020
00000000
,
00000030
00000000
00000000
00000000
,
00000002
00000000
00000000
00000203
,
00002300
00000000
00000000
00000000
,
00003000
00000000
00020000
00000000
,
02030000
00000000
03200000
00000000
,
00301000
00000000
00000000
00010000
00000000
00010000
00001000
00000000
00000000
00010000
00000000
00000000
,
00000100
00000000
00000000
00000010
00000000
00000010
00000001
00000000
00000000
00000100
00000000
00000000
,
00000010
00000000
00000000
00010000
00000000
00010000
00001000
00000000
00000000
01000000
00000000
00000000
,
00010000
00000000
00000000
10000000
00000000
10000000
01000000
00000000
00000000
00100000
00001000
00100000
,
00001000
00000000
00000000
00010000
00000000
00000000
00000100
00000000
00000000
00000000
00001000
00000000
00001010
00000000
00000000
00000000
,
00000010
00000000
00000000
00000100
00000000
00000000
00000001
00000000
00000000
00000000
00001000
00000000
00001100
00000000
00000000
00000000
,
00000100
00000000
00000000
00010000
00000000
00000000
00001000
00000000
00000000
00000000
01000000
00000000
01100000
00000000
00000000
00000000
,
00100000
00000000
00000000
10000000
00000000
00000000
00010000
00000000
00000000
00000000
00100000
00000000
00101000
00000000
00000000
00000000
,
00001000
00000000
00000000
00010000
00000100
00000000
00001000
00000000
00000000
00000000
00000010
00000000
00000110
00000000
00000000
00000000
,
00000100
00000000
00000000
00000001
00001000
00000000
00000100
00000000
00000000
00000000
00010000
00000000
00011000
00000000
00000000
00000000
,
00001000
00000000
00000000
01000000
00100000
00000000
10000000
00000000
00000000
00000000
01000000
00000000
01010000
00000000
00000000
00000000
,
00010000
00000000
00000000
00001000
00000100
00000000
00000001
00000000
00000100
00000000
00001000
00000000
00010000
00000000
00100000
00000000
,
20000000
00000000
31000000
00100000
00020000
00000000
01030000
00001000
,
00020000
00000000
00030100
00001000
00000010
00000100
00000001
00000010
,
00000100
00000000
00000010
00000000
00000002
00000000
00000103
00001000
,
00020000
00000000
00031000
00100000
01000000
10000000
01000000
00100000
,
00020000
00000000
01030000
00001000
00020000
00000000
00030100
00001000
,
00000020
00000000
00000130
00000001
00001000
00000100
00000010
00000100
,
00001000
00000000
00000001
00000000
00000020
00000000
00000130
00010000
,
00002000
00000000
01003000
00010000
00200000
00000000
01300000
10000000
,
00010000
01010000
10100000
01010000
,
10000000
01100000
01001000
01100000
,
00001000
00010100
00001100
00010100
,
00000010
00000101
00001010
00000101
,
00000010
00000000
00001000
00000100
00010000
00001000
01001000
00000000
,
00010000
00000000
10000000
01000000
00010000
00001000
00001100
00000000
,
00000010
00000000
00010000
00001000
00000100
00000010
00010010
00000000
,
00001000
00000000
00001000
00000000
01000000
00000000
01000000
00000000
00010000
00000000
00100000
00000000
01000000
10000000
01000000
10000000
,
00020000
00000000
02030000
00000000
03200000
00000000
00000000
10300000
,
02000000
00000000
00000000
00000000
03100000
00000000
00001000
00010000
00002000
00000000
00000000
00000000
00000000
00000000
00000000
00000000
,
00023000
00000000
00030200
00000000
00000320
00000000
00000000
00000031
,
00000200
00000310
00002002
00003003
,
00002000
00000000
00003200
00000000
00000320
00000000
00000000
00000031
,
00000200
00000000
00000000
00000000
00000310
00000000
00010000
00001000
00020000
00000000
00000000
00000000
00000000
00000000
00000000
00000000
,
00032000
00000000
02003000
00000000
03200000
00000000
00000000
10300000
,
02000000
03100000
20020000
30030000
,
10000000
01000000
00100000
00010000
01000000
00010000
00200000
00000000
,
00302000
00000000
00013000
00000100
00000010
00000001
00000100
00000010
,
00002000
00000000
00003100
00010000
00001000
01000000
00200000
00000000
,
20300000
00000000
31000000
00010000
00001000
00000100
00000010
00000100
,
00002000
00000000
00023000
00000000
00230000
00000000
10300000
01000000
,
01100000
00101000
00011000
00010010
,
00000020
00000130
00000200
00000301
,
00000002
00000000
00001003
00000100
00000010
00000001
00000100
00001000
,
00010000
00000000
00001000
01000000
00000000
01000000
00100000
00000000
,
10000000
00000000
01000000
00100000
00000000
00100000
00001000
00000000
,
00010000
00000000
00000100
00001000
00000000
00001000
00000010
00000000
,
00000100
00000000
00000001
00000010
00000000
00000010
00000100
00000000
,
00010000
00000000
00001000
01001000
00000000
01000000
01100000
00000000
,
00100000
00000000
10000000
11000000
00000000
01000000
01100000
00000000
,
00100000
00000000
00001000
00011000
00000000
00010000
00010010
00000000
,
00000010
00000000
00000100
00000101
00000001
00000010
00000110
00000100
,
00002000
00000000
00003200
00000000
00020300
00000000
00000000
00031000
,
02000000
03200000
20300000
31000000
,
00200000
00000000
00302000
00000000
00023000
00000000
00000000
00030100
,
00002000
00003020
00000230
00000301
,
00000020
00000000
00000130
00001000
00000002
00000000
00000103
00001000
,
00020000
00230000
20300000
30010000
,
00200000
00000000
01300000
10000000
00020000
00000000
00031000
00000010
,
00000200
00000000
00000301
00000010
00001000
00010000
01000000
10000000
;

//---------------dance-double - ----------------
#NOTES:
     dance-double:
     :
     Medium:
     9:
     0.432,0.477,0.129,0.427,0.000:
00000000
00000000
00000000
00000000
,
00000000
00000000
00000000
00000000
,
00000000
00000000
00000000
00000000
,
00000000
00000000
00000000
00000000
,
00000001
00000010
00000100
00000000
00001000
00000100
00000010
00000000
,
00000001
00000010
00000100
00000000
00010000
00001000
00100000
00010000
,
01000000
00100000
10000000
00000000
00100000
01000000
00010000
00000000
,
01000000
00100000
10000000
00000000
00100000
01000000
00001000
00010000
,
00000010
00001000
00000100
00000000
00000010
00000001
00000100
00000000
,
00000010
00001000
00000100
00000000
00000010
00000001
00000100
00000010
,
00010000
00001000
00100000
00000000
00001000
00010000
00000100
00000000
,
00010000
00001000
00100000
00000000
00001000
00100000
00010000
01000000
,
00010000
00000000
00000000
00100000
00000000
00000000
00110000
00000000
,
10000000
00000000
00000000
01000000
00000000
00000000
11000000
00000000
,
00100000
00000000
00000000
00001000
00000000
00000000
00011000
00000000
,
00010000
00000000
00000000
00000100
00000000
00000000
00001100
00000000
,
00001000
00000000
00000000
00000010
00000000
00000000
00000110
00000000
,
00000001
00000000
00000000
00001000
00000000
00000000
00001100
00000000
,
00000100
00000000
00000000
00010000
00000000
00000000
00011000
00000000
,
00001000
00000000
00000000
01000000
00000000
00000000
01100000
00000000
,
00000000
00000000
00000000
00000000
,
20000000
00000000
00000000
32000000
,
03200000
00000000
00000000
00000000
,
00300000
00000000
00002000
00000000
,
00023000
00000000
00030200
00000000
,
00000320
00000000
00000000
00000032
,
00000203
00000000
00000000
00000000
,
00000300
00000000
00000020
00000000
,
00020030
00000000
00032000
00000000
,
00203000
01000000
01000000
01300000
,
20000000
00010000
00010000
30010000
,
00200000
00001000
00001000
00301000
,
00020000
00000100
00000100
00030100
,
00000020
00000100
00000100
00000130
,
00000002
00000010
00000010
00000013
,
00002000
00000010
00000010
00003010
,
00000001
00000000
00000010
00000100
00010000
00000000
00011000
00000000
,
00002000
01003000
02000000
03010000
,
00020000
00000000
00130000
00000000
01000000
10000000
01000000
00000000
,
10000000
00100000
02000000
03010000
,
00020000
00130000
00200000
00301000
,
00002000
00013000
00020000
00030010
,
00000020
00000000
00000130
00000000
00000001
00001000
00000001
00000000
,
00000010
00000100
00020000
00031000
,
00002000
00103000
00200000
01300000
,
10000000
00100000
10000000
10100000
,
00010000
00100000
00010000
00110000
,
00100000
00001000
00010000
00011000
,
00001000
00010000
00000010
00010010
,
00010000
00000100
00000010
00000110
,
00000100
00001000
00000001
00001001
,
00001000
00000010
00010000
00011000
,
00001000
00100000
00001000
00100000
01000000
10000000
01000000
00000000
,
20000000
00000000
30200000
00000000
,
00320000
00000000
00032000
00000000
,
00003200
00000000
00000302
00000000
,
00000023
00000000
00002030
00000000
,
00003020
00000000
00000032
00000000
,
00000203
00000000
00002300
00000000
,
00023000
00000000
00230000
00000000
,
20300000
00000000
32000000
00000000
,
03100000
00010000
00100000
00000000
01000000
00000000
10000000
00000000
,
00100000
00010000
00001000
00000100
,
00000001
00001000
00000001
00000000
00000010
00000000
00000100
00000000
,
00010000
00001000
00100000
01000000
,
10000000
00000000
00100000
00000000
01000000
00000000
00000000
00010000
,
00100000
00001000
00010000
00000010
,
00002000
00000000
00003200
00000000
,
00000310
00000000
00000001
00000000
00000010
00000001
00000010
00000000
,
00000001
00000000
00001000
00000010
00010000
00000000
00001000
00000000
,
00100000
00000000
00010000
01000000
00100000
00000000
10000000
00000000
,
00010000
00000000
10000000
00100000
00000000
00000000
01000000
00000000
,
00010000
00000000
00100000
00001000
00000000
00000000
00010000
00000000
,
00000010
00000000
00001000
00000100
00000010
00000000
00000001
00000000
,
00001000
00000000
00000001
00000010
00000001
00000000
00001000
00000000
,
00000010
00000000
00010000
00001000
00000000
00000000
00100000
00000000
,
00010000
00000000
01000000
00100000
00000000
00000000
10000000
00000000
,
00010000
00000000
00100000
00000000
01000000
00000000
00000000
10000000
,
00100000
00010000
00002000
00003100
,
00000100
00000000
00000001
00000000
00001000
00000000
00000000
00000001
,
00000010
00001000
00020000
00130000
,
00100000
00000000
01000000
00000000
00001000
00000000
00000000
00010000
,
00000010
00001000
00000200
00000310
,
00000010
00000000
00000001
00000000
00000010
00000000
00000000
00001000
,
00010000
00100000
20000000
30010000
;

//---------------dance-double - ----------------
#NOTES:
     dance-double:
     :
     Easy:
     5:
     0.237,0.273,0.000,0.016,0.000:
00000000
00000000
00000000
00000000
,
00000000
00000000
00000000
00000000
,
00000000
00000000
00000000
00000000
,
00000000
00000000
00000000
00000000
,
00010000
00001000
00010000
00001000
,
00010000
00010000
00010000
00000000
,
00001000
00010000
00001000
00010000
,
00001000
00001000
00001000
00000000
,
00010000
00000100
00010000
00001000
,
00100000
00100000
00100000
00000000
,
00001000
01000000
00001000
00010000
,
00000010
00000010
00000010
00000000
,
00010000
00000000
00000000
00010000
00000000
00000000
00000000
00000000
,
00001000
00000000
00000000
00001000
00000000
00000000
00000000
00000000
,
00000100
00000000
00000000
00000100
00000000
00000000
00000000
00000000
,
00000010
00000000
00000000
00000010
00000000
00000000
00000000
00000000
,
00010000
00000000
00000000
00010000
00000000
00000000
00010000
00000000
,
00001000
00000000
00000000
00001000
00000000
00000000
00001000
00000000
,
01000000
00000000
00000000
01000000
00000000
00000000
01000000
00000000
,
00100000
00000000
00000000
00100000
00000000
00000000
00100000
00000000
,
00000000
00000000
00000000
00000000
,
10000000
00000000
00000000
01000000
,
00020000
00000000
00000000
00000000
,
00030000
00000000
00001000
00000000
,
00000100
00000000
00000001
00000000
,
00001000
00000000
00000000
00000100
,
00020000
00000000
00000000
00000000
,
00030000
00000000
00001000
00000000
,
01000000
00000000
00100000
00000000
,
10000000
00010000
01000000
00100000
,
01000000
00000000
00001000
00000000
,
00010000
00000100
00001000
00000010
,
00000100
00000000
00000001
00000000
,
00000010
00000100
00010000
00001000
,
01000000
00000000
00010000
00000000
,
00100000
01000000
10000000
00010000
,
01000000
00000000
00100000
00000000
,
10000000
00000000
01000000
00000000
,
00100000
00010000
00000000
00010000
,
00000000
00010000
00001000
00000000
,
00000100
00000000
00000010
00000000
,
00000001
00000000
00000100
00000000
,
00000010
00001000
00000000
00001000
,
00000000
00001000
00010000
00000000
,
01000000
00000000
00100000
00000000
,
10000000
00010000
10000000
00000000
,
00010000
01000000
00010000
00000000
,
01000000
00001000
01000000
00000000
,
00001000
00010000
00001000
00000000
,
00010000
00000100
00010000
00000000
,
00000100
00001000
00000100
00000000
,
00001000
00000010
00001000
00000000
,
00000010
00000100
00000001
00000000
,
00001000
00000100
00000010
00000000
,
00000001
00000000
00000100
00000000
,
00001000
00000000
00010000
00000000
,
00100000
00000000
10000000
00000000
,
00010000
00100000
01000000
00000000
,
00100000
00000000
00001000
00000000
,
00010000
00000000
00000100
00000000
,
00000010
00000000
00000001
00000000
,
00001000
00000100
00000010
00000001
,
00001000
00000000
00000000
00000000
,
00000001
00000100
00000010
00010000
,
00001000
00000000
00000000
00000000
,
01000000
00010000
00100000
00000000
,
01000000
10000000
00010000
00000000
,
10000000
00000000
01000000
00000000
,
00100000
00000000
00000000
00000000
,
00001000
00000000
00000000
00010000
,
00000100
00000000
00001000
00000000
,
00000010
00000000
00000100
00000000
,
00000001
00000000
00001000
00000000
,
00000001
00000000
00000000
00000010
,
00000100
00000000
00010000
00000000
,
00001000
00000000
01000000
00000000
,
00010000
00000000
00100000
00000000
,
01000000
10000000
00010000
00000000
,
10000000
01000000
00010000
00000000
,
00001000
00010000
00000100
00000000
,
00010000
00001000
00010000
00000000
,
00001000
00010000
00000100
00000000
,
00001000
00000001
00000100
00000000
,
00000010
00000100
00000001
00000000
,
00001000
00000100
00000010
00000001
;

//---------------dance-single - ----------------
#NOTES:
     dance-single:
     :
     Beginner:
     2:
     0.149,0.169,0.000,0.080,0.000: // measure 1
0000
0000
0000
0000
,  // measure 2
0000
0000
0000
0000
,  // measure 3
0000
0000
0000
0000
,  // measure 4
0000
0000
0000
0000
,  // measure 5
1000
0000
1000
0000
,  // measure 6
1000
0000
0000
0000
,  // measure 7
0001
0000
0001
0000
,  // measure 8
0001
0000
0000
0000
,  // measure 9
0100
0000
0100
0000
,  // measure 10
0100
0000
0000
0000
,  // measure 11
0010
0000
0010
0000
,  // measure 12
0010
0000
0000
0000
,  // measure 13
1000
0000
0000
0001
,  // measure 14
0001
0000
0000
0100
,  // measure 15
0100
0000
0000
0010
,  // measure 16
0010
0000
0000
1000
,  // measure 17
1000
0000
0000
0100
,  // measure 18
0100
0000
0000
0010
,  // measure 19
0010
0000
0000
0001
,  // measure 20
0001
0000
0000
1000
,  // measure 21
0000
0000
0000
0000
,  // measure 22
0001
0000
0000
0010
,  // measure 23
0020
0000
0000
0000
,  // measure 24
0030
0000
0100
0000
,  // measure 25
0100
0000
1000
0000
,  // measure 26
1000
0000
0000
0001
,  // measure 27
0002
0000
0000
0000
,  // measure 28
0003
0000
0100
0000
,  // measure 29
0100
0000
0010
0000
,  // measure 30
0020
0000
0030
0000
,  // measure 31
2000
0000
3000
0000
,  // measure 32
0002
0000
0003
0000
,  // measure 33
0020
0000
0030
0000
,  // measure 34
0200
0000
0300
0000
,  // measure 35
2000
0000
3000
0000
,  // measure 36
0002
0000
0003
0000
,  // measure 37
0200
0000
0300
0000
,  // measure 38
0010
0000
0010
0000
,  // measure 39
0010
0000
0000
0000
,  // measure 40
0100
0000
0100
0000
,  // measure 41
0100
0000
0000
0000
,  // measure 42
0001
0000
0001
0000
,  // measure 43
0001
0000
0000
0000
,  // measure 44
1000
0000
1000
0000
,  // measure 45
1000
0000
0000
0000
,  // measure 46
0100
0000
0100
0000
,  // measure 47
0010
0000
0010
0000
,  // measure 48
0100
0000
0000
0000
,  // measure 49
0010
0000
0000
0000
,  // measure 50
0001
0000
0001
0000
,  // measure 51
1000
0000
1000
0000
,  // measure 52
0001
0000
0000
0000
,  // measure 53
1000
0000
0000
0000
,  // measure 54
0001
0000
0000
0000
,  // measure 55
0100
0000
0000
0000
,  // measure 56
1000
0000
0000
0000
,  // measure 57
0010
0000
0000
0000
,  // measure 58
0001
0000
0000
0000
,  // measure 59
0010
0000
0000
0000
,  // measure 60
1000
0000
0000
0000
,  // measure 61
0100
0000
0000
0000
,  // measure 62
0001
0000
0000
0001
,  // measure 63
0001
0000
0000
0000
,  // measure 64
1000
0000
0000
1000
,  // measure 65
1000
0000
0000
0000
,  // measure 66
0100
0000
0100
0000
,  // measure 67
0100
0000
0000
0000
,  // measure 68
0010
0000
0010
0000
,  // measure 69
0010
0000
0000
0000
,  // measure 70
0001
0000
0000
0100
,  // measure 71
0100
0000
0000
0010
,  // measure 72
0010
0000
0000
1000
,  // measure 73
1000
0000
0000
0100
,  // measure 74
0100
0000
0000
0010
,  // measure 75
0010
0000
0000
0001
,  // measure 76
0001
0000
0000
0100
,  // measure 77
0100
0000
0000
0010
,  // measure 78
0010
0000
0010
0000
,  // measure 79
0010
0000
0000
0000
,  // measure 80
0100
0000
0100
0000
,  // measure 81
0100
0000
0000
0000
,  // measure 82
0001
0000
0001
0000
,  // measure 83
0001
0000
0000
0000
,  // measure 84
1000
0000
1000
0000
,  // measure 85
1000
0000
0000
0000
;
