#TITLE:JOMANDA;
#SUBTITLE:;
#ARTIST:DJ YOSHITAKA;
#TITLETRANSLIT:;
#SUBTITLETRANSLIT:;
#ARTISTTRANSLIT:;
#GENRE:;
#CREDIT:Silverhawke;
#MENUCOLOR:;
#METERTYPE:DDR;
#BANNER:JOMANDA.png;
#BACKGROUND:JOMANDA-bg.png;
#LYRICSPATH:;
#CDTITLE:cdtitle.png;
#MUSIC:JOMANDA.mp3;
#OFFSET:-0.033;
#SAMPLESTART:71.370;
#SAMPLELENGTH:15.000;
#SELECTABLE:YES;
#LISTSORT:;
#DISPLAYBPM:90.000:195.000;
#BPMS:0.000=195.000,68.000=97.500,84.000=195.000,116.000=160.000,120.000=140.000,122.000=120.000,124.000=90.000,128.500=95.000,128.750=100.000,129.000=110.000,130.000=120.000,132.000=130.000,134.000=140.000,136.000=150.000,138.000=170.000,140.000=180.000,140.500=190.000,143.000=210.000,146.000=220.000,147.000=240.000,148.000=250.000,152.000=270.000,156.000=300.000,174.000=150.000,175.000=195.000,279.000=97.500,295.000=390.000,295.500=195.000;
#STOPS:295.000=0.231
;
#BGCHANGES:0.000=JOMANDA.avi=1.000=1=0=0,
99999=-nosongbg-=1.000=0=0=0 // don't automatically add -songbackground-
;
#ATTACKS:;

//---------------dance-single - ----------------
#NOTES:
     dance-single:
     :
     Hard:
     15:
     0.714,0.742,0.434,0.016,0.650:
0000
0000
0000
0000
,
0000
0000
0000
0000
,
0000
0000
0000
0000
,
0000
0000
0000
0000
,
0000
0000
0000
0000
,
1001
0000
0001
0100
0010
0000
1000
0100
,
0000
0110
0000
1001
0000
0001
0100
0001
,
0010
0000
0100
1000
0001
0000
0100
0001
,
1000
0000
0010
0010
0100
0100
0001
0010
,
0010
0000
0100
1000
0001
0000
0100
0001
,
0000
0000
0011
0000
0000
0000
1100
0000
0000
0000
0001
1000
0001
0000
0100
0000
,
0010
0000
1000
0100
0010
0000
0001
0100
,
0000
0000
0110
0000
0000
0000
1001
0000
0000
0000
0001
1000
0001
0000
0100
0000
,
0010
0000
0100
0001
1000
0000
0100
1000
,
0001
0000
0010
0001
1000
0000
0010
1000
,
0001
0010
1000
0010
0001
0100
1000
0100
,
0001
0000
0000
0010
0000
0000
0110
0000
0000
0000
0000
0000
0000
0000
0000
0000
,
0001
0000
1000
0100
0000
1000
0000
0001
0000
0100
0000
0010
0000
0100
0001
0000
,
1000
0000
0100
0010
0000
0100
0000
1000
0000
0001
0000
0100
0000
0010
0100
0000
,
0001
0000
1000
0100
0000
0010
0000
0100
0000
1000
0000
0001
0000
0100
0010
0000
,
0100
0000
0001
0010
0000
0100
0000
1000
0000
0100
0000
0010
0000
0001
0100
0000
,
0010
1000
0100
0001
0000
0100
1000
0010
,
0100
0001
0010
0100
0000
1000
0100
0001
,
0100
1000
0010
0100
0000
0001
0010
1000
,
0010
0001
0100
0010
0000
1000
0100
0001
,
0100
1000
0010
0100
0001
0010
0100
1000
,
0001
0100
1000
0100
0001
1000
0010
0001
,
0010
1000
0100
0010
0001
0100
0010
1000
,
0001
0000
0000
1000
0000
0000
0101
0000
0000
1100
0000
0000
1001
0000
0000
0000
,
0110
0000
1001
0000
,
1100
0000
0011
0000
,
1001
0000
0010
0000
0100
0000
1000
0001
0000
0100
0000
0001
1000
0000
0100
0000
,
1000
0000
0010
0000
0100
0000
0001
1000
0000
0100
0000
1000
0001
0000
0100
0000
,
0001
0000
0100
0000
0010
0000
1000
0001
0000
0010
0000
0001
1000
0000
0010
0000
,
1000
0000
0100
0000
0010
0000
0001
1000
0000
0010
0000
1000
0001
0000
0010
0000
,
0100
1000
0001
0000
0100
0001
1000
0000
,
0010
1000
0001
0000
0010
0001
1000
0000
,
0001
1100
1000
0101
,
0011
1010
1100
0101
,
0200
0000
0000
0000
,
0000
0000
0000
0000
,
0000
0000
0000
0000
,
0000
0000
0000
0000
,
0000
0000
0000
0000
0300
0000
0000
0000
0100
0000
0000
0000
0011
0000
0000
1100
,
0000
0000
0101
0000
0000
1010
0000
0000
0100
0000
0001
0000
0010
0000
0000
0100
,
0000
0000
1000
0000
0000
0100
0000
0000
0010
0001
0010
0100
0010
0000
0000
0001
,
0000
0000
0100
0000
0000
0001
0000
0000
1000
0100
1000
0001
1000
0000
0000
0010
,
0000
0000
0100
0000
0000
0010
0000
0000
1000
0000
0100
0000
0010
0000
0000
0001
,
0000
0000
0100
0000
0000
0001
0000
0000
0010
0000
0100
0000
1000
0000
0000
0001
,
0000
0000
0100
0000
0000
0001
0000
0000
1000
0100
0010
0100
1000
0000
0000
0001
,
0000
0000
0100
0000
0000
0010
0000
0000
0100
0001
1000
0001
0100
0000
0000
0010
,
0000
0000
1000
0000
0000
0010
0000
0000
0100
0000
0001
1000
0001
0000
0000
0010
,
0000
0000
0100
0000
0000
1000
0000
0000
0001
0000
0100
0000
0010
0000
0000
0110
,
0000
0000
0100
0000
0000
0101
0000
0000
0001
1000
0100
1000
0001
0000
0000
1001
,
0000
0000
1000
0000
0000
1100
0000
0000
0100
0010
0001
0010
0100
0000
0000
1100
,
0000
0000
1000
0000
0000
1001
0000
0000
0001
0000
0100
0000
0010
0000
0000
1010
,
0000
0000
1000
0000
0000
1001
0000
0000
0001
0000
0010
0000
0100
0000
0000
1100
,
0000
0000
1000
0000
0000
1001
0000
0000
0001
0100
0010
0100
0001
0000
0000
1001
,
0000
0000
1000
0000
0000
1010
0000
0000
0010
0100
0001
0100
0010
0000
0000
1010
,
0000
0000
1000
0000
0000
1100
0000
0000
0100
0000
0010
0001
0010
0000
0000
0110
,
0000
0000
0100
0000
0000
1100
0000
0000
1001
0000
0000
0000
0110
0000
0010
0000
,
1000
0100
0010
0001
0100
1000
0100
0001
,
0010
1000
0001
0100
1000
0010
1000
0100
,
0010
0001
0100
1000
0100
0010
0001
1000
,
0100
0000
0001
0000
0100
0000
0010
0000
1000
0000
0100
0000
0010
0001
0010
0001
,
0000
0010
0001
0000
1000
0010
1000
0010
0000
1000
0010
0000
0100
0000
0001
0000
,
1000
0000
0100
0000
0010
0100
0010
0100
0000
1000
0100
0000
0010
0000
0000
0011
,
0000
0000
0100
0000
0000
1100
0000
0000
0010
0000
1001
0000
0000
0000
0001
0000
,
0010
0100
1000
0001
0100
0010
0200
0000
,
0000
0000
0000
0000
0000
0000
0000
0000
0300
0000
0000
0000
0010
0000
1000
0100
,
0000
0010
0000
0000
0100
0000
1000
0001
0000
0100
0000
0010
0100
0000
0010
1000
,
0000
0001
0000
0000
0010
0000
0100
1000
0000
0100
0010
0001
0100
0000
0001
0010
,
0000
1000
0000
0000
0010
0000
0001
0100
0000
0010
0000
1000
0010
0000
0100
0001
,
0000
0000
1000
0000
0000
0000
0100
0000
0010
0000
0000
0001
0000
0000
1000
0000
0000
0010
0000
0000
0100
0000
0010
0000
1001
0000
0000
0000
0010
0000
0000
0000
,
0100
0000
0000
0001
0000
0000
0100
0001
1000
0001
0100
0000
0000
0010
0000
0000
,
1000
0000
0000
0010
0000
0000
0100
0001
0010
0001
0100
0000
0000
1000
0000
0000
,
0100
0000
0000
0001
0000
0000
0010
0000
1000
0000
0010
0000
0000
0001
0000
0000
,
1000
0000
0000
0100
0000
0000
0010
0000
0001
0000
0100
0000
0000
0010
0000
0000
,
1000
0000
0000
0010
0000
0000
0100
0001
0100
0010
0100
0000
0000
0001
0000
0000
,
0010
0000
0000
0100
0000
0000
1000
0100
0010
0100
1000
0000
0000
0001
0000
0000
,
0100
0000
0000
0010
0000
0000
0100
0000
0001
1000
0001
0000
0000
0010
0000
0000
,
1100
0000
0000
0010
0000
0000
0101
0000
0000
0000
1001
0000
0100
0000
0001
0000
,
0100
1000
0010
0100
0001
0010
1000
0001
,
0100
1000
0010
0001
1000
0100
0001
0010
,
0001
0100
0010
1000
0100
0001
0100
1000
,
0010
0000
0001
0000
0010
0000
1000
0000
0100
0000
0010
0001
1000
0001
0000
0100
,
0001
0000
0100
0001
1000
0001
0000
0010
0001
0000
1000
0000
0100
0000
0001
0000
,
0100
0000
1000
0010
0100
0010
0000
1000
0100
0000
0010
0000
0000
1100
0000
0000
,
0010
0000
0000
0101
0000
0000
0001
0000
1100
0000
0000
0000
1001
0000
0000
0100
,
0000
0000
0001
0100
0000
1000
0100
0000
0010
1000
0001
0000
0000
0000
0000
0000
;

//---------------dance-single - ----------------
#NOTES:
     dance-single:
     :
     Medium:
     11:
     0.505,0.565,0.087,0.032,0.075:
0000
0000
0000
0000
,
0000
0000
0000
0000
,
0000
0000
0000
0000
,
0000
0000
0000
0000
,
0000
0000
0000
0000
,
1000
0000
0001
0000
1000
0000
0001
1000
,
0000
0100
0000
0010
0000
0100
1000
0001
,
0000
0100
0001
1000
,
0001
0000
1000
0000
0001
0010
0100
1000
,
0001
0000
1000
0000
0001
0000
1000
0001
,
0000
0010
0000
0100
0000
0010
0001
1000
,
0010
0000
1000
0000
0001
0000
1000
0010
,
0000
1000
0000
0001
0000
0010
0001
1000
,
0010
1000
0001
1000
,
0010
0100
0010
0100
,
0001
1000
0001
1000
,
0100
0000
0000
0010
0000
0000
0100
0000
0000
0000
0000
0000
0000
0000
0000
0000
,
1000
0000
0000
0000
0001
0000
0100
0000
0010
1000
0000
1000
0000
0000
0000
0000
,
0001
0000
0010
0000
0100
0000
0000
0000
1000
0001
0000
0001
0000
0000
0000
0000
,
1000
0000
0000
0000
0001
0000
0010
0000
0100
1000
0000
1000
0000
0000
0000
0000
,
0001
0000
1000
0000
0010
0000
0100
0000
0001
0000
1000
0100
0000
0100
0000
0000
,
1000
0100
1000
0001
,
0100
0010
0100
0001
,
1000
0100
0010
0001
,
1000
0010
0100
0001
,
1000
0100
0001
0100
,
1000
0010
0001
0010
,
1000
0100
0001
0010
,
1000
0010
0001
0100
,
1001
0000
0110
0000
,
1100
0000
0101
0000
,
1000
0000
0100
0000
0010
0001
1000
0000
,
0001
0000
0010
0000
0100
1000
0001
0000
,
1000
0000
0010
0000
0100
0001
1000
0000
,
0001
0000
0100
0000
0010
1000
0001
0000
,
1000
0000
0001
0000
1000
0100
0010
0000
,
0001
0000
1000
0000
0001
0010
0100
0000
,
1000
1001
0001
1001
,
1000
0001
1001
1001
,
0200
0000
0000
0000
,
0000
0000
0000
0000
,
0000
0000
0000
0000
,
0000
0000
0000
0000
,
0000
0000
0000
0000
0300
0000
0000
0000
0100
0000
0000
0000
0001
0000
0000
1000
,
0000
0000
0001
0000
0000
1000
0000
0000
0001
0000
0100
0000
0001
0000
0000
0000
,
1000
0100
0010
0000
0001
0100
0010
0000
,
1000
0010
0100
0010
1000
0000
0001
0000
,
1000
0100
0010
0000
0001
0100
0010
0000
,
1000
0100
0010
0100
1000
0000
0001
0000
,
1000
0010
0100
0000
0001
0100
0010
0000
,
1000
0100
0010
0100
1000
0000
0001
0000
,
1000
0001
0100
0000
0001
1000
0100
0000
,
0010
0001
0100
0001
0010
0100
1000
0000
,
0001
0100
1000
0000
1000
0100
0001
0000
,
1000
0100
0001
0100
1000
0000
0001
0000
,
1000
0100
0001
0000
0001
0100
1000
0000
,
0001
0100
1000
0100
0001
0000
1000
0000
,
0001
0010
1000
0000
1000
0010
0001
0000
,
1000
0010
0001
0010
1000
0000
0001
0000
,
1000
0010
0001
0000
0001
0010
1000
0100
,
0001
0100
1000
0001
0200
0000
0310
0000
,
0010
0000
1000
0001
1000
0001
0100
0000
,
0010
1000
0100
1000
0010
0000
0100
0001
,
0010
0100
0000
1000
0100
0000
0010
0001
,
0100
0000
0010
0000
0000
0000
0100
0000
0001
0000
0000
0000
1000
0000
0000
1000
,
0000
0000
1000
0000
0001
0000
0000
0001
0000
0000
0001
0000
1000
0000
0100
0000
,
0010
0000
0000
0000
0001
0000
0000
0001
0000
0000
0001
0000
0010
0000
0000
0100
,
0000
0010
0100
0000
0110
0000
1000
0001
,
1000
0001
0000
0100
0010
1000
0200
0000
,
0000
0000
0000
0000
0300
0000
0100
0001
,
0000
0001
0000
1000
0000
1000
0100
0010
,
0000
0010
0000
0001
0000
0001
0100
0010
,
0000
0010
0000
1000
0000
1000
0001
0010
,
0000
0100
1000
0001
0100
0010
0100
0100
,
0000
0100
0001
1000
0000
0001
0010
0100
,
1000
0100
0000
1000
0000
0001
0000
0100
,
0000
0010
0100
0001
0000
1000
0100
0010
,
0001
0100
0010
0100
0000
0001
0000
1000
,
0001
0100
0000
0001
1000
0100
0000
0010
,
0001
0100
0001
0010
0000
0100
1000
0001
,
1000
0100
1000
0001
0000
0010
0001
0100
,
0001
0010
0100
2000
0000
3001
0100
0001
,
0100
0001
0100
0001
0000
1000
0100
1000
,
0100
1000
0100
1000
0000
0001
0010
0100
,
1000
0001
0010
0100
0000
1000
0010
0100
,
0001
0000
1000
0000
0010
0000
0100
0000
0000
0000
0001
0000
0000
0010
0000
0000
,
0100
0000
1000
0000
0000
0100
0000
0000
0010
0000
0001
0000
1000
0000
0010
0000
,
0000
0000
1000
0000
0000
0001
0000
0000
1000
0000
0010
0000
0000
0100
0000
0000
,
0001
1000
0000
1001
0000
0001
0100
0001
,
0010
0000
0100
1000
0001
1001
0000
0000
;

//---------------dance-single - ----------------
#NOTES:
     dance-single:
     :
     Easy:
     6:
     0.317,0.353,0.032,0.055,0.000:
0000
0000
0000
0000
,
0000
0000
0000
0000
,
0000
0000
0000
0000
,
0000
0000
0000
0000
,
0000
0000
0000
0000
,
1000
0001
1000
0001
,
0000
1000
0000
0001
0000
1000
0001
0000
,
0100
0010
0100
0010
,
0100
0000
0010
0000
0100
0010
0100
0010
,
0100
0001
1000
0001
,
0000
1000
0000
0001
0000
1000
0001
0000
,
0010
0100
0010
0100
,
0000
0010
0000
0100
0000
0010
0100
0000
,
0010
0001
1000
0001
,
1000
0001
1000
0001
,
1000
0001
1000
0001
,
2002
0000
3003
0000
,
1000
0000
0001
0000
,
0100
0000
0010
0000
,
1000
0000
0100
0000
,
0010
0000
0001
0000
,
0100
0000
0001
0000
,
1000
0100
1000
0000
,
0001
0000
0100
0000
,
0010
0100
0010
0000
,
1000
0000
0001
0000
,
0010
0100
0010
0000
,
0001
0000
1000
0000
,
0100
0010
0100
0000
,
1000
0000
0001
0000
,
1000
0000
0001
0000
,
1000
0001
0001
1000
,
0001
1000
1000
0001
,
1000
0010
0010
0100
,
0010
0100
0100
0001
,
1000
0100
0010
0001
,
1000
0010
0100
0001
,
1000
0000
0001
0000
,
1001
0000
1001
0000
,
0200
0000
0000
0000
,
0000
0000
0000
0000
,
0000
0000
0000
0000
,
0000
0000
0000
0000
,
0000
0300
0100
0020
,
0000
0000
0030
0001
,
0100
0001
0010
0100
,
1000
0100
0010
0001
,
0001
1000
1000
0001
,
0100
0010
0000
1000
,
0100
1000
0010
0100
,
0001
0100
0010
1000
,
0100
0010
0001
0100
,
0100
0010
0000
1000
,
0100
1000
0001
0100
,
0010
0100
0001
0010
,
0100
1000
0001
0100
,
0100
0010
0000
0100
,
0001
0100
0010
1000
,
0001
1000
0010
0100
,
0001
0010
0100
1000
,
1000
0001
0200
0310
,
0010
1000
0001
1000
,
0010
0100
0001
1000
,
1000
0100
0010
0001
,
0100
0010
1000
0001
,
0100
1000
0100
0001
,
0010
1000
0010
0001
,
1000
0100
0010
0001
,
0100
0010
1000
0200
,
0000
0000
0300
1000
,
0000
1000
0000
0001
,
0000
0001
0000
1000
,
0000
1000
0000
0001
,
0000
0001
0000
0100
,
0000
0000
0000
0000
0000
0100
0000
0001
,
0000
1000
0000
0000
0000
0100
0000
1000
,
0000
0001
0000
0100
0000
0010
0000
1000
,
0000
0100
0000
0000
0000
0010
0000
0001
,
0000
0100
0000
0000
0000
0010
0000
1000
,
0000
0001
0000
0000
0000
0010
0000
0010
,
0000
0001
0000
0001
0000
1000
0000
0100
,
0000
0010
0000
0002
0000
0103
0000
0001
,
0000
1000
0000
0100
0000
0010
0000
0001
,
0000
1000
0000
0010
0000
0100
0000
0100
,
0000
0001
0000
1000
0000
0010
0000
0010
,
0000
0100
0000
0001
0000
1000
0000
0100
,
0000
0001
0000
0100
0000
1000
0000
0010
,
0000
0001
0000
0010
0000
1000
0000
0100
,
0000
0010
0000
0001
0000
0100
0000
0010
,
0000
0100
0000
0001
0000
1001
0000
0000
;

//---------------dance-single - ----------------
#NOTES:
     dance-single:
     :
     Beginner:
     3:
     0.168,0.212,0.008,0.008,0.000:
0000
0000
0000
0000
,
0000
0000
0000
0000
,
0000
0000
0000
0000
,
0000
0000
0000
0000
,
0000
0000
0000
0000
,
1000
0000
0000
0000
,
0001
0000
0000
0000
,
1000
0000
0000
0000
,
0001
0000
0000
0000
,
0100
0000
0000
0000
,
0001
0000
0000
0000
,
1000
0000
0000
0000
,
0100
0000
0000
0000
,
1000
0000
0000
0000
,
0001
0000
0000
0000
,
1000
0000
0000
0000
,
0100
0000
0000
0000
,
1000
0000
0001
0000
,
1000
0000
0001
0000
,
0100
0000
0001
0000
,
1000
0000
0001
0000
,
1000
0000
0000
0000
,
0010
0000
0000
0000
,
0001
0000
0000
0000
,
0100
0000
0100
0000
,
0100
0000
0000
0000
,
0010
0000
0000
0000
,
1000
0000
0000
0000
,
0001
0000
0001
0000
,
0001
0000
0001
0000
,
1000
0000
1000
0000
,
0001
0000
0001
0000
,
1000
0000
1000
0000
,
0001
0000
0001
0000
,
1000
0000
1000
0000
,
0001
0000
0001
0000
,
1000
0000
1000
0000
,
0001
0000
0001
0000
,
1000
0000
1000
0000
,
0200
0000
0000
0000
,
0000
0000
0000
0000
,
0000
0000
0000
0000
,
0000
0000
0000
0000
,
0000
0300
0100
0000
,
0000
0000
0000
0100
,
0000
0100
0000
0001
,
0001
0001
0000
1000
,
0000
1000
0000
0100
,
0100
0100
0000
0010
,
0000
0010
0000
0001
,
0001
0001
0000
1000
,
0000
1000
0000
0010
,
0010
0010
0000
0100
,
0000
0100
0000
0001
,
0001
0001
0000
1000
,
0000
1000
0000
0100
,
0100
0100
0000
0010
,
0000
0010
0000
0100
,
0100
0100
0000
1000
,
0000
1000
0000
0001
,
0000
0001
0000
0100
,
0000
0000
0000
0001
,
0000
0000
0000
1000
,
0000
0000
0000
0001
,
0000
0000
0000
1000
,
1000
1000
0000
0001
,
0001
0001
0000
0100
,
0000
0100
0000
0100
,
0000
0100
0000
0100
,
0000
0000
0000
0100
,
0000
0001
0000
1000
,
0000
0100
0000
1000
,
0000
0001
0000
0100
,
0000
0001
0000
1000
,
0000
0000
0000
0000
0000
0001
0000
0000
,
0000
0000
0000
0000
0000
0001
0000
0000
,
0000
0000
0000
0000
0000
1000
0000
1000
,
0000
1000
0000
0000
0000
0010
0000
0000
,
0000
0000
0000
0000
0000
0010
0000
0000
,
0000
0000
0000
0000
0000
0100
0000
0100
,
0000
0100
0000
0000
0000
0001
0000
0001
,
0000
0001
0000
0000
0000
1000
0000
0000
,
0000
0001
0000
0000
0000
1000
0000
0000
,
0000
0001
0000
0000
0000
0100
0000
0000
,
0000
0010
0000
0000
0000
0100
0000
0000
,
0000
0010
0000
0000
0000
1000
0000
1000
,
0000
1000
0000
0000
0000
0001
0000
0001
,
0000
0001
0000
0000
0000
0100
0000
0000
,
0000
0100
0000
0000
0000
0010
0000
0000
,
0000
0010
0000
0000
0000
1001
0000
0000
;

//---------------dance-double - ----------------
#NOTES:
     dance-double:
     :
     Hard:
     15:
     0.702,0.848,0.166,0.016,0.777:
00000000
00000000
00000000
00000000
,
00000000
00000000
00000000
00000000
,
00000000
00000000
00000000
00000000
,
00000000
00000000
00000000
00000000
,
00000000
00000000
00000000
00000000
,
00010000
00000000
01000000
00000000
10000000
00000000
00100000
00010000
,
00000000
00001000
00000000
00000100
00000000
00000001
00000010
00000100
,
00001000
00000000
00000100
00000010
00000001
00000000
00000100
00001000
,
00010000
00000000
00100000
00100000
10000000
01000000
00010000
00010000
,
00001000
00000000
00000100
00000000
00000001
00000000
00000010
00001000
,
00000000
00000000
00010000
00000000
00000000
00000000
01000000
00000000
00000000
00000000
10000000
00100000
01000000
00000000
00001000
00000000
,
00010000
00000000
01000000
00000000
10000000
00000000
00100000
00010000
,
00000000
00000000
00001000
00000000
00000000
00000000
00000100
00000000
00000000
00000000
00000001
00000010
00000100
00000000
00000000
00000000
,
00010000
01000000
10000000
00100000
,
00010000
00001000
00000100
00000001
,
00000010
00000001
00000100
00000010
00001000
00000100
00010000
00001000
,
00100000
00000000
00000000
00010000
00000000
00000000
10010000
00000000
00000000
00000000
00000000
00000000
00000000
00000000
00000000
00000000
,
10000000
00100000
01000000
00100000
00000000
10000000
00000000
01000000
00000000
00100000
00000000
00001000
00000000
00010000
00000100
00000010
,
00000100
00000000
00001000
00000010
00000000
00000100
00000000
00001000
00000000
00010000
00000000
00100000
00000000
01000000
00010000
00100000
,
01000000
00000000
00100000
00010000
00000000
01000000
00000000
00001000
00000000
00000100
00000000
00000010
00000000
00001000
00000100
00000010
,
00000001
00000000
00000100
00001000
00000000
00001000
00000000
00010000
00000000
00100000
00000000
01000000
00000000
00010000
00000000
10000000
,
01000000
00100000
01000000
00100000
00000000
00100000
00001000
00010000
,
00000100
00000010
00000100
00000010
00000000
00000010
00000001
00000100
,
00000010
00001000
00000100
00010000
00000000
00010000
00001000
00010000
,
01000000
10000000
00100000
01000000
00000000
01000000
00010000
00100000
,
01000000
10000000
01000000
10000000
00010000
01000000
00010000
01000000
,
00001000
00010000
00001000
00010000
00000100
00001000
00000100
00001000
,
00000010
00000100
00000001
00000010
00000100
00010000
00001000
00100000
,
00010000
00000000
00000000
01010000
00000000
00000000
10000000
00000000
00000000
11000000
00000000
00000000
10010000
00000000
00000000
00000000
,
11000000
00000000
01010000
00000000
,
00011000
00000000
00001100
00000000
,
00000101
00000000
00000001
00000000
00000100
00001000
00010000
01000000
00000000
01000000
00000000
01000000
10000000
00000000
00010000
10000000
,
00010000
00000000
10000000
00000000
01000000
00010000
00001000
00000100
00000000
00000100
00000000
00000100
00000001
00000000
00001000
00000001
,
00001000
00000000
00000001
00000000
00000100
00001000
00010000
01000000
00000000
01000000
00000000
01000000
10000000
00000000
00010000
10000000
,
00010000
00000000
10000000
00000000
01000000
00010000
00001000
00000100
00000000
00000100
00000000
00000100
00000001
00000000
00001000
00000001
,
00001000
00000000
00000001
00000000
00000100
00001000
00010000
01000000
00000000
01000000
00000000
01000000
10000000
00000000
00010000
10000000
,
00010000
00000000
10000000
00000000
01000000
00010000
00001000
00000100
00000000
00000100
00000000
00000100
00000001
00000000
00001000
00000001
,
00001000
00000101
00000001
00001100
,
00011000
00110000
10100000
11000000
,
02000000
00000000
00000000
00000000
,
00000000
00000000
00000000
00000000
,
00000000
00000000
00000000
00000000
,
00000000
00000000
00000000
00000000
,
00000000
00000000
00000000
00000000
00000000
00000000
00000000
00000000
03000100
00000000
00000000
00000000
00010000
00000000
00000000
01000000
,
00000000
00000000
00010000
00000000
00000000
00001000
00000000
00000000
00000100
00000000
00000001
00000000
00000010
00000000
00000000
00000100
,
00000000
00000000
00001000
00000000
00000000
00000100
00000000
00000000
00010000
00001000
01000000
00001000
00010000
00000000
00000000
01000000
,
00000000
00000000
00100000
00000000
00000000
00010000
00000000
00000000
01000000
00100000
10000000
00100000
01000000
00000000
00000000
00010000
,
00000000
00000000
00100000
00000000
00000000
00001000
00000000
00000000
00010000
01000000
10000000
00000000
00010000
00000000
00000000
01000000
,
00000000
00000000
00001000
00000000
00000000
00010000
00000000
00000000
00001000
00000000
00000100
00000000
00000010
00000000
00000000
00001000
,
00000000
00000000
00000010
00000000
00000000
00000001
00000000
00000000
00000010
00000100
00000010
00001000
00000010
00000000
00000000
00010000
,
00000000
00000000
00001000
00000000
00000000
00100000
00000000
00000000
01000000
10000000
01000000
00100000
01000000
00000000
00000000
10000000
,
00000000
00000000
00010000
00000000
00000000
01000000
00000000
00000000
00001000
00000000
00100000
00010000
10000000
00000000
00000000
00100000
,
00000000
00000000
00010000
00000000
00000000
00100000
00000000
00000000
01000000
00000000
01000000
00000000
00100000
00000000
00000000
01000000
,
00000000
00000000
00010000
00000000
00000000
01000000
00000000
00000000
00001000
00010000
00000100
00010000
00001000
00000000
00000000
00000100
,
00000000
00000000
00000010
00000000
00000000
00001000
00000000
00000000
00000100
00000010
00000001
00000010
00000100
00000000
00000000
00001000
,
00000000
00000000
00000010
00000000
00000000
00010000
00000000
00000000
00001000
00000100
00000001
00000000
00001000
00000000
00000000
00000100
,
00000000
00000000
00010000
00000000
00000000
00001000
00000000
00000000
00010000
00000000
01000000
00000000
00100000
00000000
00000000
00010000
,
00000000
00000000
00100000
00000000
00000000
10000000
00000000
00000000
00100000
01000000
00100000
00010000
00100000
00000000
00000000
00001000
,
00000000
00000000
00010000
00000000
00000000
00000010
00000000
00000000
00000100
00000001
00000100
00000010
00000100
00000000
00000000
00000001
,
00000000
00000000
00001000
00000000
00000000
00000100
00000000
00000000
00010000
00000000
00000010
00001000
00000001
00000000
00000000
00000010
,
00000000
00000000
00001000
00000000
00000000
00000010
00000000
00000000
00000110
00000000
00000000
00000000
00000100
00000000
00010000
00000000
,
00001000
00010000
00100000
01000000
10000000
01000000
00010000
00100000
,
01000000
00010000
00001000
00010000
00000100
00000010
00000001
00000100
,
00001000
00010000
00100000
10000000
01000000
00100000
00010000
01000000
,
10000000
00000000
01000000
00000000
00010000
00000000
00100000
00000000
00001000
00000000
00010000
00000000
01000000
00100000
01000000
00100000
,
00000000
00001000
00010000
00000000
00000100
00000010
00000100
00000010
00000000
00000001
00001000
00000000
00000010
00000000
00010000
00000000
,
00000100
00000000
00010000
00000000
00001000
01000000
00001000
01000000
00000000
00100000
10000000
00000000
01000000
00000000
00000000
00010000
,
00000000
00000000
00001000
00000000
00000000
00000100
00000000
00000000
00000010
00000000
00001001
00000000
00000000
00000000
00000000
00000001
,
00000000
00000000
00001000
00000000
00000000
00000010
00000000
00000000
00010000
00000000
01000000
00000000
20000000
00000000
00000000
00000000
,
00000000
00000000
00000000
00000000
00000000
00000000
00000000
00000000
00000000
00000000
00000000
00000000
30010000
01000000
00010000
01000000
,
00000000
00010000
00100000
00000000
00001000
00010000
00001000
00010000
00000000
00000100
00000000
00001000
00000010
00000000
00000100
00000001
,
00000000
00000010
00001000
00000000
00010000
01000000
00000000
10000000
00000000
00100000
01000000
00010000
10000000
01000000
10000000
01000000
,
00000000
00100000
00010000
00000000
01000000
00001000
01000000
00001000
00000000
00010000
00000000
00000010
00001000
00000000
00000100
00000010
,
00000000
00000000
00000001
00000000
00000100
00000000
00000010
00000000
00001000
00000000
00000000
00000100
00000000
00000000
00010000
00000000
00000000
01000000
00000000
00000000
10000000
00000000
00010000
00000000
10010000
00000000
00000000
00000000
01000000
00000000
00000000
00000000
,
00010000
00000000
00000000
01000000
00000000
00000000
00001000
00010000
00000100
00010000
00001000
00000000
00000000
00000100
00000000
00000000
,
00000010
00000000
00000000
00001000
00000000
00000000
00000100
00000010
00000001
00000010
00000100
00000000
00000000
00001000
00000000
00000000
,
00000010
00000000
00000000
00010000
00000000
00000000
00001000
00000100
00000001
00000000
00001000
00000000
00000000
00000100
00000000
00000000
,
00010000
00000000
00000000
00001000
00000000
00000000
00010000
00000000
01000000
00000000
00100000
00000000
00000000
00010000
00000000
00000000
,
00100000
00000000
00000000
10000000
00000000
00000000
00100000
01000000
00100000
00010000
00100000
00000000
00000000
00001000
00000000
00000000
,
00010000
00000000
00000000
00000010
00000000
00000000
00000100
00000001
00000100
00000010
00000100
00000000
00000000
00000001
00000000
00000000
,
00001000
00000000
00000000
00000100
00000000
00000000
00010000
00000000
00000010
00001000
00000001
00000000
00000000
00000010
00000000
00000000
,
00001000
00000000
00000000
00000010
00000000
00000000
00000110
00000000
00000000
00000000
00000100
00000000
00010000
00000000
00001000
00000000
,
00010000
00100000
01000000
10000000
01000000
00010000
00100000
01000000
,
00010000
00001000
00010000
00000100
00000010
00000001
00000100
00001000
,
00010000
00100000
10000000
01000000
00100000
00010000
01000000
10000000
,
01000000
00000000
00010000
00000000
00100000
00000000
00001000
00000000
00010000
00000000
01000000
00100000
01000000
00100000
00000000
00001000
,
00010000
00000000
00000100
00000010
00000100
00000010
00000000
00000001
00001000
00000000
00000010
00000000
00010000
00000000
00000100
00000000
,
00010000
00000000
00001000
01000000
00001000
01000000
00000000
00100000
10000000
00000000
01000000
00000000
00000000
00010000
00000000
00000000
,
00001000
00000000
00000000
00000100
00000000
00000000
00000010
00000000
00001001
00000000
00000000
00000000
00001000
00000001
00000000
00000010
,
00000100
00000000
00000000
00010000
00001000
00000000
01000000
00000000
00100000
00000000
10010000
00000000
00000000
00000000
00000000
00000000
;

//---------------dance-double - ----------------
#NOTES:
     dance-double:
     :
     Medium:
     12:
     0.525,0.565,0.110,0.016,0.280:
00000000
00000000
00000000
00000000
,
00000000
00000000
00000000
00000000
,
00000000
00000000
00000000
00000000
,
00000000
00000000
00000000
00000000
,
00000000
00000000
00000000
00000000
,
10000000
00000000
01000000
00000000
00100000
00000000
01000000
10000000
,
00000000
00010000
00000000
01000000
00000000
01000000
00001000
01000000
,
00000000
00001000
00010000
00001000
,
00010000
00000000
00000100
00000000
00010000
00010000
00000100
00010000
,
00000100
00000000
00000010
00000000
00000001
00000000
00000100
00000010
,
00000000
00000100
00000000
00000010
00000000
00001000
00000100
00000000
,
00010000
00000000
00001000
00000000
01000000
00000000
00001000
00010000
,
00000000
01000000
00000000
10000000
00000000
00010000
10000000
00000000
,
01000000
00100000
00010000
00001000
,
00000100
00000010
00000001
00001000
,
00000001
00000100
00001000
00010000
,
00100000
00000000
00000000
10000000
00000000
00000000
00010000
00000000
00000000
00000000
00000000
00000000
00000000
00000000
00000000
00000000
,
10000000
00000000
00000000
01000000
00000000
00000000
00000000
00000000
00100000
00000000
00000000
00001000
00000000
00010000
00000000
00000000
,
00000100
00000000
00000000
00000010
00000000
00000000
00000000
00000000
00000001
00000000
00000000
00000100
00000000
00000000
00000010
00000000
,
00001000
00000000
00000000
00000100
00000000
00000000
00000000
00000000
00010000
00000000
00000000
00001000
00000000
01000000
00000000
00000000
,
00010000
00000000
00000000
10000000
00000000
00000000
00000000
00000000
01000000
00000000
00000000
00100000
00000000
00000000
00010000
00000000
,
10000000
00000000
01000000
00100000
00000000
00100000
00000000
00001000
,
00000000
00010000
00000000
00000100
00000000
00000010
00000001
00001000
,
00000001
00000000
00000100
00000010
00000000
00001000
00000000
00000100
,
00000000
00010000
00000000
00001000
00000000
00010000
00001000
00000000
,
01000000
00000000
00010000
10000000
00000000
10000000
00000000
01000000
,
00000000
00100000
00000000
00001000
00000000
00010000
00000000
00000100
,
00001000
00000000
00000010
00000100
00000000
00000100
00000000
00000001
,
00001000
00000000
00000000
00000100
00000000
00000000
00010000
00000000
00000000
00001000
00000000
00000000
01000000
00000000
00000000
00000000
,
10010000
00000000
01010000
00000000
,
01001000
00000000
00011000
00000000
,
00010100
00000100
00001000
00000001
00000100
00000010
00010000
00000100
,
00010000
00001000
01000000
00010000
00100000
00010000
00010000
00000000
,
01000000
01000000
00010000
10000000
01000000
00100000
00001000
01000000
,
00001000
00010000
00000100
00001000
00000010
00001000
00001000
00000000
,
00000010
00000010
00001000
00000001
00000010
00000100
00010000
00000010
,
00010000
00001000
00100000
00010000
01000000
00010000
00010000
00000000
,
10000000
01000000
00010000
00001000
,
00000010
00000001
00000100
00001000
,
00020000
00000000
00000000
00000000
,
00000000
00000000
00000000
00000000
,
00000000
00000000
00000000
00000000
,
00000000
00000000
00000000
00000000
,
00000000
00000000
00000000
00000000
00000000
00000000
00000000
00000000
00031000
00000000
00000000
00000000
01000000
00000000
00000000
00010000
,
00000000
00000000
10000000
00000000
00000000
00010000
00000000
00000000
00100000
00000000
01000000
00000000
10000000
00000000
00000000
01000000
,
00000000
00000000
00010000
00000000
00000000
00001000
00000000
00000000
00010000
00000000
00000100
00000000
00010000
00000000
00000000
00000100
,
00000000
00000000
00000010
00000000
00000000
00000001
00000000
00000000
00000100
00000000
00000010
00000000
00001000
00000000
00000000
00000100
,
00000000
00000000
00010000
00000000
00000000
00001000
00000000
00000000
01000000
00000000
00010000
00000000
00100000
00000000
00000000
01000000
,
00000000
00000000
10000000
00000000
00000000
00010000
00000000
00000000
01000000
00000000
00001000
00000000
00010000
00000000
00000000
00000100
,
00000000
00000000
00000010
00000000
00000000
00000100
00000000
00000000
00001000
00000000
00000001
00000000
00000100
00000000
00000000
00001000
,
00000000
00000000
00010000
00000000
00000000
00100000
00000000
00000000
00010000
00000000
00001000
00000000
00010000
00000000
00000000
01000000
,
00000000
00000000
10000000
00000000
00000000
00100000
00000000
00000000
01000000
00000000
00010000
00000000
00100000
00000000
00000000
01000000
,
00000000
00000000
00100000
00000000
00000000
00001000
00000000
00000000
00000100
00000000
00000010
00000000
00001000
00000000
00000000
00000100
,
00000000
00000000
00000001
00000000
00000000
00000100
00000000
00000000
00010000
00000000
00001000
00000000
01000000
00000000
00000000
10000000
,
00000000
00000000
01000000
00000000
00000000
00001000
00000000
00000000
00010000
00000000
00000010
00000000
00000100
00000000
00000000
00000010
,
00000000
00000000
00010000
00000000
00000000
00001000
00000000
00000000
00100000
00000000
01000000
00000000
00100000
00000000
00000000
00001000
,
00000000
00000000
00010000
00000000
00000000
01000000
00000000
00000000
10000000
00000000
01000000
00000000
00010000
00000000
00000000
00001000
,
00000000
00000000
00000100
00000000
00000000
00000001
00000000
00000000
00000010
00000000
00001000
00000000
00010000
00000000
00000000
01000000
,
00000000
00000000
10000000
00000000
00000000
00100000
00000000
00000000
00010000
00000000
00001000
00000000
00010000
00000000
00000000
01000000
,
00000000
00000000
10000000
00000000
00000000
01000000
00000000
00000000
00010000
00000000
00001000
00000000
00000010
00000000
00000000
00000001
,
00000000
00000000
00001000
00000000
00000000
00000010
00000000
00000000
00000110
00000000
00000000
00000000
00001000
00000000
00000100
00000000
,
00001000
00000000
00000001
00000100
00000001
00000000
00001000
00000000
,
00000100
00010000
00001000
00000000
00001000
01000000
00010000
00000000
,
00100000
01000000
00000000
10000000
01000000
00000000
00100000
00010000
,
01000000
00000000
00100000
00000000
10000000
00000000
01000000
00000000
00010000
00000000
00000000
00000000
00001000
00000000
00000000
00000010
,
00000000
00000000
00000001
00000000
00000010
00000000
00000000
00001000
00000000
00000000
00010000
00000000
01000000
00000000
10000000
00000000
,
01000000
00000000
00100000
00000000
00001000
00000000
00000000
00010000
00000000
00000000
00000100
00000000
00000010
00000000
00000000
00000001
,
00000000
00000000
00000100
00000000
00000000
00000010
00000000
00000000
00001000
00000000
00001100
00000000
00000000
00000000
00000000
00000010
,
00000000
00000000
00000001
00000000
00000000
00000100
00000000
00000000
00000010
00000000
00010000
00000000
00002000
00000000
00000000
00000000
,
00000000
00000000
00000000
00000000
00000000
00000000
00000000
00000000
00003000
00000000
00000000
00000000
00010000
00000000
01000000
00100000
,
00000000
00000000
00000000
00000000
00010000
00000000
01000000
00100000
00000000
01000000
00000000
00000000
00010000
00000000
01000000
00001000
,
00000000
00000000
00000000
00000000
00010000
00000000
00000100
00001000
00000000
00000010
00000000
00000000
00001000
00000000
00000001
00000100
,
00000000
00000000
00000000
00000000
00000010
00000000
00001000
00000100
00000000
00010000
00000000
00000000
00001000
00000000
01000000
00010000
,
00000000
10000000
01000000
00000000
00100000
00000000
00000000
00010000
00000000
00000000
01000000
00100000
10000000
00000000
00010000
00000000
,
10000000
00000000
00010000
01000000
00000000
01001000
00000000
00011000
,
00000000
00010000
00000100
00000010
00000000
00000001
00000100
00000010
,
00000000
00001000
00000100
00010000
00000000
00001000
01000000
00100000
,
01000000
10000000
01000000
00010000
00000000
00100000
00000000
00101000
,
00000000
00001000
00010000
00000100
00000000
00000010
00000001
00000100
,
00001000
00000100
00000010
00010000
00000000
00011000
00000000
01001000
,
00000000
01000000
00010000
00100000
00000000
01000000
10000000
00100000
,
00010000
00001000
00000100
00000110
00000000
00000001
00001000
00001000
,
00000001
00000010
00000100
00000100
00000010
00000001
00000000
00000100
,
00001000
00010000
00000000
01000000
10000000
00010000
00000000
10000000
,
01000000
00000000
00010000
00001000
00000000
00000100
00000010
00001000
,
00000100
00000010
00000001
00000100
00000000
00000010
00000010
00000100
,
00000010
00000100
00000100
00000010
00000100
00001000
00010000
00001000
,
00001000
00000000
00010000
00000000
00001000
00000000
00010000
00000000
00010000
00000000
00100000
00000000
00000000
10000000
00000000
00000000
,
00010000
00000000
00000000
00100000
00000000
00000000
01000000
00000000
11000000
00000000
00000000
00000000
00000000
10000000
00000000
00000000
,
01000000
00000000
00000000
00010000
00000000
00000000
00001000
00000000
00000100
00000000
00000001
00000000
00000000
00000000
00000000
00000000
;

//---------------dance-double - ----------------
#NOTES:
     dance-double:
     :
     Easy:
     7:
     0.355,0.424,0.087,0.158,0.000: // measure 1
00000000
00000000
00000000
00000000
,  // measure 2
00000000
00000000
00000000
00000000
,  // measure 3
00000000
00000000
00000000
00000000
,  // measure 4
00000000
00000000
00000000
00000000
,  // measure 5
00000000
00000000
00000000
00000000
,  // measure 6
10000000
00000000
10000000
00000000
,  // measure 7
10000000
00000000
00010000
00000000
10000000
00000000
00010000
01000000
,  // measure 8
00000000
00001000
00000000
00001000
,  // measure 9
00010000
00000000
00000100
00000000
00000010
00000001
00000010
00000000
,  // measure 10
00000100
00010000
00001000
00010000
,  // measure 11
00001000
01000000
00000000
00001000
00000000
01000000
00001000
00000000
,  // measure 12
00010000
00000100
00010000
00000100
,  // measure 13
00010000
00000100
00000000
00001000
00000000
00000100
00010000
00000000
,  // measure 14
00001000
01000000
00001000
01000000
,  // measure 15
00010000
00100000
00010000
00100000
,  // measure 16
01000000
10000000
00010000
10000000
,  // measure 17
20020000
00000000
00000000
30030000
00000000
00000000
00000000
00000000
,  // measure 18
10000000
00000000
00010000
00000000
,  // measure 19
01000000
00000000
00001000
00000000
,  // measure 20
00010000
00000000
00000100
00000000
,  // measure 21
00001000
00000000
00000010
00000000
,  // measure 22
00000100
00000000
00000001
00000000
,  // measure 23
00000100
00000000
00000010
00000000
,  // measure 24
00001000
00000000
00000100
00000000
,  // measure 25
00010000
00000000
00001000
00000000
,  // measure 26
01000000
01000000
00010000
00010000
,  // measure 27
10000000
10000000
01000000
01000000
,  // measure 28
00100000
00001000
00100000
00001000
,  // measure 29
00022000
00000000
00000000
00033000
,  // measure 30
00010000
00000000
10000000
00000000
,  // measure 31
00010000
00000000
00001000
00000000
,  // measure 32
00000100
00000010
00001000
00000100
,  // measure 33
00010000
00001000
00100000
00010000
,  // measure 34
01000000
00100000
10000000
01000000
,  // measure 35
10000000
00100000
01000000
00010000
,  // measure 36
00100000
00001000
00010000
00000100
,  // measure 37
00001000
00000010
00000100
00000001
,  // measure 38
00002000
00000000
00003002
00000000
,  // measure 39
00002003
00000000
00003002
00000000
,  // measure 40
00002003
00000000
00000000
00000000
,  // measure 41
00000000
00000000
00000000
00000000
,  // measure 42
00000000
00000000
00000000
00000000
,  // measure 43
00000000
00000000
00000000
00000000
,  // measure 44
00000000
00000000
00003000
00020200
,  // measure 45
00000000
00000000
00030300
00000100
,  // measure 46
00010000
00000000
00001000
00000000
01000000
00010000
00100000
00000000
,  // measure 47
01000000
00000000
10000000
00000000
00100000
10000000
01000000
00000000
,  // measure 48
00100000
00001000
00010000
00001000
,  // measure 49
00001000
00000100
00000100
00000010
,  // measure 50
00001000
00000000
00000100
00000000
00000010
00000001
00000100
00000000
,  // measure 51
00000001
00000000
00000010
00000000
00000100
00010000
00001000
00000000
,  // measure 52
00100000
00010000
00010000
01000000
,  // measure 53
00100000
01100000
10010000
01000000
,  // measure 54
00001000
00000000
00010000
00000000
00000100
00001000
00000010
00000000
,  // measure 55
00000100
00000000
00000001
00000000
00000010
00000001
00000100
00000000
,  // measure 56
00000010
00010000
00001000
00010000
,  // measure 57
00010000
01000000
01000000
00100000
,  // measure 58
00010000
00000000
01000000
00000000
00100000
10000000
01000000
00000000
,  // measure 59
10000000
00000000
00100000
00000000
01000000
00001000
00010000
00000000
,  // measure 60
00000010
00001000
00001000
00000100
,  // measure 61
00000010
00000110
00001001
00000001
,  // measure 62
00000001
00001000
00001000
00000001
,  // measure 63
00000100
00000010
00010000
00001000
,  // measure 64
00001000
01000000
01000000
00100000
,  // measure 65
10000000
00010000
00100000
02000000
,  // measure 66
13000000
02000000
03010000
01000000
,  // measure 67
10000000
02000000
03100000
01000000
,  // measure 68
01000000
10000000
00010000
01000000
,  // measure 69
00001000
00010000
00000100
00000020
,  // measure 70
00000000
00000000
00000000
00000030
,  // measure 71
00000000
00000000
00000000
00000000
,  // measure 72
00000000
00000000
00000000
00000000
,  // measure 73
00000000
00000000
00000000
00000000
,  // measure 74
00000000
20020000
00000000
30030000
,  // measure 75
00000000
00010000
00000000
10000000
00000000
01000000
00000000
00100000
,  // measure 76
00000000
00001000
00010000
00001000
00000000
00010000
00000000
00000100
,  // measure 77
00000000
00001000
00000000
00001000
00000000
00000010
00000100
00000001
,  // measure 78
00000000
00000010
00000000
00000100
00000000
00010000
00000000
00001000
,  // measure 79
00000000
01000000
00000000
00010000
00000000
00100000
00000000
01000000
,  // measure 80
00000000
10000000
00010000
01000000
00000000
00100000
00000000
01000000
,  // measure 81
00000000
00010000
00100000
00001000
00000000
01000000
00000000
00100000
,  // measure 82
00000000
01100000
00000000
10010000
00000000
10000000
01000000
00100000
,  // measure 83
00000000
00010000
00000000
01000000
00000000
00010000
00000000
00100000
,  // measure 84
00000000
00001000
00000000
00010000
00000100
00000010
00000000
00000001
,  // measure 85
00000000
00000100
00000000
00000010
00000000
00001000
00000000
00000001
,  // measure 86
00000000
00001000
00000100
00001000
00000000
00000200
00000000
00000301
,  // measure 87
00000000
00000200
00000000
00001300
00000000
00000100
00000000
00000010
,  // measure 88
00000000
00000200
00000000
00010300
00000000
00001000
00000000
01000000
,  // measure 89
00000000
00100000
00000000
10000000
00000000
01000000
00000000
00100000
,  // measure 90
00000000
00010000
00000000
00001000
00000000
00000110
00000000
00000000
;
