#TITLE:Insane Techniques;
#SUBTITLE:;
#ARTIST:kors k;
#TITLETRANSLIT:;
#SUBTITLETRANSLIT:;
#ARTISTTRANSLIT:;
#GENRE:;
#CREDIT:Silverhawke;
#MENUCOLOR:;
#METERTYPE:DDR;
#BANNER:Insane Techniques.png;
#BACKGROUND:Insane Techniques-bg.png;
#LYRICSPATH:;
#CDTITLE:cdtitle.png;
#MUSIC:Insane Techniques.mp3;
#OFFSET:-0.028;
#SAMPLESTART:95.344;
#SAMPLELENGTH:15.000;
#SELECTABLE:YES;
#LISTSORT:;
#BPMS:0.000=146.000;
#STOPS:;
#BGCHANGES:0.000=Insane Techniques.avi=1.000=1=1=0,
99999=-nosongbg-=1.000=0=0=0 // don't automatically add -songbackground-
;
#ATTACKS:;

//---------------dance-single - ----------------
#NOTES:
     dance-single:
     :
     Hard:
     14:
     0.695,0.745,0.411,0.308,0.403: // measure 1
0000
0000
0000
0000
,  // measure 2
0000
0000
0000
0000
,  // measure 3
0000
0000
0000
0000
,  // measure 4
0000
0000
0000
0000
,  // measure 5
1000
0100
0010
0100
1000
0001
1000
1000
,  // measure 6
0001
0100
0010
0100
0001
1000
0001
0001
,  // measure 7
1000
0100
0010
0100
0010
0001
2000
0002
,  // measure 8
0000
0000
3000
0003
,  // measure 9
1001
0000
0000
1000
0100
0000
0010
0000
0011
0000
0100
0000
1100
0000
0000
0000
,  // measure 10
1001
0000
0000
0001
0100
0000
0010
0000
1010
0000
0100
0000
0101
0000
0000
0000
,  // measure 11
1100
0000
0000
0100
0010
0000
0001
0000
0101
0000
1000
0000
1100
0000
0000
0000
,  // measure 12
0101
0000
0000
0100
0010
0000
1000
0000
1010
0000
0011
0000
0001
0000
0001
0000
,  // measure 13
2000
0000
3001
0100
1000
0100
0001
0010
,  // measure 14
0100
0000
0000
0100
1000
0000
0001
0100
0001
0100
0001
0100
0001
0000
1000
0000
,  // measure 15
1200
0000
0000
0000
0310
0001
0010
0000
0022
0033
0000
0000
2200
3300
0000
0000
,  // measure 16
0001
0000
0100
0000
0020
0000
1030
0000
0001
1000
0000
1000
0000
0000
1000
0000
,  // measure 17
0011
0000
0010
0000
0100
0000
0010
0001
0000
1000
0000
0000
0010
0000
1000
0000
,  // measure 18
1010
0000
0010
0000
0100
0000
0010
1000
0000
0001
0000
0000
0010
0000
0001
0000
,  // measure 19
0101
0000
0100
0000
0010
0000
1000
0100
0000
0010
0000
0000
0100
0000
1000
0000
,  // measure 20
1100
0000
0100
0000
0010
0000
0001
0100
0000
0010
0000
0000
0100
0000
0001
0000
,  // measure 21
1001
0000
1000
0000
0100
0000
0010
0001
0000
0100
0000
0000
0010
0000
1000
0000
,  // measure 22
1001
0000
0001
0000
0100
0000
0010
1000
0000
0100
0000
0000
0220
0000
0330
0000
,  // measure 23
1100
0000
0000
0101
0000
0000
0011
0000
0000
1010
0000
0000
1001
0000
0110
0000
,  // measure 24
1002
0100
0100
0103
,  // measure 25
0002
0000
0023
0000
0130
0000
0010
0001
0000
1000
0000
0010
1000
0000
0001
0000
,  // measure 26
2000
0000
3200
0000
0310
0000
0001
0100
0000
0010
0000
1000
0100
0000
0010
0000
,  // measure 27
0200
0000
2300
0000
3001
0000
0100
0010
0000
1000
0000
0100
0010
0000
0001
0000
,  // measure 28
0200
0000
0320
0000
1030
0000
0001
0100
0000
0010
0000
1000
0001
1000
0001
0000
,  // measure 29
2002
0000
3003
0000
0010
1000
0000
0100
0000
0010
0000
0100
1000
0000
0001
0000
,  // measure 30
1000
0000
0100
0000
0001
0000
0100
0000
1100
0000
0001
0100
0020
0000
0000
0000
,  // measure 31
1030
0100
0001
0010
,  // measure 32
1000
0000
0100
0000
0010
0000
0001
0000
1000
0001
1000
0002
2000
0000
3003
0000
,  // measure 33
0001
0100
0000
0100
0010
0000
0010
1000
,  // measure 34
0000
1000
0100
0000
0100
0010
0000
0010
,  // measure 35
0001
0000
0001
0100
0000
0100
0010
0000
,  // measure 36
0010
1000
0000
1000
0100
0010
0001
0100
,  // measure 37
0010
1000
0000
0010
0001
0000
1000
0100
,  // measure 38
0000
0001
0100
0000
0001
0010
0000
1000
,  // measure 39
0010
0000
0100
0001
0000
0100
1000
0000
,  // measure 40
0010
0100
0000
0001
1000
0100
0010
0001
,  // measure 41
1000
0100
0010
0100
1000
0000
0001
0100
,  // measure 42
0010
0100
0001
0000
1000
0010
0100
0010
,  // measure 43
1000
0000
0001
0010
0100
0010
0001
0000
,  // measure 44
1000
0100
0010
0100
1000
0001
0100
0010
,  // measure 45
1000
0100
0001
0100
1000
0000
0001
0100
,  // measure 46
1000
0100
0001
0000
1000
0010
0001
0010
,  // measure 47
1000
0000
0001
0010
1000
0010
0001
0000
,  // measure 48
1000
0100
0001
0010
0001
0100
1000
0010
,  // measure 49
0200
0000
0010
0000
0010
0000
0310
1000
,  // measure 50
0002
0000
0010
0000
0010
0000
0013
0100
,  // measure 51
2000
0000
0001
0000
0001
0000
3001
0100
,  // measure 52
0020
0000
1000
0000
1000
0000
1030
1100
,  // measure 53
0200
0000
0010
0000
0010
0000
0310
0011
,  // measure 54
0002
0000
0000
0000
0103
0000
0010
1000
0010
1000
0001
0000
1001
0000
0000
0000
,  // measure 55
0101
0000
0000
1010
0000
0000
1100
0000
0000
0011
0000
0000
1001
0000
0110
0000
,  // measure 56
1000
0100
0010
0001
1000
0000
0001
0000
2002
0000
0000
0000
3003
0000
0000
0000
,  // measure 57
0220
0000
0000
0000
,  // measure 58
0000
0000
0330
0000
1100
1000
0011
0001
,  // measure 59
1000
0000
0100
0010
0000
0010
0100
0000
1000
0001
1000
0000
0001
0000
0100
0000
,  // measure 60
0010
0000
1000
0001
0000
0001
1000
0000
0100
0010
0100
0000
1000
0000
0010
0000
,  // measure 61
0100
0000
0001
0010
0000
0010
0001
0000
0100
0010
0100
0000
0001
0000
1000
0000
,  // measure 62
0100
0000
0010
0001
0000
0001
0010
0000
0100
1000
0100
0000
0010
0000
0010
0000
,  // measure 63
0001
0000
0100
0010
0000
0010
0100
0000
0001
1000
0001
0000
1000
0000
0100
0000
,  // measure 64
0010
0000
0001
1000
0000
1000
0001
0000
0100
0010
0100
0000
0001
0000
0010
0000
,  // measure 65
0100
0000
1000
0010
0000
0010
1000
0000
0100
0010
0100
0000
1000
0000
0001
0000
,  // measure 66
0101
0000
1010
0000
1000
0000
1100
0000
0011
0000
0000
0000
1000
0100
0010
0001
,  // measure 67
1000
0000
0001
0100
0000
0100
0001
0000
1000
0100
1000
0100
0010
0000
0010
0000
,  // measure 68
0001
0000
1000
0100
0000
0100
1000
0000
0001
0100
0001
0100
0010
0000
0010
0000
,  // measure 69
1000
0000
0001
0010
0000
0010
0001
0000
1000
0010
1000
0010
0100
0000
0100
0000
,  // measure 70
2002
0000
0000
3003
0101
0100
1100
1000
,  // measure 71
0100
0000
0001
0010
0000
0010
0001
0000
1000
0100
1000
0100
0010
0000
0010
0000
,  // measure 72
0001
0000
1000
0010
0000
0010
1000
0000
0001
0100
0010
1000
0001
0100
0010
0000
,  // measure 73
1000
0000
1000
0000
0001
0000
1000
0100
1000
0100
0010
0000
0001
0100
0001
0100
,  // measure 74
0010
0000
1000
0100
1000
0100
0010
0001
0010
0000
0001
0000
0100
0000
0010
0000
,  // measure 75
2002
0000
0000
0000
,  // measure 76
0000
0000
3003
0000
;

//---------------dance-single - ----------------
#NOTES:
     dance-single:
     :
     Medium:
     11:
     0.477,0.507,0.103,0.111,0.016:
0000
0000
0000
0000
,
0000
0000
0000
0000
,
0000
0000
0000
0000
,
0000
0000
0000
0000
,
0001
0100
1000
0010
,
0001
0010
1000
0100
,
0001
0000
0010
0000
0100
0000
1000
0020
,
0000
0000
0130
1001
,
0001
0000
0100
0010
1000
0100
0010
0001
,
1001
0000
1000
0010
0100
0001
0010
0100
,
0110
0000
0010
0001
0100
0010
1000
0001
,
0011
0000
0010
0100
1000
0010
0100
0100
,
0001
0000
1200
0000
0302
0000
0103
1000
,
0001
0000
0100
0010
0010
1000
1000
0001
,
0010
0000
0100
0100
1001
0000
0110
0000
,
0001
0100
1000
0010
0002
0000
0003
0000
,
1000
0100
0010
0000
1000
0100
0010
0001
,
0100
0010
1000
0000
0100
0010
1000
0100
,
0010
0001
0100
0000
0010
0001
0100
0010
,
1000
0001
0010
0000
1000
0001
0010
0100
,
1000
0010
0100
0000
1000
0010
0100
0001
,
0010
0100
1000
0000
0001
1000
1001
0000
,
0001
0000
0000
0100
0000
0000
0010
0000
0000
1000
0000
0000
0100
0000
0010
0000
,
0002
0010
1000
0103
,
0010
1000
0100
0010
0001
0100
0010
0000
,
1000
0100
0010
0001
0100
0001
0010
0000
,
0100
1000
0010
0001
0010
1000
0100
0000
,
0010
0001
0100
1000
0100
0001
1000
0010
,
0200
0000
1300
0100
0010
1000
0001
0000
,
0010
0100
0001
0100
1000
0002
0200
0303
,
0001
0010
1000
0100
,
0001
0010
0100
1000
0020
0000
0130
0000
,
0001
0000
0000
0010
0000
0000
0001
0000
,
0000
0100
0000
0000
0010
0000
0000
1000
,
0000
0000
0100
0000
0000
0010
0000
0000
,
0100
0000
0000
1000
0000
0000
0001
0000
,
0100
0000
0000
1000
0000
0000
0100
0000
,
0000
0001
0000
0000
1000
0000
0000
0100
,
0000
0000
0001
0000
0000
0100
0000
0000
,
1000
0000
0000
0010
0000
0000
0100
0000
,
0001
1000
0000
1000
0000
1000
0000
1000
,
0000
1000
0000
1000
0000
1000
0000
0000
,
1000
0100
0000
0100
0000
0100
0000
0100
,
0000
0100
0000
0100
0000
0100
0000
0000
,
0100
0010
0000
0010
0000
0010
0000
0010
,
0000
0010
0000
0010
0000
0010
0000
0000
,
0010
0001
0000
0001
0000
0001
0000
0001
,
1000
0010
0100
0001
0010
0100
1000
0000
,
0001
0000
0100
0000
0010
0100
0001
0000
,
1000
0000
0100
0000
0010
0100
1000
0000
,
0001
0000
0010
0000
0100
0010
0001
0000
,
1000
0000
0010
0000
0100
0010
1000
0000
,
0001
0000
0100
0000
1000
0100
0001
0000
,
1000
0000
0100
0001
0100
1000
0001
0000
,
1000
0000
0000
0100
0000
0000
0010
0000
0000
0001
0000
0000
1000
0000
0010
0000
,
0100
0001
1000
0100
0001
0100
1000
0010
,
0200
0000
0000
0000
,
0000
0300
0110
1001
,
1000
0100
0010
0001
0100
0100
0010
0001
,
1000
0010
0100
0001
0100
0100
1000
0001
,
0010
0100
1000
0001
0100
0100
1000
0100
,
0001
0100
0010
0001
0100
0100
1000
0000
,
0001
0100
0010
1000
0100
0100
0010
1000
,
0001
0010
0100
1000
0100
0100
0001
1000
,
0010
0100
0001
1000
0100
0100
0010
1000
,
0001
0101
0000
1000
1100
0000
1001
0000
,
0001
0100
1000
0100
0001
0001
1000
1000
,
0100
0001
0100
1000
0001
0001
1000
1000
,
0010
0001
0010
1000
0001
0001
1000
1000
,
0020
0000
0000
0000
0130
0001
2000
3200
,
0310
0001
0100
0010
0001
0010
1000
0001
,
0010
0100
0001
0100
1000
0010
0100
0010
,
1000
1000
0001
0001
0010
0010
0100
0100
,
1000
0001
0010
0100
0010
0001
1000
0100
,
0020
0000
0000
0000
,
0000
0000
0030
0000
;

//---------------dance-single - ----------------
#NOTES:
     dance-single:
     :
     Easy:
     6:
     0.273,0.328,0.032,0.087,0.000:
0000
0000
0000
0000
,
0000
0000
0000
0000
,
0000
0000
0000
0000
,
0000
0000
0000
0000
,
0001
0000
0100
0000
,
1000
0000
0010
0000
,
0001
0000
1000
0000
,
0020
0000
0030
0000
,
1000
1001
0001
0100
,
0010
0100
0010
1000
,
0001
1001
1000
0100
,
0010
0100
1000
0010
,
0100
0010
0010
0000
,
0100
0000
0001
1000
0001
0000
0100
0000
,
1000
0000
0001
1000
0001
0000
0001
0000
,
0200
0000
0300
0000
,
0010
0000
1000
0000
0100
0010
0100
0000
,
0010
0000
0001
0000
0100
0010
0100
0000
,
0010
0000
1000
0000
0100
0010
0100
0000
,
0010
0000
0001
0000
0100
0010
0100
0000
,
0010
0000
1000
0000
0100
0010
0100
0000
,
0010
0000
0001
0000
0100
0010
0100
0000
,
0010
0000
0000
0010
0000
0000
0010
0000
,
0020
0000
0030
0000
,
1000
0000
0100
0000
0001
0100
0010
0000
,
1000
0000
0001
0000
1000
0100
0010
0000
,
0001
0000
0100
0000
1000
0100
0010
0000
,
0001
0000
0100
0000
0010
1000
0001
0000
,
1000
0000
0100
0000
0001
0010
0100
0000
,
1000
0000
0010
0000
0100
0001
1000
0000
,
0100
0100
0100
0100
,
0200
0000
0300
0000
,
1000
0000
0001
0000
,
0100
0000
0010
0000
,
1000
0000
0001
0000
,
1000
0000
0010
0000
,
1000
0000
0001
0000
,
0100
0000
0010
0000
,
0100
0000
0001
0000
,
1000
0000
0010
0000
,
0100
0000
0001
0000
,
1000
0000
0010
0000
,
0100
0000
0010
0000
,
1000
0000
0001
0000
,
0100
0000
0010
0000
,
0100
0000
0001
0000
,
1000
0000
0010
0000
,
0200
0000
0300
0000
,
1000
0100
0001
0000
,
1000
0100
0010
0000
,
1000
0010
0001
0000
,
1000
0100
0001
0000
,
1000
0100
0010
0000
,
1000
0010
0001
0000
,
1000
0100
0010
0001
,
2002
0000
3003
0000
,
0200
0000
0000
0000
,
0300
0000
0100
0100
,
1000
0010
0001
0100
,
0001
0010
0100
1000
,
0001
0100
0010
1000
,
0100
0010
0001
0100
,
0010
1000
0100
0010
,
0100
1000
0001
0010
,
0100
0001
0010
0100
,
1000
0100
0010
1000
,
0010
0001
0100
0010
,
1000
0100
0001
1000
,
0100
0001
0010
0100
,
2000
0000
3001
0001
,
0100
0010
1000
0100
,
0001
0010
0100
0001
,
0010
0010
0010
0010
,
0100
0100
0010
0100
,
0220
0000
0000
0000
,
0000
0000
0330
0000
;

//---------------dance-single - ----------------
#NOTES:
     dance-single:
     :
     Beginner:
     2:
     0.112,0.179,0.000,0.047,0.000:
0000
0000
0000
0000
,
0000
0000
0000
0000
,
0000
0000
0000
0000
,
0000
0000
0000
0000
,
0001
0000
0000
0000
,
1000
0000
0000
0000
,
0010
0000
0000
0000
,
0100
0000
0000
0000
,
0001
0000
0001
0000
,
0001
0000
0000
0000
,
1000
0000
1000
0000
,
1000
0000
0000
0000
,
0100
0000
0100
0000
,
0100
0000
0000
0000
,
0010
0000
0010
0000
,
0010
0000
0000
0000
,
0001
0000
0000
0000
,
0100
0000
0100
0000
,
1000
0000
0000
0000
,
0010
0000
0010
0000
,
0001
0000
0000
0000
,
1000
0000
1000
0000
,
0100
0000
0000
0000
,
0010
0000
0000
0000
,
0100
0000
0100
0000
,
1000
0000
1000
0000
,
0001
0000
0001
0000
,
0100
0000
0100
0000
,
0010
0000
0000
0000
,
0100
0000
0100
0000
,
0002
0000
0003
0000
,
2000
0000
3000
0000
,
0100
0000
0000
0000
,
0000
0000
0000
0000
,
0000
0000
0000
0000
,
0000
0000
0000
0000
,
0010
0000
0000
0000
,
0000
0000
0000
0000
,
0000
0000
0000
0000
,
0000
0000
0000
0000
,
0001
0000
0000
0000
,
0000
0000
0000
0000
,
1000
0000
0000
0000
,
0000
0000
0000
0000
,
0001
0000
0000
0000
,
0000
0000
0000
0000
,
1000
0000
0000
0000
,
0020
0000
0030
0000
,
1000
0000
0000
0001
,
0001
0000
0000
0100
,
0100
0000
0000
0010
,
0010
0000
0000
1000
,
1000
0000
0000
0100
,
0100
0000
0000
0000
,
0020
0000
0030
0000
,
0001
0000
0001
0000
,
0001
0000
0000
0000
,
0000
0000
1000
0000
,
1000
0000
1000
0000
,
0100
0000
0000
0000
,
0001
0000
0001
0000
,
0010
0000
0000
0000
,
0100
0000
0100
0000
,
1000
0000
0000
0000
,
0010
0000
0010
0000
,
0001
0001
0001
0000
,
1000
0000
1000
0000
,
0100
0000
0100
0000
,
0001
0000
0001
0000
,
0020
0000
0030
0000
,
1000
0000
1000
0000
,
0010
0000
0010
0000
,
0001
0000
0001
0000
,
1000
0000
1000
0000
,
0200
0000
0000
0000
,
0000
0000
0300
0000
;

//---------------dance-double - ----------------
#NOTES:
     dance-double:
     :
     Hard:
     15:
     0.683,0.984,0.158,0.253,0.561:
00000000
00000000
00000000
00000000
,
00000000
00000000
00000000
00000000
,
00000000
00000000
00000000
00000000
,
00000000
00000000
00000000
00000000
,
00001000
00010000
01000000
00000000
00010000
00000100
00000010
00000001
,
00000100
00000010
00010000
00000000
00001000
01000000
10000000
01000000
,
00100000
10000000
01000000
00010000
00001000
00000010
00000002
00000200
,
00000000
00000000
00000000
00000000
00000000
00000000
00000000
00000000
00000000
00000003
00000000
00000000
00000300
00000000
00000000
00000000
,
00001010
00000000
00000000
00001000
00000100
00000000
00010000
00000000
01000000
00000000
00010000
00000000
00001000
00000000
00010000
00000000
,
00100000
00000000
00000000
10000000
01000000
00000000
00100000
00000000
00001000
00000000
00000010
00000000
00001000
00000000
00010000
00000000
,
00000100
00000000
00000000
00000010
00000001
00000000
00000100
00000000
00001000
00000000
01000000
00000000
00010000
00000000
00100000
00000000
,
01000000
00000000
00000000
10000000
00010000
00000000
01000000
00000000
00001000
00000000
00010000
00000000
00001000
00000000
00000100
00000000
,
00000010
00000000
00001010
00000000
00010100
00000000
00010000
01000000
,
00100000
00000000
00000000
00010000
01000000
00000000
00100000
10000000
00100000
10000000
00100000
10000000
00010000
00000000
00100000
00000000
,
02000000
00000000
00000000
00000000
13000000
00010000
10000000
00000000
10010000
00000000
00000000
00000000
00001001
00000000
00000000
00000000
,
00000001
00000000
00001000
00000000
00020000
00000000
10030000
00000000
01000000
00100000
00000000
00100000
00000000
00000000
00100000
00000000
,
00020000
00000000
02030000
00000000
03100000
00000000
10000000
01000000
00000000
00100000
00000000
00001000
00010000
00000000
00001000
00000000
,
00000200
00000000
00000320
00000000
00001030
00000000
00000001
00000010
00000000
00000100
00000000
00010000
00001000
00000000
00010000
00000000
,
02000000
00000000
03200000
00000000
00301000
00000000
00010000
00000010
00000000
00000100
00000000
00001000
00010000
00000000
00100000
00000000
,
02000000
00000000
03020000
00000000
10030000
00000000
01000000
00010000
00000000
00001000
00000000
00010000
00000100
00000000
00000010
00000000
,
00000002
00000000
00000203
00000000
00000310
00000000
00010000
00001000
00000000
00010000
00000000
01000000
10000000
00000000
00100000
00000000
,
02000000
00000000
03002000
00000000
00013000
00000000
00001000
00000100
00000000
00000010
00000000
00001000
00000002
00000000
00000000
00000000
,
00000013
00000000
00000001
00000100
00000000
00001000
00000100
00000000
00001000
00010000
00000000
01000000
00010000
01000000
00100000
00010000
,
20000000
00000000
00020000
00000000
00000000
30000000
00030000
00000000
,
10000000
00000000
00100000
00000000
01000000
00000000
00001000
00010000
00000000
00001000
00000000
00000100
00000010
00000000
00001000
00000000
,
00000001
00000000
00000010
00000000
00000100
00000000
00000001
00000100
00000000
00001000
00000000
00000010
00000100
00000000
00010000
00000000
,
01000000
00000000
00100000
00000000
10000000
00000000
00010000
00100000
00000000
00001000
00000000
00000100
00000010
00000000
00001000
00000000
,
00000001
00000000
00000010
00000000
00000100
00000000
00010000
00001000
00000000
00010000
00000000
01000000
00100000
00000000
00010000
00000000
,
20020000
00000000
30030000
00000000
00010000
00100000
00000000
00010000
00000000
01000000
00000000
00001000
00010000
00000000
00000100
00000000
,
00000010
00000000
00000001
00000000
00000100
00000000
00000010
00001000
00000000
00000100
00000010
00000000
00002002
00000000
00003003
00000000
,
00000001
00001000
00010000
10000000
,
00010000
00100000
01000000
00010000
00000010
00000100
00001000
00000001
,
00000010
00001000
00000000
00000010
00001000
00000000
00000100
00010000
,
00000000
00000100
00010000
00000000
00001000
01000000
00000000
00001000
,
01000000
00000000
00100000
10000000
00000000
00100000
10000000
00000000
,
00010000
00100000
00000000
00010000
00100000
10000000
00100000
00001000
,
00100000
00000010
00000000
00100000
00000010
00000000
00100000
00001000
,
00000000
00100000
00001000
00000000
00100000
00001000
00000000
10000000
,
00001000
00000000
10000000
00001000
00000000
10000000
00001000
00000000
,
10000000
00010000
00000000
10000000
01000000
00010000
00001000
00000010
,
00000002
00000100
00000000
00000100
00000000
00000100
00000000
00000100
,
00000000
00000100
00000000
00000100
00000000
00000103
00000000
00000000
,
00000020
00010000
00000000
00010000
00000000
00010000
00000000
00010000
,
00000000
00000000
00010000
00000000
00000000
00000000
00010000
00000000
00000000
00000000
00010030
00000000
00000000
00000000
00001000
01000000
,
00002000
00100000
00000000
00100000
00000000
00100000
00000000
00100000
,
00000000
00100000
00000000
00100000
00000000
00103000
00000000
00000000
,
02000000
10000000
00000000
10000000
00000000
10000000
00000000
13000000
,
00100000
00010000
00001000
00000100
00000010
00001000
00010000
01000000
,
00100000
00000000
00000000
00000000
10000000
00000000
00000000
00000000
01000000
00100000
01000000
00100000
00010000
00000000
00010000
00000000
,
00001000
00000000
00000000
00000000
00001000
00000000
00000000
00000000
00000100
00000010
00000100
00000010
00000001
00000000
00001000
00000000
,
00000100
00000000
00000000
00000000
00010000
00000000
00000000
00000000
00100000
01000000
00100000
01000000
00010000
00000000
00010000
00000000
,
00100000
00000000
00000000
00000000
00001000
00000000
00000000
00000000
00000010
00000100
00000010
00000100
00001000
00000000
00000001
00000000
,
00000100
00000000
00000000
00000000
00000010
00000000
00000000
00000000
00010000
00001000
00010000
00001000
00100000
00000000
01000000
00000000
,
10000000
00000000
00000000
00000000
00100000
00000000
01000000
00010000
01000000
00010000
10000000
00000000
10100000
00000000
00000000
00000000
,
01010000
00000000
00000000
00101000
00000000
00000000
00010100
00000000
00000000
00001010
00000000
00000000
00000101
00000000
00000001
00000000
,
00000010
00000100
00000010
00000100
00010000
00000100
00010000
00000100
00010000
00001000
00010000
00001000
02000000
00000000
00000000
00000000
,
03200000
00000000
00000000
00000000
,
00300000
00000000
00000000
00000000
11000000
10000000
01010000
00010000
,
10000000
00000000
00100000
01000000
00000000
01000000
00010000
00000000
00100000
00001000
00100000
00001000
00010000
00000000
00010000
00000000
,
00000010
00000000
00000100
00000001
00000000
00000001
00001000
00000000
00000100
00000010
00000100
00000010
00000001
00000000
00000001
00000000
,
00001000
00000000
00000010
00000100
00000000
00000100
00001000
00000000
00010000
00001000
00010000
00001000
01000000
00000000
01000000
00000000
,
00100000
00000000
10000000
00010000
00000000
01000000
00100000
00000000
10000000
01000000
00100000
00001000
00010000
00000000
00010000
00000000
,
00001000
00000000
01000000
00010000
00000000
00010000
00100000
00000000
01000000
00010000
01000000
00010000
00001000
00000000
00001000
00000000
,
00000100
00000000
00000010
00001000
00000000
00001000
00000001
00000000
00000010
00000100
00000010
00000100
00010000
00000000
00010000
00000000
,
00001000
00000000
01000000
00100000
00000000
00100000
10000000
00000000
00010000
00100000
00010000
00100000
01000000
00000000
01000000
00000000
,
11000000
00000000
10000000
00000000
00010000
00000000
00110000
00000000
00101000
00000000
00000000
00000000
00001000
00010000
00000100
00000010
,
00001000
00000000
00010000
00001000
00000000
01000000
00010000
00000000
00100000
01000000
10000000
00100000
01000000
00000000
00001000
00000000
,
00000100
00000000
00000010
00001000
00000000
00000001
00000010
00000000
00000100
00000001
00000100
00000010
00001000
00000000
00010000
00000000
,
00100000
00000000
01000000
00010000
00000000
10000000
01000000
00000000
00100000
00001000
00010000
00001000
00000100
00000000
00000010
00000000
,
00002002
00000000
00000000
00003003
00000001
00001000
00011000
00010000
,
10000000
00000000
01000000
00100000
00000000
00001000
00010000
00000000
00000010
00000100
00001000
00000100
00000001
00000000
00001000
00000000
,
00000100
00000000
00010000
00001000
00000000
00100000
01000000
00000000
10000000
00100000
01000000
00010000
10000000
00100000
01000000
00010000
,
10000000
01000000
10000000
01000000
00100000
01000000
00100000
01000000
00100000
00001000
00100000
00001000
00010000
00001000
00010000
00001000
,
00010000
00000010
00010000
00000010
00000100
00000010
00000100
00000010
00000100
00000001
00000100
00000001
00000010
00000001
00000010
00000001
,
00020000
00000000
00000000
00000000
,
00000000
00000000
00030000
00000000
;

//---------------dance-double - ----------------
#NOTES:
     dance-double:
     :
     Medium:
     10:
     0.445,0.477,0.055,0.095,0.020:
00000000
00000000
00000000
00000000
,
00000000
00000000
00000000
00000000
,
00000000
00000000
00000000
00000000
,
00000000
00000000
00000000
00000000
,
10000000
01000000
00100000
00010000
,
00001000
00000100
00000010
00000001
,
00000100
00000000
00000010
00000000
00001000
00000000
00020000
02000000
,
00000000
00000000
00000000
03030000
,
10000000
00000000
01000000
00100000
00010000
00010000
01000000
00001000
,
00010000
00000000
00000010
00000100
00000010
00000010
00001000
00000100
,
00000010
00000000
00000001
00000100
00000001
00000001
00000010
00000100
,
00010000
00000000
00001000
00100000
00001000
00001000
00010000
01000000
,
10000000
01100000
10010000
01100000
,
10000000
00000000
00000000
00000000
00100000
00000000
01000000
00000000
00010000
01000000
00010000
00000000
01000000
00000000
00100000
00000000
,
00020000
00000000
00001000
00031000
00011000
00000000
00011000
00000000
,
00001000
00000100
00000020
00001030
00000001
00000000
00000000
00000000
,
00001000
00000100
00010000
00000000
00001000
01000000
00010000
00100000
,
01000000
10000000
00100000
00000000
01000000
00010000
01000000
00001000
,
00010000
00000100
00000010
00000000
00000001
00000100
00000001
00000010
,
00000100
00010000
00001000
00000000
00010000
00001000
00010000
01000000
,
00100000
00010000
10000000
00000000
00100000
01000000
00100000
10000000
,
01000000
00010000
00001000
00000000
00000100
00000010
00002000
00000000
,
00003001
00000000
00000000
00000100
00000000
00000000
00000010
00000000
00000000
00001000
00000000
00000000
00010000
00000000
01000000
00000000
,
00200000
10000000
10000000
10300000
,
00010000
01000000
00100000
00000000
10000000
00010000
10000000
00000000
,
00001000
00010000
00001000
00000100
00000010
00001000
00000001
00000000
,
00000010
00000100
00010000
00000000
00001000
00010000
00001000
00000000
,
00000100
00000010
00010000
00001000
00010000
00001000
01000000
00000000
,
02100000
00000000
03010000
00000000
00100000
01000000
00010000
00000000
,
00001000
00010000
00001000
00000100
00000010
00002000
00003001
00000000
,
00001000
00001000
00001000
00001000
,
00000100
00010000
00000100
00010000
00001000
00100000
00020000
00000000
,
10030000
01000000
00000000
10000000
01000000
00000000
10000000
00010000
,
00000000
01000000
00010000
00000000
01000000
00010000
00000000
01000000
,
00001000
00000000
00010000
00001000
00000000
00010000
00001000
00000000
,
00010000
00000100
00000000
00010000
00000100
00000000
00000010
00000001
,
00000100
00000010
00000000
00000100
00000010
00000000
00001000
00000010
,
00000000
00001000
00000100
00000000
00001000
00000100
00000000
00010000
,
00000100
00000000
00010000
00001000
00000000
00010000
00001000
00000000
,
01000000
00001000
00000000
01000000
00010000
00100000
01000000
10000000
,
00010000
01000000
10000000
01000000
,
00010000
00100000
00001000
00010000
,
00001000
00000100
00000001
00000100
,
00001000
00010000
01000000
00010000
,
00001000
00100000
01000000
00100000
,
00001000
01000000
10000000
01000000
,
00100000
10000000
00010000
10000000
,
00100000
01000000
00001000
00010000
,
00000100
00000000
00000010
00000000
00000010
00000000
00000010
00000001
,
00001000
00000000
00000100
00000000
00000100
00000000
00000100
00010000
,
00001000
00000000
01000000
00000000
01000000
00000000
01000000
00010000
,
00100000
00000000
01000000
00000000
01000000
00000000
01000000
10000000
,
00010000
00000000
01000000
00000000
01000000
00000000
01000000
00100000
,
00010000
00000000
00001000
00010000
00001000
00010000
00000100
00000000
,
00000010
00000000
00000000
00000001
00000000
00000000
00000100
00000000
00000000
00000010
00000000
00000000
00001000
00000000
00000100
00000000
,
00010000
00001000
00100000
00010000
01000000
00100000
10000000
01000000
,
00200000
00000000
00000000
00000000
,
00000000
00000000
00300000
00000000
,
00010000
00000000
01000000
00000000
00010000
00100000
00001000
00000000
,
00010000
00000000
00000010
00000000
00000100
00000001
00000010
00000000
,
00000100
00000000
00010000
00000000
00001000
01000000
00001000
00000000
,
00010000
00000000
01000000
00000000
10000000
00100000
01000000
00000000
,
01000000
00000000
00010000
00000000
10000000
01000000
00100000
00000000
,
00001000
00000000
00010000
00000000
00001000
00000100
00000010
00000000
,
00001000
00000000
00000001
00000000
00000010
00000100
00010000
00000000
,
00001000
00001000
00000000
00010000
00010000
00000000
00011000
00000000
,
00001000
00000000
01000000
00000000
00100000
10000000
00010000
10000000
,
01000000
00000000
00100000
00000000
00001000
00010000
00001000
00000100
,
00000010
00000000
00001000
00000000
00000001
00000010
00000100
00000010
,
00000002
00000000
00000000
00000000
00001003
00000100
00010000
00001000
,
01000000
00000000
01000000
00000000
00100000
10000000
00010000
10000000
,
01000000
00000000
00010000
00000000
00001000
00000100
00000010
00001000
,
00000001
00000001
00000010
00000010
00000100
00010000
00001000
00000000
,
01000000
00000000
00010000
00000000
00100000
01000000
10000000
01000000
,
00020000
00000000
00000000
00000000
,
00000000
00000000
00030000
00000000
;

//---------------dance-double - ----------------
#NOTES:
     dance-double:
     :
     Easy:
     6:
     0.306,0.358,0.047,0.118,0.000:
00000000
00000000
00000000
00000000
,
00000000
00000000
00000000
00000000
,
00000000
00000000
00000000
00000000
,
00000000
00000000
00000000
00000000
,
00002000
00000000
00000000
00003000
,
00020000
00000000
00000000
00030000
,
00000200
00000000
00000000
00000000
00000000
00000300
00000000
00000020
,
00000000
00000000
00000030
00000000
,
00000001
00000000
00000100
00000000
00000001
00001000
00000001
00000000
,
00001000
00000100
00010000
00010000
,
00001000
00000000
01000000
00000000
00010000
10000000
00010000
00000000
,
01000000
00100000
10000000
10000000
,
01000000
00100000
00200000
00300000
,
00010000
00000000
01000000
00001000
01000000
00000000
00001000
00000000
,
00010000
00000100
00001100
00001100
,
00002000
00000002
00003003
00000000
,
00000001
00000100
00000010
00001000
,
00000100
00010000
00001000
00010000
,
01000000
00100000
00010000
10000000
,
00100000
00000000
01000000
00000000
00010000
10000000
00010000
00000000
,
10000000
01000000
00100000
00001000
,
00010000
00001000
00000100
00000010
,
00001000
00000000
00000000
00000001
00000000
00000000
00001001
00000000
,
00000000
00000100
00000000
00000000
,
00000001
00000000
00001000
00000000
00000100
00000010
00000100
00000000
,
00010000
00000000
00001000
00000000
00010000
00001000
00010000
00000000
,
00001000
00000000
01000000
00000000
00100000
01000000
00100000
00000000
,
10000000
00000000
00010000
00000000
00100000
01000000
10000000
00000000
,
00010000
00000000
01000000
00000000
00001000
00010000
00001000
00000000
,
00010000
00000000
00000100
00000000
00000010
00000100
00001000
00000000
,
00000001
00000000
00001000
00000000
,
00010000
00000000
10000000
00000000
,
10020000
00000000
00000000
00000000
,
01000000
00000000
00000000
00000000
,
00230000
00000000
00000000
00000000
,
00302000
00000000
00000000
00000000
,
00023000
00000000
00000000
00000000
,
00000010
00000000
00000000
00000000
,
00030200
00000000
00000000
00000000
,
00000320
00000000
00000000
00000000
,
00000031
00001000
00000001
00001000
,
00000010
00000100
00000010
00000100
,
00001000
00010000
00001000
00010000
,
00001000
00000000
01000000
00000000
00001000
00000000
01000000
00100000
,
10000000
00010000
10000000
00010000
,
00100000
01000000
00100000
01000000
,
00010000
00001000
00010000
00001000
,
00000100
00000000
00000010
00000000
00001000
00000001
00000010
00000000
,
00000100
00000000
00000000
00000000
00000000
00000000
00010000
00001000
,
01000000
00000000
00000000
00000000
00000000
00000000
00100000
10000000
,
00010000
00000000
00000000
00000000
00000000
00000000
00100000
00001000
,
00010000
00000000
00000000
00000000
00000000
00000000
00000100
00001000
,
00000010
00000000
00000000
00000000
00000000
00000000
00000100
00000001
,
00001000
00000000
00000000
00000100
00010000
00000100
00010000
00000000
,
00001000
00000000
00000000
01000000
00000000
00000000
00100000
00000000
,
10000000
00010000
00100000
01000000
,
10010000
00000000
00000000
00000000
,
00000000
00000000
01100000
00000000
,
10000000
00000000
01000000
00000000
00100000
00001000
00100000
00000000
,
00001000
00000000
00010000
00000000
00000100
00001000
00000100
00000000
,
00000010
00000000
00000001
00000000
00000100
00000010
00001000
00000000
,
00000001
00000000
00000010
00000000
00000100
00010000
00001000
00000000
,
01000000
00000000
00010000
00000000
00100000
01000000
00100000
00000000
,
00010000
00000000
01000000
00000000
00100000
10000000
00100000
00000000
,
01000000
00000000
00001000
00000000
00010000
00000100
00010000
00000000
,
00000100
00000100
00000000
00000100
00000100
00000000
00000100
00000000
,
00000010
00000000
00000001
00000000
00000100
00000010
00000100
00000000
,
00000010
00000000
00001000
00000000
00000100
00010000
00000100
00000000
,
00010000
00000000
00001000
00000000
01000000
00010000
01000000
00000000
,
00200000
00300000
10000000
10000000
,
00010000
00000000
00100000
00000000
00001000
00010000
00001000
00000000
,
00000100
00000000
00000010
00000000
00001000
00000001
00001000
00000000
,
00000001
00000000
00000010
00000000
00000100
00010000
00001000
00000000
,
01000000
00000000
00010000
00000000
00100000
01000000
10000000
00010000
,
02000000
00000000
00000000
00000000
,
00000000
00000000
03000000
00000000
;
