#TITLE:In Heaven;
#SUBTITLE:;
#ARTIST:Sota Fujimori;
#TITLETRANSLIT:;
#SUBTITLETRANSLIT:;
#ARTISTTRANSLIT:;
#GENRE:;
#CREDIT:Silverhawke;
#MENUCOLOR:;
#METERTYPE:DDR;
#BANNER:In Heaven.png;
#BACKGROUND:In Heaven-bg.png;
#LYRICSPATH:;
#CDTITLE:cdtitle.png;
#MUSIC:In Heaven.mp3;
#OFFSET:-0.028;
#SAMPLESTART:51.553;
#SAMPLELENGTH:15.000;
#SELECTABLE:YES;
#LISTSORT:;
#BPMS:0.000=149.000;
#STOPS:;
#BGCHANGES:0.000=In Heaven.avi=1.000=1=1=0,
99999=-nosongbg-=1.000=0=0=0 // don't automatically add -songbackground-
;
#ATTACKS:;

//---------------dance-single - ----------------
#NOTES:
     dance-single:
     :
     Hard:
     12:
     0.633,0.676,0.302,0.661,0.184:
0000
0000
0000
0000
,
0000
0000
0000
0000
,
0000
0000
0000
0000
,
0000
0000
0000
0000
,
0010
0010
1000
1000
,
0100
0000
0100
0010
0000
0010
0100
1000
,
0001
0000
0000
0000
0001
0000
0200
0000
0310
0000
0000
1000
0000
0000
0100
0000
,
0010
0000
0100
0000
1000
0001
0110
0000
,
0010
1000
0020
0230
0302
0023
0230
2300
,
3001
0000
0100
0010
0000
0010
0100
0010
,
1000
0100
0020
0032
0023
0230
2300
3020
,
0130
0000
0000
0000
1001
0000
0000
0000
0010
0000
0000
0000
1001
0000
0000
0010
,
0100
1000
0200
0320
0032
0203
0320
2030
,
3001
0000
0010
0100
0000
0100
0010
0001
,
1000
0010
0200
0302
0203
0320
2030
3200
,
0310
0000
0000
0000
1001
0000
0000
0000
0010
0000
0000
1100
0000
0101
0000
0000
,
2000
0000
3010
0000
0100
0001
0010
0100
,
2000
0000
3010
0200
0001
0000
0310
0000
,
1000
0000
0100
0010
0100
1000
0100
0000
,
0010
0000
0001
0100
0010
0100
0001
0010
,
0200
0000
1300
0000
0010
0100
0001
0010
,
0200
0000
1300
0002
0010
0000
0103
0000
,
0010
0000
1000
0100
0001
0100
1000
0000
,
1001
0000
0100
0101
0000
2200
3300
0000
,
0001
0000
0100
0010
0100
1000
0100
0001
,
0020
0000
0130
2000
0001
0000
3010
0000
,
0100
0000
0001
0200
1000
0000
0310
0000
,
0100
0000
0001
0020
1000
0000
0130
0000
,
0011
0000
0100
0010
0100
0001
0100
1000
,
0020
0000
0130
0001
1000
0000
0010
1000
,
0200
0000
0310
0002
1000
0000
0013
0000
,
1001
0000
0100
0010
1010
0000
0101
0000
,
0020
0000
1030
0100
0001
0100
1000
0010
,
0200
0000
0301
0020
0100
0000
0031
0000
,
1100
0000
0101
0001
1000
0010
0100
0001
,
0020
0000
0130
2000
0001
0000
3010
0000
,
0201
0000
0310
1000
0001
0100
1000
0100
,
0002
0000
0013
0200
1000
0000
0310
0000
,
1001
0000
1010
0010
0100
0001
0010
0100
,
2000
0000
3010
0200
0001
0000
0310
0000
,
2001
0000
3010
0100
1000
0100
0001
0010
,
0200
0000
1300
0020
0001
0000
0130
0000
,
0101
0000
1010
1000
0001
0010
1000
0010
,
0002
0000
0103
0020
0001
0000
1030
0000
,
1002
0000
0013
0100
0001
0100
1000
0010
,
0200
0000
0301
0020
1000
0000
0130
0000
,
1100
0000
0000
0000
1000
0000
0001
0000
0101
0000
0000
0110
0000
0000
1010
0000
,
1002
0000
0013
0200
1000
0000
0301
0000
,
2001
0000
3001
0100
0020
0000
2030
0000
,
3002
0000
0013
0200
1000
0000
0310
0100
,
1002
0000
0103
0020
1000
0000
0130
0002
,
0000
0000
0023
0000
0000
0000
0230
0000
0000
0000
0300
0000
1000
0001
1000
0000
,
1002
0000
1003
0100
0020
0000
0032
0000
,
2003
0000
3010
0200
0001
0000
0320
0000
,
2030
0000
3100
0020
0001
0000
0130
2000
,
0000
0000
0000
0000
3001
0000
0000
0000
0100
0000
0010
1000
0001
0000
0000
0000
,
0010
0100
0000
0010
0001
0000
0100
0001
0000
0100
0010
0000
1000
0000
0100
0000
,
0010
0000
0000
0100
0000
0000
1000
0000
0000
1000
0000
0000
1000
0000
0001
0000
,
0100
0000
0000
0001
0000
0000
0010
0000
0000
0010
0000
0000
0010
0000
0100
0000
,
1000
0000
0000
0001
0000
0000
0100
0000
0000
0100
0000
0000
0100
0000
0100
0000
,
0010
0100
0000
0010
1000
0000
0100
1000
0000
0100
0010
0000
0001
0000
0100
0000
,
0010
0000
0000
0100
0000
0000
0001
0000
0000
0001
0000
0000
0001
0000
1000
0000
,
0100
0000
0000
1000
0000
0000
0010
0000
0000
0010
0000
0000
0010
0000
0100
0000
,
0001
0000
0000
0101
0000
0000
1000
0000
0000
1100
0000
0000
1001
0000
0000
0000
,
0100
0000
0000
0110
0000
0000
0010
0000
1000
0000
1000
0000
0001
0000
0010
0000
,
0001
0100
0001
1000
0100
1000
0001
0000
0000
1001
0000
0000
,
0010
0010
0100
0100
1000
0010
0100
0001
,
1000
0000
0010
0000
0100
0000
0010
0000
0000
1000
0000
0000
0001
0000
0000
0000
0000
0000
2002
0000
0000
3003
0000
0000
,
0001
0001
0010
0010
0100
1000
0001
0100
,
0001
0100
0010
1000
0010
0100
0001
0000
0000
1001
0000
0000
,
1000
0000
1000
0000
0100
0000
0100
0000
0010
0000
0001
0010
0001
0000
0100
0000
,
0010
0000
1000
0000
0100
0000
0010
0000
0001
0000
0100
0000
0010
0000
0000
0100
0000
0000
0001
0000
1000
0000
0001
0000
,
1000
0000
0000
0000
;

//---------------dance-double - ----------------
#NOTES:
     dance-double:
     :
     Hard:
     12:
     0.590,0.705,0.286,0.400,0.204: // measure 1
00000000
00000000
00000000
00000000
,  // measure 2
00000000
00000000
00000000
00000000
,  // measure 3
00000000
00000000
00000000
00000000
,  // measure 4
00000000
00000000
00000000
00000000
,  // measure 5
00010000
00000000
00000000
00001000
00000000
00000000
01000000
00000000
00010000
00000000
00000000
10000000
00000000
00000000
01000000
00000000
,  // measure 6
00100000
00000000
00001000
01000000
00000000
00100000
10000000
00010000
,  // measure 7
10010000
00000000
10000000
00000000
01000000
00000000
00010000
00000000
00001000
00000000
00000000
00000100
00000000
00000000
00000010
00000000
,  // measure 8
00001010
00000000
00000101
00000000
00001000
00000100
00000010
00000001
,  // measure 9
00001000
00000000
00000002
00000203
00002300
00023000
00032000
00003200
,  // measure 10
00000301
00000000
00001000
00000100
00000000
00010000
00001000
01000000
,  // measure 11
00020000
02030000
23000000
32000000
03020000
00032000
00023000
02030000
,  // measure 12
03100000
00000000
00000000
00000000
10010000
00000000
00000000
00000000
00100000
00000000
00000000
00000000
00011000
00000000
00000000
01000000
,  // measure 13
00010000
00000000
20000000
32000000
03020000
00032000
00023000
02030000
,  // measure 14
13000000
00000000
01000000
00010000
00000000
00001000
00000100
00000001
,  // measure 15
00001000
00000000
00000001
00000000
00000100
00000000
00000010
00000000
00001010
00000000
00000000
00001000
00000000
00000000
00000100
00000000
,  // measure 16
00010100
00000000
00000000
00000000
00010000
00000000
00000000
00000000
01000000
00000000
00000000
11000000
00000000
00110000
00000000
00000000
,  // measure 17
10000000
00000000
01000000
00010000
01000000
10000000
00010000
00000000
,  // measure 18
01000000
00000000
00001000
00010000
00000100
00000000
00001000
00000000
,  // measure 19
00000010
00000000
00000100
00000001
00001000
00000001
00000100
00000000
,  // measure 20
00000010
00000000
00010000
00001000
01000000
00001000
00010000
01000000
,  // measure 21
11000000
00000000
10000000
00010000
01000000
00001000
00010000
00000000
,  // measure 22
00000100
00000000
00001000
00000010
00000100
00000000
00000001
00000000
,  // measure 23
00001000
00000000
00000100
00010000
00000000
00001000
00000000
00000000
,  // measure 24
01001000
00000000
00010000
01010000
00000000
10100000
02000000
00000000
,  // measure 25
03010000
10000000
01000000
00010000
00001000
00000100
00000001
00001000
,  // measure 26
00000001
00000000
00000010
00000100
00001000
00000100
00010000
00000000
,  // measure 27
00001000
00000000
01000000
00010000
00100000
01000000
10000000
00010000
,  // measure 28
01000000
00000000
00001000
01000000
00000000
00000000
00011000
00000000
,  // measure 29
00010100
00000000
00000100
00000010
00000001
00000100
00001000
00010000
,  // measure 30
00100000
00000000
10000000
01000000
00010000
00000000
00001000
00000100
,  // measure 31
00000010
00000000
00000000
00000000
00010000
00000000
00001000
00000000
01000000
00000000
00000000
10010000
00000000
00000000
01000000
00000000
,  // measure 32
00100000
10000000
01000000
00010000
00001000
00000100
00000110
00000000
,  // measure 33
00000001
00000000
00001000
00000000
00010000
10000000
01000000
00010000
,  // measure 34
00001000
00000000
00010000
01000000
10000000
00000000
01000000
00000000
,  // measure 35
00001000
00000000
00000100
00000010
00001000
00000010
00000100
00001000
,  // measure 36
00010000
00000000
00100000
01000000
00010000
00000000
02000000
00000000
,  // measure 37
13000000
00000000
00010000
00000000
00001000
00000001
00000100
00001000
,  // measure 38
00000100
00000000
00000010
00010000
01000000
00000000
10000000
00000000
,  // measure 39
10010000
00000000
10100000
00100000
10000000
00010000
00001000
00000010
,  // measure 40
00000100
00000000
00000000
00000000
00000001
00000000
00001000
00000000
00000100
00010000
00000000
00000000
00010100
00000000
00000000
00000000
,  // measure 41
00001000
00000000
01000000
00001000
00100000
01000000
00010000
00001000
,  // measure 42
00000010
00000000
00000001
00001000
00000100
00010000
00001000
00000000
,  // measure 43
01001000
00000000
01010000
00000000
00010000
00100000
01000000
10000000
,  // measure 44
00010000
00000000
10000000
01000000
00010000
00000000
00001000
00000000
,  // measure 45
00000100
00000000
00000010
00001000
00010000
01000000
10000000
01000000
,  // measure 46
00010000
00000000
10000000
01000000
00010000
00000000
00001000
00000000
,  // measure 47
00001100
00000000
00000000
00000000
00000100
00000000
00000000
00000000
00000110
00000000
00000000
00001010
00000000
00000000
00000101
00000000
,  // measure 48
00001000
00000000
00020000
20000000
00000000
30030000
10010000
00000000
,  // measure 49
20000000
00000000
31000000
00010000
00002000
00000000
00003020
00000000
,  // measure 50
00000032
00000000
00000103
00002000
00000000
00000000
00000000
00013000
,  // measure 51
00200000
00000000
10300000
00020000
00000000
00000000
00130000
02000000
,  // measure 52
00000000
00000000
03020000
00000000
00000000
00000000
00032000
00000000
00000000
00000000
00000000
00000000
00003100
00000010
00000100
00000000
,  // measure 53
00000002
00000000
00001003
00000100
00020000
00000000
00032000
00000000
,  // measure 54
02003000
00000000
03100000
20000000
00000000
00000000
32000000
00000000
,  // measure 55
03020000
00000000
00031000
00000200
00000000
00000000
00000310
00002000
,  // measure 56
00000000
00000000
00000000
00000000
00000000
00000000
00000000
00000000
00003001
00000000
00001000
00000100
00000010
00000000
00000000
00000000
,  // measure 57
00000001
00000100
00000000
00000001
00000010
00000000
00000100
00001000
00000000
00000100
00010000
00000000
00001000
00000000
01000000
00000000
,  // measure 58
00100000
00000000
00000000
10000000
00000000
00000000
00010000
00000000
00000000
01000000
00000000
00000000
00001000
00000000
00010000
00000000
,  // measure 59
00000100
00000000
00000000
00001000
00000000
00000000
00010000
00000000
00000000
00100000
00000000
00000000
01000000
00000000
10000000
00000000
,  // measure 60
00010000
00000000
00000000
01000000
00000000
00000000
00001000
00000000
00000000
00010000
00000000
00000000
00100000
00000000
00100000
00000000
,  // measure 61
10000000
01000000
00000000
10000000
00100000
00000000
01000000
00010000
00000000
01000000
00100000
00000000
00010000
00000000
00001000
00000000
,  // measure 62
00000100
00000000
00000000
00000010
00000000
00000000
00001000
00000000
00000000
00001000
00000000
00000000
00000100
00000000
00010000
00000000
,  // measure 63
00001000
00000000
00000000
01000000
00000000
00000000
00010000
00000000
00000000
00010000
00000000
00000000
00100000
00000000
01000000
00000000
,  // measure 64
11000000
00000000
00000000
01100000
00000000
00000000
00101000
00000000
00000000
00011000
00000000
00000000
00010100
00000000
00000000
00000000
,  // measure 65
00000100
00000000
00000000
00000100
00000000
00000000
00001000
00000000
00000010
00000000
00000100
00000000
00000001
00000000
00000100
00000000
,  // measure 66
00001000
00000000
00010000
00000000
00100000
00000000
10000000
00000000
00100000
00000000
00010000
00000000
00001000
00000000
00000000
00000000
00000000
00000000
00022000
00000000
00000000
00033000
00000000
00000000
,  // measure 67
00010000
00010000
00001000
00001000
00000100
00000001
00001000
00000001
,  // measure 68
00000100
00000000
00001000
00000000
00010000
00000000
01000000
00000000
00000000
10000000
00000000
00000000
01000000
00000000
00000000
00000000
00000000
00000000
02200000
00000000
00000000
03300000
00000000
00000000
,  // measure 69
00010000
00010000
10000000
01000000
00010000
00010000
00001000
00000100
,  // measure 70
00000010
00000000
00001000
00000000
00000001
00000000
00000100
00000000
00000001
00000000
00001000
00000000
00000010
00000000
00000000
00000000
00000000
00000000
00000220
00000000
00000000
00000330
00000000
00000000
,  // measure 71
00010000
00000000
00010000
00000000
00001000
00000000
00001000
00000000
01000000
00000000
00010000
10000000
00010000
00000000
00100000
00000000
,  // measure 72
01000000
00000000
00010000
00000000
00001000
00000000
00000010
00000000
00001000
00000000
00010000
00000000
01000000
00000000
00000000
10000000
00000000
00000000
00010000
00000000
01000000
00000000
00100000
00000000
,  // measure 73
10000000
00000000
00000000
00000000
;

//---------------dance-double - ----------------
#NOTES:
     dance-double:
     :
     Medium:
     8:
     0.373,0.411,0.180,0.122,0.000: // measure 1
00000000
00000000
00000000
00000000
,  // measure 2
00000000
00000000
00000000
00000000
,  // measure 3
00000000
00000000
00000000
00000000
,  // measure 4
00000000
00000000
00000000
00000000
,  // measure 5
00010000
00001000
00010000
00001000
,  // measure 6
00010000
00000000
00001000
01000000
00000000
01000000
00001000
00010000
,  // measure 7
00000100
00010000
00001000
00010000
,  // measure 8
00001000
01000000
00010000
10010000
,  // measure 9
10000000
00000000
01000000
00000000
00010000
00001000
00010000
00000000
,  // measure 10
00001000
00000100
00000001
00001000
,  // measure 11
00000001
00000000
00000010
00000000
00001000
00010000
00001000
00000000
,  // measure 12
00010000
00100000
10000000
00010000
,  // measure 13
10000000
00000000
01000000
00000000
00010000
00001000
00010000
00000000
,  // measure 14
00001000
00000010
00000001
00001000
,  // measure 15
00000001
00000000
00000100
00000000
00001000
00010000
00001000
00000000
,  // measure 16
00010000
00100000
10000000
10010000
,  // measure 17
00020000
00000000
00030000
00000000
01000000
00010000
00100000
00000000
,  // measure 18
00001000
00010000
00000100
00000010
,  // measure 19
00000001
00000000
00000100
00000010
00000000
00001000
00000000
00000000
,  // measure 20
00000100
00000000
00010000
00001000
00000000
01000000
00000000
00010000
,  // measure 21
00100000
00000000
01000000
00000000
10000000
00000000
00010000
10000000
,  // measure 22
00010000
00000000
01000000
00001000
00000000
00000000
00010000
00000000
,  // measure 23
00000100
00000000
00001000
00000010
00000000
00000100
00000000
00000000
,  // measure 24
00000001
00000000
00001000
00000100
00000000
00010000
00000000
00000000
,  // measure 25
00002000
00000000
00003000
00000000
00010000
00000100
00001000
00000000
,  // measure 26
00000010
00000000
00000100
00000000
00000001
00001000
00000100
00000000
,  // measure 27
00000010
00000000
00000000
00000001
00000000
00000000
00000100
00000000
,  // measure 28
00000010
00000000
00000000
00010000
00000000
00000000
00001000
00000000
,  // measure 29
01000000
00000000
00010000
00000000
00100000
01000000
10000000
00000000
,  // measure 30
01000000
00000000
00000000
00100000
00000000
00000000
00001000
00010000
,  // measure 31
00001000
00000000
00000000
00010000
00000000
00000000
00000100
00000000
,  // measure 32
00001000
00000010
00000100
00001001
,  // measure 33
00000001
00000000
00001000
00000000
00000100
00010000
00001000
00000000
,  // measure 34
01000000
00010000
00100000
01000000
,  // measure 35
20000000
00000000
30000000
00000000
00010000
01000000
00010000
00000000
,  // measure 36
00100000
00001000
00010000
00010100
,  // measure 37
00000200
00000000
00000300
00000000
00001000
00000010
00001000
00000000
,  // measure 38
00000001
00000100
00001000
00010000
,  // measure 39
00200000
00000000
00300000
00000000
10000000
00010000
10000000
00000000
,  // measure 40
00010000
01000000
01100000
00000000
,  // measure 41
02000000
00000000
03000000
00000000
00001000
00010000
00001000
00000000
,  // measure 42
00010000
00000100
00000010
00000001
,  // measure 43
00000200
00000000
00000300
00000000
00000010
00001000
00000100
00000000
,  // measure 44
00000010
00000100
00010000
00001000
,  // measure 45
02000000
00000000
03000000
00000000
00010000
10000000
01000000
00000000
,  // measure 46
00010000
00001000
00000100
00000001
,  // measure 47
00002000
00000000
00003000
00000000
00000100
00010000
00001000
00000000
,  // measure 48
01000000
00010000
10010000
01100000
,  // measure 49
10000000
00000000
00000000
01000000
00100000
00000000
00001000
00000000
,  // measure 50
00010000
00000100
00000110
00000000
,  // measure 51
00000001
00000000
00000100
00000000
00000010
00000000
00010000
00001000
,  // measure 52
01000000
01100000
10010000
00000000
,  // measure 53
10000000
00000000
01000000
00100000
00001000
00000000
00010000
00000000
,  // measure 54
00000100
00001000
00001010
00000000
,  // measure 55
00000101
00000000
00000100
00000000
00000010
00000000
00010000
00001000
,  // measure 56
01000000
00010000
10000000
10010000
,  // measure 57
00010000
00010000
01000000
01000000
,  // measure 58
00001000
00010000
00000100
00001000
,  // measure 59
00000001
00000001
00000100
00000100
,  // measure 60
00000010
00001000
00000100
00010000
,  // measure 61
00001000
00001000
01000000
01000000
,  // measure 62
00010000
00100000
01000000
10000000
,  // measure 63
01000000
01000000
00010000
00010000
,  // measure 64
00001000
00000100
00000001
00001001
,  // measure 65
00002000
00000000
00003000
00000100
00010000
00000000
00001000
00000000
,  // measure 66
01000000
00010000
00100000
00000000
01100000
00000000
10010000
00000000
,  // measure 67
20000000
00000000
30000000
01000000
00010000
00000000
00001000
00000000
,  // measure 68
00010000
00000100
00001000
00000000
00001100
00000000
00000011
00000000
,  // measure 69
00000002
00000000
00000003
00000100
00000010
00000000
00010000
00000000
,  // measure 70
00001000
01000000
00010000
00000000
01010000
00000000
10100000
00000000
,  // measure 71
20000000
00000000
30000000
01000000
00100000
00000000
00001000
00000000
,  // measure 72
00010000
00000100
00001000
00000000
00001010
00000000
00000202
00000000
,  // measure 73
00000303
00000000
00000000
00000000
;

//---------------dance-double - ----------------
#NOTES:
     dance-double:
     :
     Easy:
     4:
     0.194,0.206,0.000,0.008,0.000: // measure 1
00000000
00000000
00000000
00000000
,  // measure 2
00000000
00000000
00000000
00000000
,  // measure 3
00000000
00000000
00000000
00000000
,  // measure 4
00000000
00000000
00000000
00000000
,  // measure 5
00010000
00000000
00001000
00010000
,  // measure 6
01000000
00000000
10000000
01000000
,  // measure 7
00010000
00000000
00001000
00000100
,  // measure 8
00000001
00000000
00001000
00000000
,  // measure 9
00000001
00000000
00000010
00000000
,  // measure 10
00001000
00000000
00010000
01000000
,  // measure 11
10000000
00000000
00100000
00000000
,  // measure 12
00010000
00000000
00100000
00000000
,  // measure 13
10000000
00000000
01000000
00010000
,  // measure 14
00001000
00000000
00000010
00000000
,  // measure 15
00000001
00000000
00000100
00001000
,  // measure 16
00010000
00000000
00100000
10000000
,  // measure 17
01000000
00000000
00000000
00010000
,  // measure 18
00001000
00000000
00000100
00000000
,  // measure 19
00000001
00000000
00000010
00000000
,  // measure 20
00000001
00000000
00000100
00000000
,  // measure 21
00001000
00000000
00010000
00100000
,  // measure 22
10000000
00000000
00010000
00000000
,  // measure 23
10000000
00000000
01000000
00000000
,  // measure 24
00010000
00001000
00000010
00000000
,  // measure 25
00000001
00000000
00000100
00000000
,  // measure 26
00001000
00010000
00100000
00000000
,  // measure 27
00010000
00000000
00001000
00000000
,  // measure 28
00000100
00000000
00000001
00000000
,  // measure 29
00000010
00000000
00001000
00010000
,  // measure 30
00100000
00000000
10000000
00000000
,  // measure 31
01000000
00000000
00010000
00000000
,  // measure 32
00001000
00000100
00000001
00000000
,  // measure 33
00000010
00000000
00000001
00000100
,  // measure 34
00001000
00000000
00010000
00000000
,  // measure 35
00100000
00000000
10000000
01000000
,  // measure 36
00010000
00000000
01000000
00000000
,  // measure 37
10000000
00000000
00100000
00010000
,  // measure 38
00001000
00000000
00000010
00000000
,  // measure 39
00000001
00000000
00000100
00001000
,  // measure 40
00010000
00000000
01000000
00000000
,  // measure 41
10000000
00000000
00100000
00010000
,  // measure 42
00001000
00000000
00000010
00000000
,  // measure 43
00000001
00000000
00000100
00001000
,  // measure 44
00010000
00000000
00100000
00000000
,  // measure 45
10000000
00000000
01000000
00010000
,  // measure 46
00001000
00000000
00000010
00000000
,  // measure 47
00000001
00000000
00000100
00001000
,  // measure 48
00010000
00000000
00100000
00000000
,  // measure 49
10000000
00000000
00010000
00000000
,  // measure 50
10000000
00000000
01000000
00000000
,  // measure 51
00010000
00000000
00001000
00000000
,  // measure 52
00000100
00000001
00000010
00000000
,  // measure 53
00000001
00000000
00000100
00000000
,  // measure 54
00001000
00000000
00010000
00000000
,  // measure 55
00100000
00000000
00010000
00000000
,  // measure 56
00001000
00000000
00000000
00000000
,  // measure 57
00000010
00000001
00000100
00000000
,  // measure 58
00001000
00000000
00010000
00000000
,  // measure 59
00100000
10000000
01000000
00000000
,  // measure 60
00010000
00000000
00001000
00000000
,  // measure 61
00000100
00000001
00000010
00000000
,  // measure 62
00001000
00000000
00010000
00000000
,  // measure 63
00100000
10000000
01000000
00000000
,  // measure 64
00010000
00000000
00001000
00000000
,  // measure 65
00000100
00000000
00000001
00000000
,  // measure 66
00000100
00001000
00010000
00000000
,  // measure 67
00100000
00000000
10000000
00000000
,  // measure 68
01000000
00010000
00001000
00000000
,  // measure 69
00000010
00000000
00000001
00000000
,  // measure 70
00000100
00001000
00010000
00000000
,  // measure 71
00100000
00000000
10000000
00000000
,  // measure 72
01000000
00010000
00001000
00000200
,  // measure 73
00000300
00000000
00000000
00000000
;

//---------------dance-single - ----------------
#NOTES:
     dance-single:
     :
     Medium:
     8:
     0.327,0.353,0.147,0.041,0.000:
0000
0000
0000
0000
,
0000
0000
0000
0000
,
0000
0000
0000
0000
,
0000
0000
0000
0000
,
1000
0100
0010
0001
,
0010
0000
0100
1000
0000
1000
0001
1000
,
0001
0100
0010
0100
,
0001
0010
0100
0110
,
1000
0000
0100
0000
0010
0001
0010
0000
,
0100
0000
1000
0001
0000
0001
0100
0001
,
0100
0000
0010
0000
1000
0001
1000
0000
,
0010
0100
0001
1001
,
0001
0000
0100
0000
0010
1000
0010
0000
,
0100
0000
0001
1000
0000
1000
0100
1000
,
0100
0000
0010
0000
0001
1000
0001
0000
,
0010
0100
1000
1001
,
0100
0000
0010
1000
,
0100
0000
0010
0001
,
1000
0000
0010
0100
,
0001
0000
0100
0010
,
1000
0000
0100
0010
,
0001
0000
1000
0010
,
0100
0000
0001
0010
,
0100
0000
1000
0001
0000
1001
0000
0000
,
0001
0100
0010
0100
,
0001
0000
1000
0100
0010
0000
0001
0000
,
1000
0001
0100
0010
,
0100
0000
0001
1000
0001
0000
0010
0000
,
0100
0000
0000
0000
1000
0100
1000
0000
,
0001
0000
0100
0010
,
1000
0000
0000
0100
0000
0000
0010
0000
,
0001
0000
1000
1001
,
0001
0000
0000
0000
0100
0010
0100
0000
,
0001
0000
0000
1000
0000
0000
0100
0000
,
0010
0000
0000
0000
0001
0100
0001
0000
,
1000
0100
0010
0001
,
0100
0000
0000
0000
0010
1000
0010
0000
,
0100
0000
0001
1000
,
0100
0000
0000
0000
0010
0001
0010
0000
,
0100
0000
1000
0001
0000
0000
0000
0000
,
0100
0000
0000
0000
0010
0100
0001
0000
,
1000
0100
0001
0010
,
1000
0000
0000
0000
0001
0100
0010
0000
,
1000
0000
0100
0010
,
0100
0000
0000
0000
1000
0001
1000
0000
,
0010
0000
0100
0001
,
1001
0000
0110
0000
,
1000
0100
0010
1001
,
0001
0000
0000
0100
0010
0000
0100
0000
,
0001
0010
1000
0100
,
0010
0000
1000
0100
0000
0000
0010
0001
,
0000
0100
0000
0010
0000
0000
1001
0000
,
1000
0000
0000
0100
0010
0000
0001
0000
,
0100
1000
0010
0001
,
1000
0000
0100
0010
0000
0000
0001
0100
,
0000
0000
0010
1001
,
1000
0001
1000
0100
,
0010
0001
0100
0010
,
1000
0001
0100
0010
,
1000
0001
0100
0000
,
0001
1000
0100
0001
,
1000
0010
0001
0100
,
1000
0100
0010
1000
,
1001
0000
0000
0001
0000
0000
1000
0000
,
0002
0003
0101
0100
,
0010
1000
1100
0000
,
2000
3000
1100
0100
,
0010
0001
0101
0000
,
0002
0003
0101
0100
,
0010
1000
1100
0000
,
2000
3000
1010
0010
,
0100
0001
0010
0200
,
0300
0000
0000
0000
;

//---------------dance-single - ----------------
#NOTES:
     dance-single:
     :
     Easy:
     3:
     0.145,0.265,0.016,0.008,0.000:
0000
0000
0000
0000
,
0000
0000
0000
0000
,
0000
0000
0000
0000
,
0000
0000
0000
0000
,
1000
0000
0001
0000
,
1000
0100
0010
0001
,
1000
0000
0001
0000
,
0100
0010
0100
0000
,
0001
0000
0001
0000
,
0100
0000
0010
0000
,
1000
0000
1000
0000
,
0100
0000
0010
0000
,
0001
0000
0001
0000
,
0010
0000
0100
0000
,
1000
0000
0001
0000
,
1001
0000
0000
0000
,
0100
0000
0000
0000
,
0010
0000
0000
0000
,
1000
0000
1000
0000
,
0001
0000
0001
0000
,
0100
0000
0000
0000
,
0010
0000
0000
0000
,
0100
0000
0100
0000
,
0001
0000
0001
0000
,
1000
0000
0000
0000
,
0100
0000
0000
0000
,
0010
0000
0010
0000
,
0001
0000
0001
0000
,
0100
0000
0000
0000
,
0010
0000
0000
0000
,
1000
0000
1000
0000
,
0001
0000
0001
0000
,
0100
0000
0000
0000
,
0010
0000
0000
0000
,
0100
0000
0001
0000
,
0100
0000
0001
0000
,
1000
0000
0000
0000
,
0100
0000
0000
0000
,
0010
0000
0100
0000
,
1000
0000
0100
0000
,
0010
0000
0000
0000
,
0001
0000
0000
0000
,
0100
0000
0010
0000
,
0100
0000
0001
0000
,
1000
0000
0000
0000
,
0100
0000
0000
0000
,
0010
0000
0000
0000
,
0100
0000
1000
0000
,
0001
0000
0000
0000
,
0100
0000
0000
0000
,
0010
0000
0100
0000
,
0001
0000
0000
0000
,
1000
0000
0000
0000
,
0100
0000
0000
0000
,
0010
0000
0001
0000
,
1000
0000
0000
0000
,
0010
0000
0000
0000
,
0100
0000
0000
0000
,
0001
0000
0000
0000
,
1000
0000
0000
0000
,
0100
0000
0100
0000
,
0010
0000
0000
0000
,
0001
0000
0001
0000
,
1000
0000
0000
0000
,
1001
0000
0100
0100
,
0100
0010
0100
0001
,
1000
0000
0100
0100
,
0010
0100
0100
1000
,
0001
0000
0010
0010
,
0100
0100
0010
0001
,
1000
0000
0100
0100
,
0010
0100
0100
0002
,
0003
0000
0000
0000
;

//---------------dance-single - ----------------
#NOTES:
     dance-single:
     :
     Beginner:
     1:
     0.090,0.117,0.000,0.008,0.000:
0000
0000
0000
0000
,
0000
0000
0000
0000
,
0000
0000
0000
0000
,
0000
0000
0000
0000
,
0001
0000
0001
0000
,
1000
0000
0000
0000
,
1000
0000
1000
0000
,
0001
0000
0000
0000
,
1000
0000
0000
0000
,
1000
0000
0000
0000
,
0001
0000
0000
0000
,
0001
0000
0000
0000
,
1000
0000
0000
0000
,
0100
0000
0000
0000
,
0001
0000
0000
0000
,
0010
0000
0000
0000
,
0100
0000
0000
0000
,
0100
0000
0000
0000
,
0100
0000
0000
0000
,
0100
0000
0000
0000
,
0001
0000
0000
0000
,
0001
0000
0000
0000
,
1000
0000
0000
0000
,
1000
0000
0000
0000
,
0010
0000
0000
0000
,
0010
0000
0000
0000
,
0100
0000
0000
0000
,
0100
0000
0000
0000
,
0001
0000
0000
0000
,
0001
0000
0000
0000
,
1000
0000
0000
0000
,
1000
0000
0000
0000
,
0010
0000
0000
0000
,
0010
0000
0000
0000
,
0100
0000
0000
0000
,
0100
0000
0000
0000
,
0001
0000
0000
0000
,
0001
0000
0000
0000
,
1000
0000
0000
0000
,
1000
0000
0000
0000
,
0010
0000
0000
0000
,
0010
0000
0000
0000
,
0100
0000
0000
0000
,
0100
0000
0000
0000
,
0010
0000
0000
0000
,
0010
0000
0000
0000
,
0100
0000
0000
0000
,
0100
0000
0000
0000
,
0001
0000
0000
0000
,
0001
0000
0000
0000
,
1000
0000
1000
0000
,
1000
0000
0000
0000
,
0001
0000
0000
0000
,
0001
0000
0000
0000
,
0100
0000
0100
0000
,
0100
0000
0000
0000
,
0010
0000
0000
0000
,
1000
0000
0000
0000
,
0100
0000
0000
0000
,
0001
0000
0000
0000
,
1000
0000
0000
0000
,
0010
0000
0000
0000
,
0001
0000
0000
0000
,
0100
0000
0000
0000
,
0010
0000
0000
0000
,
0100
0000
0100
0000
,
0100
0000
0000
0000
,
0001
0000
0001
0000
,
0001
0000
0000
0000
,
1000
0000
1000
0000
,
1000
0000
0000
0000
,
0010
0000
0020
0030
;
