#TITLE:Howling;
#SUBTITLE:;
#ARTIST:PON;
#TITLETRANSLIT:;
#SUBTITLETRANSLIT:;
#ARTISTTRANSLIT:;
#GENRE:;
#CREDIT:Silverhawke;
#MENUCOLOR:;
#METERTYPE:DDR;
#BANNER:Howling.png;
#BACKGROUND:Howling-bg.png;
#LYRICSPATH:;
#CDTITLE:cdtitle.png;
#MUSIC:Howling.mp3;
#OFFSET:-0.028;
#SAMPLESTART:18.583;
#SAMPLELENGTH:15.000;
#SELECTABLE:YES;
#LISTSORT:;
#DISPLAYBPM:155.000;
#BPMS:0.000=155.000,183.000=465.000,183.750=51.667,184.000=155.000,214.000=310.000,215.000=155.000;
#STOPS:214.000=0.242
,214.250=0.242
,214.500=0.097
;
#BGCHANGES:;
#ATTACKS:;

//---------------dance-single - ----------------
#NOTES:
     dance-single:
     :
     Hard:
     14:
     0.697,0.785,0.318,0.548,0.345:
0000
0000
0000
0000
,
0000
0000
0000
0000
,
0000
0000
0000
0000
,
0000
0000
0000
0000
,
0000
0000
0000
0000
,
0002
0000
0000
0000
0000
0000
1003
0100
2000
0000
0000
0000
0000
0000
3010
0100
,
0020
0000
0000
0000
0000
0000
0130
0001
0200
0000
0000
0000
0000
0000
0301
0010
,
0002
0000
0000
0000
0000
0000
0013
0100
0020
0000
0000
0000
0000
0000
0100
0000
,
0130
0000
0000
0100
0000
0000
0100
0000
1000
0000
0000
1000
0000
0000
1000
0000
,
0010
0000
0000
0010
0000
0000
0010
0000
0001
0000
0000
0001
0000
0000
0001
0000
,
0100
0010
0000
0010
0000
0010
0001
0000
0001
0100
0000
0100
0000
0100
0010
0000
,
0010
1000
0000
1000
0000
1000
0100
0000
1100
0000
1000
0000
0101
0000
0001
0000
,
0110
0000
0100
0000
0001
0000
1000
0100
2000
0000
0000
0000
3001
0000
0010
0000
,
0100
0000
0010
0000
0001
0000
0100
0010
0200
0000
0000
0000
0310
0000
1000
0000
,
0100
0000
1000
0000
0010
0000
0100
0001
0200
0000
0000
0000
0301
0000
1000
0000
,
0010
0100
0001
0010
0220
0000
0330
0000
,
0110
0000
0100
0000
1000
0000
0001
0100
0002
0000
0000
0000
1003
0000
0010
0000
,
0100
0000
0010
0000
1000
0000
0100
0010
0200
0000
0000
0000
0310
0000
0001
0000
,
0100
0000
0001
0000
0010
0000
0100
1000
0200
0000
0000
0000
1300
0000
0001
0000
,
0100
0010
1000
0100
0220
0000
0330
0000
,
0001
0000
0000
0010
0000
0000
0100
0000
1000
0000
0000
0001
0000
0000
1000
0000
,
0010
0000
0000
0100
0000
0000
0010
0000
1000
0000
0000
0001
0000
0000
1000
0000
,
0100
0000
0000
0001
0000
0000
0100
0000
1000
0000
0000
0010
0000
0000
0100
0000
,
0001
0010
0100
1000
0001
1000
0100
0010
,
0001
0000
0000
0100
0000
0000
0010
0000
1000
0000
0000
0001
0000
0000
1000
0000
,
0100
0000
0000
0010
0000
0000
0100
0000
1000
0000
0000
0001
0000
0000
1000
0000
,
0010
0000
0000
0001
0000
0000
0010
0000
1000
0000
0000
0100
0000
0000
0010
0000
,
0001
0100
0010
1000
0001
1000
0010
0100
,
0001
0000
0010
0000
0110
0000
0000
0000
1001
0000
0000
1000
0100
0000
0010
0000
,
0001
0000
0100
0000
0110
0000
0000
0000
1001
0000
0000
0001
0010
0000
0100
0000
,
0010
0000
0001
0000
0011
0000
0000
0000
1100
0000
0000
1000
0010
0000
0100
0000
,
0001
0000
0010
0000
0110
0000
0000
0000
1000
0100
1000
0000
0000
0000
0001
0100
,
0001
0000
1000
0000
1010
0000
0000
0000
0101
0000
0000
0100
0010
0000
1000
0000
,
0100
0000
0010
0000
0011
0000
0000
0000
1100
0000
0000
1000
0010
0000
1000
0000
,
0100
0000
0010
0000
0110
0000
0000
0000
1001
0000
0000
1000
0100
0000
0010
0000
,
0001
0100
0010
0010
1000
1000
0001
1000
,
0100
0200
0000
0301
0100
0200
0000
1300
,
0010
0020
0100
1030
0010
0020
0000
0031
,
0010
0020
0000
1030
0010
0020
0000
1030
,
0100
0200
1000
0310
0001
0001
1000
0010
,
0100
0002
0000
0013
0100
2000
0000
3001
,
0100
0020
1000
0130
0001
0002
0000
1003
,
0001
0010
0010
0001
1000
0010
0010
1000
,
0001
0100
0100
1000
0001
0010
0010
1000
,
0001
0010
0001
0010
0100
1000
0100
1000
,
0010
0000
0010
0000
0100
0000
0100
0000
0001
1000
0001
1000
0020
0000
0000
0000
,
0230
0000
0000
0000
0000
0000
0301
0010
0200
0000
0000
0000
0000
0000
1300
0010
,
0200
0000
0000
0000
0000
0000
0301
1000
0200
0000
0000
0000
0000
0000
0310
0001
,
2000
0000
0000
0000
0000
0000
3010
0100
0002
0000
0000
0000
0000
0000
0003
0000
,
1100
0110
0011
1001
0220
0000
0330
0000
,
0001
0000
1000
0000
0100
0000
0010
0100
0020
0000
0000
0000
0130
0000
1000
0000
,
0001
0000
0100
0000
1000
0000
0100
0010
0200
0000
0000
0000
0301
0000
0010
0000
,
0200
0000
1300
0010
0200
0000
0301
1000
,
1001
0000
0000
0000
0110
0000
0000
0000
1100
0101
1001
0000
0010
0000
1000
0000
,
0100
0000
1000
0001
2000
0000
0100
0000
3100
0000
0010
0001
0020
0000
0001
0000
,
0031
0000
0100
0010
0200
0000
0010
0000
0310
0000
1000
0100
0020
0000
0001
0000
,
0031
0000
1000
0010
0200
0000
0001
0000
0301
0000
0010
0000
1100
0000
1000
0000
,
0101
0001
2002
0000
3003
0000
2000
0100
,
3001
0000
0100
0010
2000
0000
0010
0000
3001
0000
0010
0100
2000
0000
0100
0000
,
3001
0000
0100
0001
2000
0000
0010
0000
3001
0000
0010
0100
0010
0000
0100
0000
,
1000
0000
0001
1000
0002
0000
0000
0000
0003
0000
0000
0000
1000
0000
0100
0000
,
0001
0100
2000
0000
3000
0000
0002
0000
,
0000
0000
1003
0100
0020
0000
0000
0000
0000
0000
0031
0100
0020
0000
0000
0000
,
0000
0000
1030
0010
0200
0000
0000
0000
0000
0000
0300
0000
0001
0000
0010
0000
,
0001
0010
0100
1000
0100
1000
0000
1001
,
0000
0010
0110
0000
1001
0000
2000
0000
,
0000
0000
3001
0100
0020
0000
0000
0000
0000
0000
1030
0100
0020
0000
0000
0000
,
0000
0000
0031
0010
0100
0000
0000
0100
0000
0000
0100
0000
0000
0100
0000
0000
,
0100
0000
0000
0100
0000
0000
0100
0000
0000
0100
0000
0000
1000
0100
1000
0000
,
0001
0100
0001
0000
1000
0100
0010
0000
0001
0100
0010
0000
2002
0000
0000
0000
,
0000
0000
0000
0003
,
3000
0000
0000
0000
;

//---------------dance-single - ----------------
#NOTES:
     dance-single:
     :
     Medium:
     11:
     0.562,0.563,0.265,0.398,0.062:
0000
0000
0000
0000
,
0000
0000
0000
0000
,
0000
0000
0000
0000
,
0000
0000
0000
0000
,
0000
0000
0000
0000
,
2000
0000
0000
3100
0020
0000
0000
0031
,
0200
0000
0000
0301
0020
0000
0000
0130
,
2000
0000
0000
3010
0200
0000
0000
0301
,
0020
0001
0100
0100
,
1000
1000
0100
0130
,
0010
0000
0000
0001
0000
0000
0010
0000
0010
0000
0000
1000
0000
0000
0010
0000
,
0010
0000
0000
0001
0000
0000
0100
0000
0010
0000
1000
0000
0001
0000
1000
0000
,
1002
0000
0000
0013
0200
0000
1300
0010
,
0100
0010
1000
0100
0020
0000
0031
1000
,
0200
0000
0310
0001
0200
0000
0310
0000
,
1000
0100
0001
0100
2000
0000
3000
0000
,
2001
0000
0000
3010
0200
0000
0301
0010
,
0100
0010
0001
0100
0020
0000
1030
0001
,
0200
0000
0310
1000
0200
0000
0310
0000
,
0001
0100
1000
0100
0002
0000
0003
0000
,
1100
1100
0101
0101
,
0011
0011
1010
1010
,
1001
1001
0110
0110
,
0010
1000
0100
0010
0001
0010
0100
1000
,
1010
1010
0011
0011
,
0101
0101
1100
1100
,
0110
0110
1001
1001
,
0001
0001
1000
1000
0100
0010
0001
0100
,
0010
0000
1000
0000
1000
0000
0000
0000
0100
0000
0000
0100
0000
0000
0100
0000
,
0010
0000
0001
0000
0001
0000
0000
0000
0100
0000
0000
0100
0000
0000
0100
0000
,
0001
0000
0010
0000
0010
0000
0000
0000
0100
0000
0000
0100
0000
0000
0100
0000
,
1000
0010
0010
0000
0100
0100
0000
0010
,
0010
0000
1000
0000
1000
0000
0000
0000
0100
0000
0000
0010
0000
0000
0100
0000
,
0010
0000
0001
0000
0001
0000
0000
0000
0100
0000
0000
0010
0000
0000
0100
0000
,
0001
0000
1000
0000
1000
0000
0000
0000
0100
0000
0000
0010
0000
0000
0100
0000
,
1000
0001
0001
0100
0010
0100
0010
1000
,
1000
1000
0000
0100
0100
0100
0000
0010
,
0010
0010
0001
0100
0100
0100
0000
0010
,
0010
0010
0000
1000
1000
1000
0000
0001
,
0001
0001
0000
0001
0010
0100
1000
0001
,
0010
0010
0000
0100
1000
1000
0000
0010
,
0100
0100
0001
0001
0010
0010
0000
0001
,
0100
0000
0000
0100
0010
0000
0000
0000
0010
0000
0000
0010
1000
0000
0000
0000
,
1000
0000
0000
1000
0001
0000
0000
0000
0001
0000
0000
0001
0010
0000
0000
0000
,
0010
0110
1000
1001
,
0001
0010
0100
1000
0010
0001
0200
0000
,
2300
0000
0000
3010
0200
0000
0000
0301
,
0020
0000
0000
0031
0200
0000
0000
0310
,
2000
0000
0000
3100
0020
0000
0000
0030
,
0001
0100
1000
0100
0220
0000
0330
0000
,
0002
0000
1003
0100
0020
0000
0130
1000
,
0010
0100
0010
1000
0200
0000
0301
0100
,
2000
0000
3100
0010
2000
0000
3001
1000
,
1001
0000
0000
0000
0001
0000
0000
0000
0010
0010
0010
0000
0100
0000
1000
0000
,
0010
1000
0200
0000
0310
0001
0100
1000
,
0100
0010
2000
0000
3001
0010
0200
0000
,
1300
0010
0200
0000
0301
0000
1000
0100
,
0001
0010
2000
0000
3001
0000
0100
0001
,
0010
0001
0200
0000
0310
1000
0100
0001
,
0100
0010
0002
0000
1003
0010
0200
0000
,
0301
0010
0200
0000
1300
0000
0001
0100
,
1000
0010
0002
0000
1003
0000
0001
0100
,
0001
0100
0010
0000
0100
0000
0001
0010
,
0001
0010
0100
0000
1000
0000
0010
0100
,
0001
0000
0010
0100
1000
0000
0001
0100
,
1000
0100
0002
0000
1003
0000
1000
0100
,
1000
0100
0010
0000
0001
0000
0100
0010
,
1000
0010
0100
0000
0001
0000
0010
0100
,
1000
0000
0010
0100
0001
0000
1000
0100
,
0001
0100
1000
0010
0001
0100
2000
0000
,
0000
0000
0000
3000
;

//---------------dance-single - ----------------
#NOTES:
     dance-single:
     :
     Easy:
     6:
     0.330,0.344,0.133,0.097,0.000:
0000
0000
0000
0000
,
0000
0000
0000
0000
,
0000
0000
0000
0000
,
0000
0000
0000
0000
,
0000
0000
0000
0000
,
1000
0000
0001
0000
,
0100
0100
0100
0000
,
0010
0000
1000
0000
,
0001
0010
0100
0010
,
0001
0100
0010
0100
,
0001
0010
1000
0010
,
0001
0000
0100
0000
0010
0100
0010
0000
,
1000
1000
0100
0010
,
0001
0001
0200
0300
,
0010
1000
0100
1000
,
0010
0100
0010
0100
0010
0000
0000
0000
,
0001
0001
0100
0010
,
1000
1000
0200
0300
,
0010
0001
0100
0001
,
0010
0100
0010
0100
0010
0000
0000
0000
,
0010
0010
0001
0001
,
0100
0100
1000
1000
,
0010
0010
0001
0001
,
0100
0010
0110
0000
,
1000
1000
0100
0100
,
0001
0001
0010
0010
,
1000
1000
0100
0100
,
0010
0001
1001
0000
,
1000
1000
0100
0100
,
1000
0100
0010
0000
,
0001
0001
0100
0100
,
0001
0100
0010
0000
,
1000
1000
0010
0010
,
1000
0010
0100
0000
,
0001
0001
0010
0010
,
0001
0010
0100
0000
,
1100
0000
0101
0000
,
0011
0000
1010
0000
,
1100
0000
0101
0000
,
0011
0000
1010
0000
,
1001
0000
0110
0000
,
1001
0000
0110
0000
,
1000
1000
0100
0100
,
0001
0001
0010
0010
,
1000
0010
0001
0100
,
1000
0000
0010
0000
0001
0000
0200
0300
,
2000
0000
3200
0000
,
0320
0000
0032
0000
,
2003
0000
3020
0000
,
0130
0010
0110
0000
,
1000
0100
0010
0001
,
0100
0010
1000
0010
,
0100
0000
0001
0000
0010
0000
0100
1000
,
0001
0000
0100
0000
0200
0300
0001
0000
,
0001
1000
0100
0010
,
0010
0100
1000
0010
,
0100
0000
0001
0000
1000
0000
0100
1000
,
0001
1000
0100
0000
0000
0000
0010
0000
,
0001
0100
0010
1000
,
0100
1000
0010
0100
,
0001
0000
0010
0000
0100
0000
1000
0001
,
0100
0001
1000
0000
1000
0000
0010
0000
,
0010
1000
1000
0001
,
0001
0010
0010
0100
,
1000
0010
0100
0001
,
0010
0100
1000
0001
,
0100
1000
0100
0001
,
0010
1000
0010
0001
,
0100
1000
0010
0001
,
0010
1000
0100
0002
,
0000
0000
0000
0003
;

//---------------dance-single - ----------------
#NOTES:
     dance-single:
     :
     Beginner:
     2:
     0.138,0.188,0.000,0.080,0.000:
0000
0000
0000
0000
,
0000
0000
0000
0000
,
0000
0000
0000
0000
,
0000
0000
0000
0000
,
0000
0000
0000
0000
,
1000
0000
0000
0000
,
0001
0000
0000
0000
,
0100
0000
0100
0000
,
0200
0000
0300
0000
,
0200
0000
0300
0000
,
0200
0000
0300
0000
,
0100
0000
0100
0100
,
0100
0000
0100
0000
,
0001
0000
0001
0000
,
1000
0000
1000
0000
,
0002
0000
0003
0000
,
0100
0000
0100
0000
,
0001
0000
0001
0000
,
1000
0000
1000
0000
,
0200
0000
0300
0000
,
0010
0000
0000
0000
,
0001
0000
0000
0000
,
0100
0000
0000
0000
,
1000
0000
0000
0000
,
0010
0000
0000
0000
,
1000
0000
0000
0000
,
0100
0000
0000
0000
,
0001
0000
0000
0000
,
0010
0000
0010
0000
,
0010
0000
0010
0000
,
0001
0000
0001
0000
,
0001
0000
0001
0000
,
0100
0000
0100
0000
,
0100
0000
0100
0000
,
1000
0000
1000
0000
,
1000
0000
1000
0000
,
0001
0000
1000
0000
,
0002
0000
0003
0000
,
1000
0000
0001
0000
,
2000
0000
3000
0000
,
0010
0000
0100
0000
,
0020
0000
0030
0000
,
0100
0000
0100
0000
,
0100
0000
0100
0000
,
0100
0000
0100
0000
,
0100
0100
0100
0000
,
0001
0000
0000
0000
,
1000
0000
0000
0000
,
0100
0000
0000
0000
,
0010
0010
0010
0000
,
0001
0000
0000
0000
,
0100
0000
0000
0000
,
0010
0000
0010
0000
,
0100
0000
0000
1000
,
0000
1000
0000
0001
,
0000
0001
0000
1000
,
0000
0001
0000
1000
,
0000
0000
0000
0100
,
0000
0100
0000
0010
,
0000
0010
0000
0100
,
0000
0010
0000
0100
,
0000
0000
0000
0010
,
0000
0000
0000
0001
,
0000
0000
0000
0100
,
0000
0000
0000
1000
,
0000
0000
0000
0010
,
0000
0000
0000
1000
,
0000
0000
0000
0100
,
0000
0000
0000
0001
,
0000
0000
0000
0020
,
0000
0000
0000
0030
;

//---------------dance-double - ----------------
#NOTES:
     dance-double:
     :
     Hard:
     14:
     0.671,0.657,0.239,0.486,0.323:
00000000
00000000
00000000
00000000
,
00000000
00000000
00000000
00000000
,
00000000
00000000
00000000
00000000
,
00000000
00000000
00000000
00000000
,
00000000
00000000
00000000
00000000
,
00000001
00000100
00000010
00001000
00000200
00000000
00010300
00001000
,
00101000
00000000
01100000
00000000
21000000
00000000
30100000
10000000
,
00020000
00000000
00130000
00001000
00020000
00000000
00030010
00000100
,
00001000
00000000
00000000
00010000
00000000
00000000
00001000
00000000
01000000
00000000
00000000
00010000
00000000
00000000
01000000
00000000
,
00100000
00000000
00000000
10000000
00000000
00100000
10000000
00000000
00010000
00000000
00000000
00100000
00000000
00010000
00100000
00000000
,
00001000
00000000
00000000
00010000
00000000
00001000
00010000
00000000
00000100
00000000
00000000
00000010
00000000
00000001
00000010
00000000
,
00000100
00000000
00000000
00010000
00000000
00001000
01000000
00000000
00010000
00000000
00110000
00000000
10000000
00000000
10100000
00000000
,
02000000
00000000
03010000
00100000
02000000
00000000
13000000
01000000
,
00020000
00000000
00031000
00000100
00000002
00000000
00001003
00000100
,
00020000
00000000
00031000
01000000
00200000
00000000
10300000
00000000
,
01010000
01000000
00001000
00010000
00010100
00000000
00000011
00000000
,
00000001
00000100
00000010
00001000
00000200
00000000
00010300
00001000
,
01000000
00010000
00100000
01000000
20000000
00000000
30010000
01000000
,
00002000
00000000
00013000
00000100
00000020
00000000
00000031
00000000
,
00000100
00001000
00010000
01000000
20000000
00000000
30010000
01000000
,
00100000
00000000
00000000
00100000
00000000
00000000
10000000
00000000
01000000
00000000
00000000
01000000
00000000
00000000
00010000
00000000
,
00001000
00000000
00000000
00001000
00000000
00000000
00000100
00000000
00000010
00000000
00000000
00000010
00000000
00000000
00010000
00000000
,
00001000
00000000
00000000
00001000
00000000
00000000
01000000
00000000
00100000
00000000
00000000
00100000
00000000
00000000
10000000
00000000
,
01000000
00010000
00001000
00000100
00001000
00010000
00100000
10000000
,
01000000
00000000
00000000
00100000
00000000
00010000
00100000
00000000
00001000
00000000
00000000
00010000
00000000
00000100
00001000
00000000
,
00000010
00000000
00000000
00000100
00000000
00001000
00000100
00000000
00000001
00000000
00000000
00001000
00000000
00000100
00010000
00000000
,
01000000
00000000
00000000
10000000
00000000
00010000
01000000
00000000
00001000
00000000
00000000
00010000
00000000
00000100
00001000
00000000
,
00010000
00100000
10000000
00100000
00010000
00001000
00000100
00000001
,
00001000
00000000
00000010
00000000
00000001
00000000
00000000
00000000
00000101
00000000
00000000
00000100
00000010
00000000
00010000
00000000
,
00001000
00000000
01000000
00000000
00100000
00000000
00000000
00000000
10100000
00000000
00000000
10000000
00010000
00000000
01000000
00000000
,
00001000
00000000
00010000
00000000
00000100
00000000
00000000
00000000
00000110
00000000
00000000
00000010
00000001
00000000
00000100
00000000
,
00001000
00000000
00010000
00000000
00100000
00000000
00000000
00000000
10000000
01000000
10000000
00000000
00000000
00000000
00010000
01000000
,
00010000
00000000
10000000
00000000
01000000
00000000
00000000
00000000
01100000
00000000
00000000
00100000
00001000
00000000
00000100
00000000
,
00000010
00000000
00001000
00000000
00000001
00000000
00000000
00000000
00000101
00000000
00000000
00000100
00000010
00000000
00010000
00000000
,
01000000
00000000
10000000
00000000
00010000
00000000
00000000
00000000
01010000
00000000
00000000
01000000
00100000
00000000
00010000
00000000
,
00001000
00000100
00000010
00001000
00000100
00000010
00000001
00000100
,
00000100
00010000
00001000
01000000
01000000
10000000
00100000
00010000
,
00010000
00100000
00001000
00000100
00000100
00000020
00000000
00001030
,
00001000
00000100
00010000
01000000
01000000
00100000
10000000
01000000
,
01000000
00010000
00100000
00001000
00001000
00000200
00000000
00010300
,
00010000
00100000
01000000
00010000
00010000
00100000
00001000
00000100
,
00000100
00000010
00000100
00010000
00010000
02000000
00000000
03100000
,
10000000
00000000
00000000
10000000
01000000
00000000
00010000
00000000
00001000
00000000
00000000
00001000
00000100
00000000
00000001
00000000
,
00000010
00000000
00000000
00000010
00000100
00000000
00010000
00000000
00001000
00000000
00000000
00001000
01000000
00000000
00100000
00000000
,
10000000
01000000
00010000
01000000
10000000
01000000
00010000
01000000
,
10000000
00000000
10000000
00000000
00010000
00000000
00010000
00000000
00001000
00000100
00001000
00000100
00002000
00000000
00000000
00000000
,
00003002
00000000
00000000
00000103
00002000
00000000
00000000
00013000
,
00200000
00000000
00000000
10300000
02000000
00000000
00000000
03010000
,
00002000
00000000
00000000
00003010
00000002
00000000
00000000
00000003
,
00001100
00001000
00000101
00000001
00002002
00000000
00003003
00000000
,
00000001
00000100
00000010
00001000
00000200
00000000
00010300
00001000
,
01001000
01000000
01100000
00100000
20100000
00000000
30010000
00100000
,
00002000
00000000
00003100
00000010
00002000
00000000
00003001
00000010
,
00000200
00000000
00000000
00000000
00010300
00000000
00000000
00000000
00010100
01001000
00011000
00000000
00012000
00000000
00000000
00000000
,
01003000
00000000
00010000
10000000
00020000
00000000
00000000
00000000
00130000
00000000
01000000
10000000
02000000
00000000
00000000
00000000
,
03010000
00000000
00001000
00000100
00002000
00000000
00000000
00000000
00013000
00000000
00000100
00000010
00000200
00000000
00000000
00000000
,
00000000
00000000
00010300
00001000
00020000
00000000
00000000
00000000
00031000
00000000
00000000
00000000
01000000
00000000
00010000
00000000
,
00100000
01000000
20020000
00000000
30030000
00000000
20000000
00000000
,
31000000
00000000
00010000
00001000
00020000
00000000
00000000
00000000
00031000
00000000
00000100
00000010
00000200
00000000
00000000
00000000
,
00000301
00000000
00000010
00000100
00000020
00000000
00000000
00000000
00000000
00000000
00000130
00010000
00000200
00000000
00000000
00000000
,
00000000
00000000
00010300
00001000
00020000
00000000
00000000
00000000
00000000
00000000
00000000
00000000
00031000
00000000
01000000
00000000
,
00010000
00000100
00000002
00000000
00001003
00000100
00020000
00000000
,
00031000
00000000
01000000
00100000
20000000
00000000
00000000
00000000
30010000
00000000
00100000
01000000
00020000
00000000
00000000
00000000
,
00031000
00000000
00000100
00000010
00002000
00000000
00000000
00000000
00003001
00000000
00000000
00000000
00000100
00000000
00001000
00000000
,
00010000
01000000
00100000
00010000
01000000
00100000
00001000
00000010
,
00001000
00000001
00001001
00000000
00000110
00000000
00000002
00000000
,
00000013
00000000
00000100
00010000
00002000
00000000
00000000
00000000
01003000
00000000
00100000
10000000
02000000
00000000
00000000
00000000
,
03010000
00000000
00001000
00000100
00000010
00000000
00000000
00000010
00000000
00000000
00000010
00000000
00000000
00000010
00000000
00000000
,
00000010
00000000
00000000
00000010
00000000
00000000
00000010
00000000
00000000
00000010
00000000
00000000
00001000
00000100
00001000
00000001
,
00000010
00000100
00010000
00001000
01000000
00010000
00100000
01000000
10000000
00100000
01000000
00010000
00200000
00000000
00000000
00000000
,
00000000
00000000
00000000
00300000
;

//---------------dance-double - ----------------
#NOTES:
     dance-double:
     :
     Medium:
     10:
     0.472,0.469,0.150,0.159,0.027: // measure 1
00000000
00000000
00000000
00000000
,  // measure 2
00000000
00000000
00000000
00000000
,  // measure 3
00000000
00000000
00000000
00000000
,  // measure 4
00000000
00000000
00000000
00000000
,  // measure 5
00000000
00000000
00000000
00000000
,  // measure 6
20000000
00000000
00000000
31000000
00010000
00000000
00001000
00000100
,  // measure 7
00000010
00000000
00001000
00000000
00001001
00000000
00000001
00000010
,  // measure 8
00000100
00000000
00010000
00001000
01000000
00000000
00100000
00000000
,  // measure 9
02000000
00100000
00100000
03100000
,  // measure 10
01000000
00000000
00000000
01000000
00000000
00000000
01000000
00000000
00001000
00000000
00000000
00001000
00000000
00000000
00001000
00000000
,  // measure 11
00010000
00000000
00000000
00010000
00000000
00000000
00010000
00000000
00000010
00000000
00000000
00000010
00000000
00000000
00000010
00000000
,  // measure 12
00000100
00000000
00000000
00000100
00000000
00000000
00000100
00000000
00001000
00000000
00010000
00000000
01000000
00000000
10000000
00000000
,  // measure 13
00010000
00000000
10000000
01000000
00100000
00000000
00001000
00000000
,  // measure 14
00010000
00000100
00001000
00000100
00010000
00000000
00001000
00000000
,  // measure 15
00000100
00000000
00000001
00000010
00000100
00000000
00001000
00000000
,  // measure 16
00000101
00001100
00002002
00003003
,  // measure 17
00000001
00000000
00001000
00000100
00010000
00000000
00001000
00000000
,  // measure 18
01000000
00010000
00100000
00010000
01000000
00000000
00100000
00000000
,  // measure 19
10000000
00000000
01000000
00100000
00010000
00000000
01000000
00000000
,  // measure 20
01010000
11000000
20020000
30030000
,  // measure 21
00100000
10000000
01000000
00000000
00100000
00010000
01000000
00000000
,  // measure 22
00001000
00000000
00010000
00000000
00000100
00001000
00000010
00000000
,  // measure 23
00000100
00000001
00000010
00000100
,  // measure 24
00001000
00000001
00000100
00000010
00010000
00000000
00001000
00000000
,  // measure 25
01000000
00010000
00100000
00000000
01000000
10000000
00100000
00000000
,  // measure 26
01000000
00000000
00010000
00000000
00100000
00001000
00010000
00000000
,  // measure 27
00000100
00001000
00000010
00000100
,  // measure 28
00001000
00010000
01000000
10000000
00010000
00000000
10010000
00000000
,  // measure 29
10000000
01000000
00100000
00000000
00001000
00000000
00101000
00000000
,  // measure 30
00100000
00001000
00010000
00000000
00000010
00000000
00001010
00000000
,  // measure 31
00001000
00000001
00000010
00000000
00000100
00000000
00001100
00000000
,  // measure 32
00001000
00000100
00000010
00000000
00000001
00000000
00000011
00000000
,  // measure 33
00000010
00000100
00010000
00000000
00001000
00000000
01001000
00000000
,  // measure 34
01000000
00100000
10000000
00000000
00010000
00000000
00110000
00000000
,  // measure 35
00100000
01000000
10000000
00000000
00010000
00000000
01010000
00000000
,  // measure 36
01000000
00001000
00010000
00000100
00000010
00000001
00000001
00001000
,  // measure 37
00000100
00001000
00000000
00000100
00010000
00000100
00000000
00010000
,  // measure 38
00001000
00010000
00010000
00001000
01000000
00001000
00000000
01000000
,  // measure 39
00100000
01000000
00000000
00100000
10000000
00100000
00000000
10000000
,  // measure 40
01000000
10000000
10000000
00010000
01000000
00010000
00000000
00100000
,  // measure 41
00001000
00100000
00000000
00001000
00010000
00001000
00000000
00010000
,  // measure 42
00000100
00010000
00010000
00000010
00001000
00000010
00000000
00000100
,  // measure 43
00000001
00000010
00001000
00010000
,  // measure 44
01000000
10000000
00100000
00010000
,  // measure 45
00001000
01000000
00100000
00000000
10000000
01000000
00100000
00000000
,  // measure 46
00001000
00010000
00001000
00010000
00001000
00001000
00020000
00000000
,  // measure 47
00031000
00000000
00000000
01000000
00100000
00000000
00000000
10000000
,  // measure 48
01000000
00000000
00000000
00100000
00001000
00000000
00000000
00010000
,  // measure 49
00000100
00000000
00000000
00000010
00000001
00000000
00000000
00000000
,  // measure 50
00000100
00000100
00000010
00000010
00002002
00000000
00003003
00000000
,  // measure 51
00000001
00000000
00001000
00000100
00010000
00000000
00002000
00000000
,  // measure 52
01003000
00000000
00100000
10000000
01000000
00000000
00020000
00000000
,  // measure 53
00031000
00000000
00000100
00000010
00001000
00000000
00000001
00000000
,  // measure 54
00000200
00000000
00000000
00000000
00000000
00000000
00000000
00000000
00000310
00000010
00000010
00000000
00001000
00000000
00000000
00000000
,  // measure 55
00000100
00010000
00001000
00000000
00100000
00000000
00010000
01000000
,  // measure 56
00100000
01000000
00010000
00000000
10000000
00000000
01000000
00000000
,  // measure 57
00010000
00001000
00000100
00000000
00000010
00000000
00001000
00000001
,  // measure 58
00000100
00000010
00001000
00000000
00000001
00000000
00000010
00000000
,  // measure 59
00000100
00010000
00001000
00000000
01000000
00000000
00010000
00100000
,  // measure 60
01000000
10000000
00010000
00000000
10000000
00000000
02000000
00000000
,  // measure 61
03000000
00000000
00020000
00000000
00030000
00000000
00001000
00010000
,  // measure 62
00000100
00010000
00001000
00000000
00000000
00000100
00000020
00000000
,  // measure 63
00001030
00000001
00000100
00000000
00000010
00000000
00010000
00000000
,  // measure 64
00001000
01000000
00010000
00000000
00100000
00000000
01000000
10000000
,  // measure 65
01000000
00000000
00100000
00010000
00100000
00000000
00001000
00000000
,  // measure 66
00010000
00022000
00033000
00000100
,  // measure 67
00000010
00000001
00000100
00000000
00000010
00000000
00010000
00000000
,  // measure 68
00001000
01000000
00010000
00000000
10000000
00000000
00010000
10000000
,  // measure 69
01000000
00000000
10000000
00010000
01000000
00000000
00100000
10000000
,  // measure 70
01000000
00000000
00010000
00001000
00000100
00000000
00000002
00000000
,  // measure 71
00000000
00000000
00000000
00000003
;

//---------------dance-double - ----------------
#NOTES:
     dance-double:
     :
     Easy:
     6:
     0.291,0.313,0.106,0.115,0.000: // measure 1
00000000
00000000
00000000
00000000
,  // measure 2
00000000
00000000
00000000
00000000
,  // measure 3
00000000
00000000
00000000
00000000
,  // measure 4
00000000
00000000
00000000
00000000
,  // measure 5
00000000
00000000
00000000
00000000
,  // measure 6
00001000
00010000
00000100
00000010
,  // measure 7
00000001
00000100
00000110
00000000
,  // measure 8
00000001
00000100
00001000
00010000
,  // measure 9
00200000
00000000
00300000
00000000
,  // measure 10
00200000
00000000
00300000
00000000
,  // measure 11
00100000
00000000
00100000
00000000
,  // measure 12
00100000
00100000
00100000
00100000
,  // measure 13
01000000
00010000
10000000
01000000
,  // measure 14
00010000
00001000
00000100
00000000
,  // measure 15
00000010
00001000
00000100
00000010
,  // measure 16
00000001
00001000
00001001
00000000
,  // measure 17
00000001
00000100
00000010
00001000
,  // measure 18
00000100
00010000
00001000
00000000
,  // measure 19
01000000
00010000
00100000
01000000
,  // measure 20
10000000
00010000
10010000
00000000
,  // measure 21
10000000
01000000
00010000
00000000
,  // measure 22
00001000
00000100
00000001
00000000
,  // measure 23
00000001
00000010
00001000
00000000
,  // measure 24
00010000
00100000
10000000
00000000
,  // measure 25
10000000
01000000
00010000
00000000
,  // measure 26
00001000
00000010
00000001
00000000
,  // measure 27
00000001
00000100
00001000
00000000
,  // measure 28
00010000
00100000
10000000
00000000
,  // measure 29
00010000
10000000
11000000
00000000
,  // measure 30
10000000
00010000
01010000
00000000
,  // measure 31
01000000
00001000
00011000
00000000
,  // measure 32
00010000
00000100
00001100
00000000
,  // measure 33
00001000
00000010
00001010
00000000
,  // measure 34
00000001
00000010
00000011
00000000
,  // measure 35
00001000
00000010
00010010
00000000
,  // measure 36
00010000
00001000
01001000
00000000
,  // measure 37
01000000
00010000
00100000
01000000
,  // measure 38
10000000
00100000
01000000
00000000
,  // measure 39
00001000
00010000
00000100
00001000
,  // measure 40
00000010
00000100
00000001
00000000
,  // measure 41
00000001
00000100
00001000
00010000
,  // measure 42
00100000
10000000
00010000
00000000
,  // measure 43
10000000
01000000
00010000
00001000
,  // measure 44
00000100
00000001
00001000
00000000
,  // measure 45
00000001
00000100
00001000
00010000
,  // measure 46
01000000
10000000
00010000
02000000
,  // measure 47
03200000
00300000
20000000
30000000
,  // measure 48
00010000
00100000
00002000
00003000
,  // measure 49
00020000
00030000
00000200
00000300
,  // measure 50
00000010
00000001
00000200
00000300
,  // measure 51
00000001
00001000
00000100
00000000
,  // measure 52
00010000
00001000
01000000
00000000
,  // measure 53
00010000
10000000
01000000
00100000
,  // measure 54
00010000
00000000
02000000
03100000
,  // measure 55
10000000
00010000
01000000
00001000
,  // measure 56
00010000
00000100
00000000
00000010
,  // measure 57
00000001
00000100
00001000
00010000
,  // measure 58
00100000
10000000
00000000
00010000
,  // measure 59
01000000
00001000
00010000
00000100
,  // measure 60
00000010
00000001
00000000
00000100
,  // measure 61
00000010
00010000
00000000
00001000
,  // measure 62
01000000
00200000
00300000
10000000
,  // measure 63
01000000
00010000
00000000
00001000
,  // measure 64
00000010
00000001
00000000
00000001
,  // measure 65
00000100
00001000
00000000
00010000
,  // measure 66
00100000
10000000
00000000
10000000
,  // measure 67
00100000
00010000
00000000
00001000
,  // measure 68
00000010
00000001
00000000
00000001
,  // measure 69
00000100
00001000
00000000
00010000
,  // measure 70
01000000
10000000
00000000
20020000
,  // measure 71
00000000
00000000
00000000
30030000
;
