#TITLE:Hot Problems (Dave Days Remix);
#SUBTITLE:;
#ARTIST:Double Take;
#TITLETRANSLIT:;
#SUBTITLETRANSLIT:;
#ARTISTTRANSLIT:;
#GENRE:;
#CREDIT:Silverhawke;
#MENUCOLOR:;
#METERTYPE:DDR;
#BANNER:Hot Problems (Dave Days Remix).png;
#BACKGROUND:Hot Problems (Dave Days Remix)-bg.png;
#LYRICSPATH:;
#CDTITLE:cdtitle.png;
#MUSIC:Hot Problems (Dave Days Remix).mp3;
#OFFSET:-0.019;
#SAMPLESTART:40.614;
#SAMPLELENGTH:15.000;
#SELECTABLE:YES;
#LISTSORT:;
#BPMS:0.000=130.000;
#STOPS:;
#BGCHANGES:4.000=Hot Problems (Dave Days Remix).avi=1.000=1=0=0,
99999=-nosongbg-=1.000=0=0=0 // don't automatically add -songbackground-
;
#ATTACKS:;

//---------------dance-single - ----------------
#NOTES:
     dance-single:
     :
     Hard:
     10:
     0.447,0.459,0.146,0.109,0.027:
0000
0000
0000
0000
,
0000
0000
0000
0000
,
0000
0000
0000
0000
,
0000
0000
0000
0000
,
0000
0000
0000
0000
,
0001
1000
0001
0100
0010
1000
0100
0010
,
0000
0001
0100
0000
0001
1000
0001
0010
,
0000
0100
0000
1000
0100
0010
0002
0000
,
1003
0000
0010
0100
0010
1000
0002
0000
,
0013
0000
0100
1000
0010
0100
0001
0010
,
0000
0100
0000
1000
0010
0100
0010
1000
,
0000
1000
0000
0010
0100
0001
0010
0000
,
0100
1000
1000
0001
0001
0100
0110
0000
,
2001
0000
3010
0100
0001
0100
0010
1000
,
0000
0100
0000
0010
0100
1000
0001
0100
,
0000
0010
0000
0100
0001
1000
0001
0001
,
0000
0010
0100
1000
0001
0100
0010
0010
,
0100
0000
0001
0000
1000
0100
0010
0001
,
0100
0000
0001
0010
0100
1000
0001
0100
,
0010
0000
1000
0100
1000
0001
0010
0001
,
0100
0100
0010
0010
1000
1001
0000
0120
,
0000
0000
1000
0000
0100
0100
0130
0000
,
0001
0000
0100
0000
1000
0000
0100
0000
0001
0000
0000
0010
0000
0000
0100
0000
,
0000
1000
0100
0001
0100
1000
0010
0100
,
0000
0001
0100
0010
0100
0000
0001
0101
,
0000
1010
0000
0101
0000
1010
0000
0000
,
1000
0100
0001
0100
1000
0010
0100
0100
,
0000
0001
0100
1000
0100
0001
0010
0100
,
0000
1000
0100
0010
0100
1000
0000
0001
,
0000
1001
0000
0010
0100
0100
0001
0000
,
1001
0000
0100
0000
0100
0001
0100
0010
,
0100
0000
0001
0000
0100
1000
0100
0010
,
0100
0000
1000
0000
0100
0001
0010
0100
,
1000
0001
0100
0010
1000
0100
0010
0001
,
0100
0000
0100
0000
0010
1000
0010
0100
,
0000
0001
0001
0010
0100
1000
0001
0100
,
0010
0000
0100
0001
0100
1000
0100
0001
,
0010
0010
0000
0100
1000
0100
0010
0001
,
0200
0000
0001
0000
1300
0100
0001
0010
,
0200
0000
0001
0000
1300
0010
0100
1000
,
0100
0000
0010
0100
1000
0100
0001
0010
,
0001
0000
0000
0000
1000
0000
0001
0000
0100
0010
0100
0010
0100
0000
0000
0000
,
0002
0000
0010
0000
0103
0001
1000
0100
,
0020
0000
0001
0000
0130
1000
0010
0100
,
0000
0100
0010
1000
0001
0010
0100
1000
,
0001
0000
0001
0000
1000
0000
1000
0000
0010
1000
0010
1000
0010
0000
2000
0000
,
0002
0000
0000
3003
,
1000
0000
0100
0000
0010
0000
0100
0000
1000
0000
0000
0001
0000
0000
0100
0000
,
0000
0010
1000
0010
0001
0010
0100
0001
,
0000
0010
0100
1000
0100
0000
1000
1100
,
0000
0011
0000
1100
0000
0011
0000
0000
,
0001
0100
0010
0100
1000
0100
0010
0010
,
0000
1000
0100
0010
0100
0001
0100
1000
,
0000
0001
0100
1000
0100
0010
0000
1000
,
0000
1001
0000
0010
0100
0100
1000
0000
,
2002
0000
0000
0000
,
3003
0000
0000
0000
;

//---------------dance-single - ----------------
#NOTES:
     dance-single:
     :
     Medium:
     8:
     0.318,0.331,0.055,0.045,0.000:
0000
0000
0000
0000
,
0000
0000
0000
0000
,
0000
0000
0000
0000
,
0000
0000
0000
0000
,
0000
0000
0000
0000
,
1000
0000
0001
0000
0100
0001
0000
1000
,
0000
0000
0100
0010
0100
0001
0000
0100
,
0000
0000
0010
1000
0010
0100
0001
0000
,
1000
0000
0001
0100
0000
0010
0100
0000
,
0001
0000
1000
0100
0000
0010
0100
1000
,
0000
0000
0000
0001
0100
0001
0010
0001
,
0000
0000
0000
1000
0100
1000
0010
0000
,
0100
0001
1000
0000
0001
1000
0100
0000
,
0010
0000
0000
0000
0001
0100
0001
0010
,
0000
0000
0000
0001
1000
0100
1000
0010
,
0000
0000
0000
0100
0001
1000
0100
0010
,
0000
0100
1000
0001
0000
0100
0001
0000
,
1000
0000
0000
0001
0100
0001
1000
0001
,
0000
0000
0000
1000
0100
1000
0001
1000
,
0000
0000
0000
0001
0100
0001
1000
0001
,
0000
0100
0000
0010
0000
1000
0000
2002
,
0000
0000
0000
3003
,
0001
0000
0100
0000
0001
0000
0100
0010
,
0000
0000
1000
0000
0100
0010
0000
0001
,
0000
0000
0000
1000
0010
0000
0100
0001
,
0000
1000
0000
1001
0000
1001
0000
0000
,
0001
0000
0100
0000
0010
0000
1000
0100
,
0000
0000
0010
0000
0100
1000
0000
0001
,
0000
0000
0100
0000
0010
1000
0000
0001
,
0000
1000
0000
0100
0000
0010
0001
0000
,
1000
0000
0000
0000
0001
0100
0010
1000
,
0000
0001
1000
0000
0001
0010
0100
1000
,
0000
0001
1000
0000
0001
0000
0100
0000
,
0010
0000
0100
0000
0001
1000
0001
0000
,
0010
0000
0100
0000
0010
0100
1000
0000
,
0010
0100
0010
0010
,
0100
0000
0001
0000
1000
0001
0100
0000
,
0010
1000
0100
0010
,
0001
0000
0001
0000
1000
0001
1000
0000
,
1000
0000
1000
0000
0001
1000
0001
0000
,
0010
0000
0010
0000
0100
0001
0010
0000
,
0100
1000
0010
0000
0100
0001
0010
0100
,
1000
0000
1000
0000
0001
0100
0010
0000
,
0100
0000
0100
0000
0001
0010
0100
0000
,
1000
0001
1000
0000
0001
0000
1000
0000
,
0001
0100
0000
0010
0000
0100
0000
0010
,
2000
0000
0000
3000
,
0001
0000
0100
0000
0001
0010
0000
0001
,
0000
1000
0100
0000
1000
0010
0000
0100
,
0000
0010
1000
0000
0001
0000
1000
0001
,
0000
1000
0000
0110
0000
0110
0000
0000
,
0010
0000
0001
0000
1000
0010
0000
1000
,
0000
0010
0100
0000
0001
0010
0000
0100
,
0000
0010
0001
0000
0100
0010
0000
1000
,
0000
0001
0010
0100
0000
1000
0010
0000
,
2002
0000
0000
0000
,
3003
0000
0000
0000
;

//---------------dance-single - ----------------
#NOTES:
     dance-single:
     :
     Easy:
     4:
     0.190,0.204,0.000,0.009,0.000:
0000
0000
0000
0000
,
0000
0000
0000
0000
,
0000
0000
0000
0000
,
0000
0000
0000
0000
,
0000
0000
0000
0000
,
1000
0000
0010
0000
,
0100
0000
0001
0010
,
0100
0000
1000
0000
,
0001
0000
0010
0100
,
1000
0000
0001
0000
,
0100
0000
0010
0000
,
1000
0000
0001
0010
,
0100
0000
1000
0010
,
0100
0000
0001
0000
,
1000
0000
0001
1000
,
0010
0000
0100
0000
,
0001
0000
1000
0100
,
0010
0000
0001
0000
,
0100
0000
0001
0010
,
0100
0000
1000
0010
,
0100
0001
1000
0001
,
1000
0000
0000
0000
,
0100
0010
0001
0000
,
0001
0100
0010
0000
,
0010
1000
0001
1000
,
0010
0000
0010
0000
,
0010
0100
0001
0000
,
0001
1000
0100
0000
,
0100
0010
0100
1000
,
0100
0010
0001
0000
,
1000
0000
0010
0100
,
0001
0000
0010
0100
,
1000
0000
0010
0100
,
0010
1000
0001
1000
,
0100
0000
0010
0100
,
1000
0000
0010
0100
,
0001
0000
0001
1000
,
0100
0010
0100
0100
,
1000
0000
0001
0100
,
0010
0000
1000
0100
,
0010
0000
0001
0100
,
1000
0000
1000
0100
,
0001
0000
1000
0100
,
0001
0000
1000
0010
,
0001
0000
1000
0010
,
0100
0001
1000
0001
,
1000
0000
0000
0000
,
0001
0000
0100
0001
,
0010
0000
0100
1000
,
0010
0000
0100
0001
,
0100
0000
0100
0000
,
0100
0000
0010
1000
,
0100
0000
1000
0001
,
0100
0000
0010
1000
,
0001
0010
0100
1000
,
0002
0000
0000
0000
,
0003
0000
0000
0000
;

//---------------dance-single - ----------------
#NOTES:
     dance-single:
     :
     Beginner:
     1:
     0.082,0.100,0.000,0.000,0.000:
0000
0000
0000
0000
,
0000
0000
0000
0000
,
0000
0000
0000
0000
,
0000
0000
0000
0000
,
0000
0000
0000
0000
,
1000
0000
0000
0000
,
0001
0000
0000
0000
,
0100
0000
0000
0000
,
0001
0000
0000
0000
,
1000
0000
0000
0000
,
0100
0000
0000
0000
,
1000
0000
0000
0000
,
0001
0000
0001
0000
,
0001
0000
0000
0000
,
0100
0000
0000
0000
,
0010
0000
0000
0000
,
1000
0000
0000
0000
,
0010
0000
0000
0000
,
0100
0000
0000
0000
,
0001
0000
0000
0000
,
1000
0000
1000
0000
,
1000
0000
0000
0000
,
0010
0000
0010
0000
,
0010
0000
0000
0000
,
0100
0000
0100
0000
,
0100
0000
0000
0000
,
0001
0000
0001
0000
,
0001
0000
0000
0000
,
1000
0000
1000
0000
,
1000
0000
0000
0000
,
0010
0000
0000
0000
,
0100
0000
0000
0000
,
0001
0000
0000
0000
,
1000
0000
1000
0000
,
1000
0000
0000
0000
,
0001
0000
0000
0000
,
0010
0000
0000
0000
,
0100
0000
0100
0000
,
0100
0000
0000
0000
,
1000
0000
0000
0000
,
0001
0000
0000
0000
,
0100
0000
0100
0000
,
0100
0000
0000
0000
,
0010
0000
0000
0000
,
1000
0000
0000
0000
,
0001
0000
0001
0000
,
0001
0000
0000
0000
,
1000
0000
0000
0000
,
0010
0000
0000
0000
,
0100
0000
0000
0000
,
0001
0000
0001
0000
,
0001
0000
0000
0000
,
1000
0000
0000
0000
,
0100
0000
0000
0000
,
0010
0000
0010
0000
,
0010
0000
0000
0000
;

//---------------dance-double - ----------------
#NOTES:
     dance-double:
     :
     Hard:
     10:
     0.406,0.400,0.064,0.082,0.027:
00000000
00000000
00000000
00000000
,
00000000
00000000
00000000
00000000
,
00000000
00000000
00000000
00000000
,
00000000
00000000
00000000
00000000
,
00000000
00000000
00000000
00000000
,
00001000
00010000
00001000
00010000
01000000
00010000
00001000
00010000
,
00000000
00000100
00000000
00000100
00001000
00000010
00000100
00000001
,
00000000
00000001
00000000
00000010
00000100
00001000
00000100
00000000
,
00010000
00000000
00001000
01000000
00000000
01000000
00100000
10000000
,
01000000
00000000
10000000
00010000
01000000
00100000
01000000
00010000
,
00000000
00100000
00000000
00100000
00001000
00010000
00000100
00001000
,
00000000
00000010
00000000
00000100
00000000
00000100
00000001
00000000
,
00000010
00000100
00001000
00000100
00010000
00001000
01000000
00000000
,
01200000
00000000
10300000
00000000
00010000
01000000
00100000
20000000
,
01000000
00000000
30010000
01000000
00001000
00010000
00000100
00002000
,
00000001
00000000
00003010
00000100
00000001
00000010
00000100
00001000
,
00000000
00000100
00000000
00010000
00000000
00001000
01000000
00100000
,
10000000
00000000
01000000
00100000
01000000
10000000
00010000
02000000
,
00001000
00000000
03010000
00100000
00001000
00010000
00000100
00002000
,
00000010
00000000
00003001
00000100
00000010
00001000
00000100
00010000
,
00000000
00001000
00000000
01001000
00000000
00011000
00000000
00010100
,
00000000
00000000
00001000
00000000
00010000
00010000
00010000
00000000
,
00001000
00000000
01000000
00000000
00010000
00000000
01000000
00000000
00100000
00000000
00000000
01000000
00000000
00000000
00001000
00000000
,
00000000
00010000
01000000
00000000
10000000
01000000
00100000
00010000
,
00000000
01000000
00000000
00001000
00010000
00000000
01000000
00010000
,
00000000
00000100
00000000
00001000
00000000
01000000
00000000
00000000
,
00010000
00000100
00001000
00000100
00000010
00000100
00001000
00000001
,
00000000
00001000
00000100
00000000
00000010
00000001
00000000
00001000
,
00000000
00000100
00000000
00010000
00001000
00000100
00000000
00001000
,
00000000
01000000
00000000
00010000
00000100
00000010
00000100
00000000
,
00011000
00000000
00010000
00000000
00010000
00000100
00000010
00000100
,
00010000
00000000
00010000
00000000
00010000
00000010
00000100
00000010
,
00010000
00000000
00010000
00000000
00001000
01000000
00000000
00100000
,
00000000
10000000
00000000
01000000
00000000
00100000
00010000
01000000
,
00000000
00100000
10000000
00000000
00010000
01000000
10000000
01000000
,
00000000
00001000
00000000
00010000
00000100
00000001
00000100
00001000
,
00000010
00000000
00000100
00000001
00000010
00000100
00010000
00001000
,
00000000
00010000
00000000
00001000
01000000
00100000
01000000
00001000
,
00020000
00000000
01030000
00000000
10000000
00100000
01000000
00010000
,
00200000
00000000
00301000
00000000
00010000
00000100
00000010
00000001
,
00000100
00000000
00000010
00000000
00001000
00000100
00010000
00001000
,
00000000
00000000
01000000
00000000
00100000
00000000
10000000
00000000
00010000
10000000
00010000
10000000
00010000
00000000
00000000
00000000
,
01100000
00000000
10000000
00000000
00010000
01000000
00001000
00010000
,
00002000
00000000
00003010
00000000
00000001
00000100
00000010
00001000
,
00000100
00000000
00010000
00000000
00001000
01000000
00100000
01000000
,
00000000
00000000
00001000
00000000
00010000
00000000
00000100
00000000
00000010
00000100
00000010
00000100
00000010
00000000
00000100
00000000
,
00020000
00000000
00000000
00030000
,
00010000
00000000
00000010
00000000
00001000
00000000
00000010
00000000
00000100
00000000
00000000
00000010
00000000
00000000
00010000
00000000
,
00000000
00001000
00000010
00000010
00000001
00000010
00000100
00001000
,
00000000
00000010
00000010
00010000
00001000
00000000
00000010
00001000
,
00000000
00100000
00000000
00010000
00000000
00000010
00000000
00000000
,
00001000
00100000
00010000
00100000
01000000
00100000
00010000
10000000
,
00000000
00010000
00100000
00100000
01000000
10000000
00000000
00010000
,
00000000
00100000
00000000
00001000
00010000
00100000
00000000
00010000
,
00000000
00000010
00000000
00001000
00100000
01000000
00100000
00000000
,
00011000
00000000
00000000
00000000
;

//---------------dance-double - ----------------
#NOTES:
     dance-double:
     :
     Medium:
     7:
     0.300,0.300,0.027,0.009,0.000:
00000000
00000000
00000000
00000000
,
00000000
00000000
00000000
00000000
,
00000000
00000000
00000000
00000000
,
00000000
00000000
00000000
00000000
,
00000000
00000000
00000000
00000000
,
00001000
00000000
01000000
00000000
00010000
00100000
01000000
10000000
,
00000000
00000000
00010000
00000000
01000000
00010000
00100000
00001000
,
00000000
00000000
00000000
00010000
00000100
00000000
00001000
00000000
,
00000010
00000000
00000000
00000100
00000000
00000001
00001000
00000000
,
00000001
00000000
00000000
00000010
00000100
00000000
00001000
00000001
,
00000000
00000100
00000000
00000000
00000010
00001000
00000000
00000100
,
00000000
00010000
00000000
00001000
00000000
01000000
00010000
00000000
,
00100000
00000000
01000000
00000000
10000000
00100000
01000000
00000000
,
00010000
00000000
00000000
00000000
00100000
00001000
00100000
00001000
,
00000000
00000000
00000000
00000000
00010000
00000100
00010000
00000100
,
00000000
00000000
00000000
00000000
00001000
00000001
00001000
00000001
,
00000000
00000100
00000000
00000010
00000000
00010000
00001000
00000000
,
00010000
00000000
00000000
00001000
01000000
00000000
00100000
01000000
,
00000000
00000000
00000000
00010000
10000000
00000000
01000000
00100000
,
00000000
00000000
00000000
00001000
00010000
00000000
00000100
00010000
,
00000000
00000010
00000000
00000100
00000000
00000001
00000000
00001001
,
00000000
00000000
00000000
00000000
,
00000001
00000100
00000010
00000000
00001000
00000100
00010000
00000000
,
00001000
00000000
01000000
00000000
00010000
00100000
01000000
10000000
,
00000000
10000000
00000000
00100000
01000000
00000000
00010000
01000000
,
00000000
01000000
00000000
01000000
00000000
01000000
00000000
00000000
,
00001000
00010000
00000100
00000000
00000010
00000001
00000100
00000000
,
00000010
00000000
00010000
00000000
00001000
01000000
00010000
00000000
,
00100000
00000000
01000000
00000000
10000000
01000000
00100000
00010000
,
00000000
00010000
00000000
10000000
01000000
00000000
00100000
00000000
,
01000000
00000000
00000000
00000000
10000000
00000000
00010000
01000000
,
00000000
00000000
00000000
00000000
00001000
00000000
00010000
00000100
,
00000000
00000000
00000000
00000000
00000010
00000000
00000001
00000100
,
00000000
00000010
00000000
00000100
00000000
00000001
00001000
00000100
,
00000000
00000000
00000000
00000000
00010000
00000000
00001000
01000000
,
00000000
01000000
00000000
00100000
10000000
00000000
10000000
01000000
,
00100000
00000000
00010000
00000000
01000000
00000000
00100000
10000000
,
00000000
01000000
00000000
00100000
00001000
00000000
00010000
00000100
,
00000010
00000000
00000001
00000000
00000100
00000000
00000001
00001000
,
00000100
00000000
00010000
00000000
00001000
00000000
01000000
00010000
,
00100000
01000000
10000000
01000000
,
00010000
00000000
00001000
00000000
00000010
00000001
00000100
00000000
,
00000110
00000000
00000000
00000001
00001000
00000000
00000100
00001000
,
00000010
00000000
00000000
00000100
00000001
00000000
00001000
00000100
,
00000000
00010000
00000000
00000000
00001000
01000000
00001000
01000000
,
00000000
00100000
10000000
00000000
01000000
00100000
00010000
01000000
,
00200000
00000000
00000000
00300000
,
10000000
01000000
00100000
00000000
00010000
01000000
00001000
00000000
,
00010000
00000000
00000100
00000000
00001000
00000010
00000100
00000001
,
00000000
00000001
00000000
00000010
00000100
00000000
00001000
00000100
,
00000000
00000100
00000000
00000100
00000000
00000100
00000000
00000000
,
00010000
00001000
01000000
00000000
00100000
10000000
01000000
00000000
,
00100000
00000000
00001000
00000000
00010000
00000100
00001000
00000000
,
00000010
00000000
00000100
00000000
00000001
00000100
00000010
00001000
,
00000000
00001000
00000000
00000001
00000100
00000000
00000010
00000000
,
00000110
00000000
00000000
00000000
;

//---------------dance-double - ----------------
#NOTES:
     dance-double:
     :
     Easy:
     4:
     0.199,0.200,0.000,0.000,0.000: // measure 1
00000000
00000000
00000000
00000000
,  // measure 2
00000000
00000000
00000000
00000000
,  // measure 3
00000000
00000000
00000000
00000000
,  // measure 4
00000000
00000000
00000000
00000000
,  // measure 5
00000000
00000000
00000000
00000000
,  // measure 6
10000000
00000000
01000000
00100000
,  // measure 7
00001000
00000000
00010000
00000100
,  // measure 8
00000010
00000000
00000001
00000100
,  // measure 9
00000010
00000000
00010000
00001000
,  // measure 10
01000000
00000000
00100000
10000000
,  // measure 11
01000000
00000000
00100000
00001000
,  // measure 12
01000000
00000000
00001000
00010000
,  // measure 13
00000100
00000000
00000010
00000001
,  // measure 14
00000100
00000000
00000010
00010000
,  // measure 15
00001000
00000000
01000000
00010000
,  // measure 16
00100000
00000000
01000000
10000000
,  // measure 17
00010000
00000000
01000000
00001000
,  // measure 18
00010000
00000000
00000100
00000010
,  // measure 19
00000001
00000000
00000100
00000010
,  // measure 20
00001000
00000000
00000100
00010000
,  // measure 21
00001000
01000000
00000000
00001000
00000000
01000000
00000000
00100000
,  // measure 22
00000000
00000000
00000000
00000000
,  // measure 23
10000000
01000000
00100000
00010000
,  // measure 24
10000000
00000000
01000000
00100000
,  // measure 25
00001000
00000000
00010000
00000100
,  // measure 26
00000010
00000000
00000010
00000000
,  // measure 27
00000001
00000100
00000010
00001000
,  // measure 28
00000001
00000000
00000100
00000010
,  // measure 29
00010000
00000000
00001000
01000000
,  // measure 30
00100000
00100000
10000000
01000000
,  // measure 31
00100000
00000000
00010000
10000000
,  // measure 32
01000000
00000000
00010000
00001000
,  // measure 33
00000100
00000000
00000010
00001000
,  // measure 34
00000100
00000000
00000010
00000001
,  // measure 35
00001000
00000000
00000001
00000100
,  // measure 36
00000010
00000000
00010000
00001000
,  // measure 37
01000000
00000000
00100000
10000000
,  // measure 38
01000000
00000000
00010000
00001000
,  // measure 39
00000100
00000000
00000010
00001000
,  // measure 40
00000100
00000000
00000010
00000001
,  // measure 41
00000100
00000000
00001000
00010000
,  // measure 42
00100000
00000000
10000000
10000000
,  // measure 43
10000000
00000000
00010000
01000000
,  // measure 44
00001000
00000000
00010000
00000100
,  // measure 45
00001000
00000000
00000010
00000100
,  // measure 46
00000001
00001000
00001000
00001000
,  // measure 47
00001000
00000000
00000000
00000000
,  // measure 48
00000001
00000010
00000100
00001000
,  // measure 49
00000001
00000000
00000010
00000100
,  // measure 50
00010000
00000000
00001000
00100000
,  // measure 51
01000000
00000000
01000000
00000000
,  // measure 52
10000000
00100000
01000000
00010000
,  // measure 53
10000000
00000000
00100000
01000000
,  // measure 54
00001000
00000000
00010000
00000010
,  // measure 55
00000100
00000100
00000001
00000010
,  // measure 56
00000100
00000000
00000000
00000000
;
