#TITLE:Hollywood Galaxy;
#SUBTITLE:;
#ARTIST:dj TAKA;
#TITLETRANSLIT:;
#SUBTITLETRANSLIT:;
#ARTISTTRANSLIT:;
#GENRE:;
#CREDIT:Silverhawke;
#MENUCOLOR:;
#METERTYPE:DDR;
#BANNER:Hollywood Galaxy.png;
#BACKGROUND:Hollywood Galaxy-bg.png;
#LYRICSPATH:;
#CDTITLE:cdtitle.png;
#MUSIC:Hollywood Galaxy.mp3;
#OFFSET:-0.028;
#SAMPLESTART:42.586;
#SAMPLELENGTH:15.000;
#SELECTABLE:YES;
#LISTSORT:;
#BPMS:0.000=186.000;
#STOPS:63.750=0.968
;
#BGCHANGES:;
#ATTACKS:;

//---------------dance-single - ----------------
#NOTES:
     dance-single:
     :
     Hard:
     14:
     0.694,0.742,0.211,0.379,0.255:
0000
0000
0000
0000
,
0000
0000
0000
0000
,
0000
0000
0000
0000
,
0000
0000
0000
0000
,
0000
0000
0000
0000
,
0000
0000
0000
0000
,
0000
0000
0000
0000
,
0000
0000
0000
0000
,
0001
0001
0100
0100
,
0010
0010
1000
1000
,
0100
0100
0010
0010
,
0001
0000
0001
0000
1000
0100
1000
0100
,
0010
0001
0010
0001
1000
0010
1000
0010
,
0100
0001
0100
0001
1000
0100
1000
0100
,
0010
0001
0010
0001
1000
0010
1000
0010
,
0100
0000
0000
0000
0001
0000
0000
0000
0010
0000
0000
0000
0100
0000
0000
0000
1000
0000
0000
0000
0100
0000
0000
0000
0010
0000
0000
0000
0001
0000
2000
3000
,
0000
0000
0000
0000
0101
0000
0001
0000
0010
0000
0100
1000
0000
0000
0100
0000
,
0010
0000
0001
0000
1000
0000
0010
0000
0100
0001
0000
1000
0000
0000
0100
0000
,
0010
0000
0100
0000
1000
0000
0010
0000
0100
0000
0001
0010
0000
0000
0001
0000
,
0100
0000
0010
0000
1000
0000
0100
0000
0010
0100
0000
1000
0000
0000
0010
0000
,
0100
0000
0001
0000
0010
0000
0100
0000
1000
0000
0010
0100
0000
0000
0010
0000
,
1000
0000
0100
0000
0010
0000
0001
0000
1000
0100
0000
0010
0000
0000
0100
0000
,
1000
0000
0010
0000
0100
0000
0001
0000
1000
0000
0100
0010
0000
0000
0100
0000
,
1000
0000
0010
0000
0100
0000
0001
0000
0010
0001
0000
0100
0000
0000
0010
0000
,
1000
0000
0100
0000
1200
0000
1300
0000
0010
0000
0100
0001
0000
0000
0100
0000
,
0010
0000
1000
0000
0001
0000
0010
0000
0100
1000
0000
0001
0000
0000
0100
0000
,
0010
0000
0100
0000
0002
0000
0013
0000
0100
0000
1000
0010
0000
0000
1000
0000
,
0100
0000
0010
0000
0002
0000
0103
0000
0010
0100
0000
0001
0000
0000
0010
0000
,
0100
0000
1000
0000
0020
0000
0130
0000
0001
0000
0010
0100
0000
0000
0010
0000
,
0001
0000
0100
0000
0010
0000
1000
0000
0001
0100
0000
0010
0000
0000
0100
0000
,
0001
0000
0010
0000
0100
0000
1000
0000
0001
0000
0100
0010
0000
0000
0100
0000
,
0001
0000
0010
0000
2002
0000
0000
0000
3003
0000
0000
0000
1000
0001
0100
0001
,
0100
0001
0100
0001
1000
0100
1000
0000
0001
0000
0000
0000
0001
0000
0100
0000
,
0010
0000
1000
0000
0001
0100
0001
0000
1000
0000
0000
0000
1000
0000
0100
0000
,
0010
0000
0001
0000
1000
0100
1000
0000
0001
0000
0000
0000
0001
0000
0100
0000
,
0010
0000
1000
0000
0100
0010
0100
0000
1000
0000
0000
0000
0010
0100
0010
0000
,
1000
0000
0100
0000
0010
0001
0010
0000
0100
0000
0000
0000
1000
0000
0010
0000
,
0100
0001
1000
0100
0010
0100
1000
0100
,
0001
0000
0100
0000
1000
0010
1000
0000
0001
0000
0000
0000
0010
0000
0100
0000
,
1000
0010
0100
1000
0100
0001
0010
0100
,
0010
0000
0010
0000
0001
0100
0001
0000
1000
0000
0000
0000
1000
0000
0100
0000
,
0010
0000
0001
0000
1000
0100
1000
0000
0001
0000
0000
0000
0001
0000
0100
0000
,
0010
0000
1000
0000
0001
0100
0001
0000
1000
0000
0000
0000
1000
0000
0100
0000
,
0010
0000
0001
0000
0100
0010
0100
0000
0001
0000
0000
0000
0010
0100
0010
0000
,
0001
0000
0100
0000
0010
1000
0010
0000
0100
0000
0000
0000
0001
0000
0010
0000
,
0100
1000
0001
0100
0010
0100
0001
0100
,
1000
0000
0100
0000
0001
0010
0001
0000
1000
0000
0000
0000
0010
0000
0100
0000
,
0001
0010
0100
0001
0100
1000
0010
0100
,
0010
0010
1002
0000
0100
0100
0000
0000
,
0000
0000
2003
0000
0100
0100
0000
0000
,
0000
0000
3020
0000
0100
0100
2030
0000
,
0100
0000
3002
0000
0010
0010
0000
2003
,
3200
0320
0032
0000
0100
0100
0000
0000
,
0000
0000
2003
0000
0010
0010
0000
0000
,
0000
0000
3200
0000
0010
0010
2300
0000
,
0010
3002
0203
2300
,
3020
0000
0032
0000
0100
0100
0003
0000
,
0110
0000
2000
0000
0100
0100
3000
0000
,
0110
0000
0002
0000
0010
0010
2003
0000
,
0100
0000
3020
0000
0100
0100
0030
0000
,
1001
0000
0200
0000
0001
0001
0300
0000
,
0110
0000
2000
0000
0100
0100
3000
0000
,
0011
0000
0002
0000
0100
0100
0003
0000
,
0110
0000
2002
0000
0000
0000
0000
3000
,
0003
0000
2000
0000
0001
0001
3000
1000
,
0100
0000
0010
0000
0001
0000
0010
0000
0100
0000
1000
0000
0001
0010
0001
0000
,
1000
0010
1000
0000
0002
0000
0010
0000
1003
0000
0002
0000
0100
0000
1003
0000
,
0002
0010
2003
0000
0001
0001
3000
0100
,
0110
0000
0002
0000
1000
1000
0003
0001
,
0100
0000
0010
0000
1000
0000
0010
0000
0100
0000
0001
0000
1000
0100
1000
0000
,
0001
0100
0001
0000
2000
0000
0100
0000
3001
0000
2000
0000
0010
0000
3001
0000
,
2000
0100
3002
0000
0100
0100
0003
0010
,
0100
0000
0010
0000
1001
0000
0000
1000
0100
0000
0000
0000
0001
0000
0100
0000
,
1000
0000
0010
0000
0110
0000
0000
0100
0001
0000
0000
0000
0011
0000
0000
0010
,
0100
0000
0000
0000
1100
0000
0000
1000
0010
0000
0000
0000
0110
0000
0000
0100
,
0001
0000
0000
0000
1001
0000
0000
1000
0100
0000
0000
0000
0010
0000
0001
0000
,
0100
0000
1000
0000
0110
0000
0000
0001
1000
0000
0000
0000
0100
0000
0001
0000
,
0100
0000
1000
0000
0110
0000
0000
0001
1000
0000
0000
0000
0110
0000
0000
1000
,
0001
0000
1000
1100
0000
0001
0101
0000
,
0010
0000
0110
0000
0000
0000
0000
0000
0000
0000
0000
0000
1000
0001
0100
0001
,
0100
0001
0100
0001
0010
0000
0000
0000
0000
0000
0000
0000
0000
0000
0000
0000
;

//---------------dance-single - ----------------
#NOTES:
     dance-single:
     :
     Medium:
     10:
     0.498,0.565,0.185,0.220,0.035:
0000
0000
0000
0000
,
0000
0000
0000
0000
,
0000
0000
0000
0000
,
0000
0000
0000
0000
,
0000
0000
0000
0000
,
0000
0000
0000
0000
,
0000
0000
0000
0000
,
0000
0000
0000
0000
,
1000
0000
0100
0010
0000
0010
0100
0000
,
1000
0000
0010
0100
0000
0100
0010
0000
,
1000
0000
0001
0010
0000
0010
0001
0000
,
1000
0100
0010
0000
0010
0001
1000
0000
,
0001
0000
0100
0010
0000
0010
0100
0000
,
0001
0000
0010
0100
0000
0100
0010
0000
,
0001
0000
1000
0010
0000
0010
1000
0000
,
0001
0010
0100
0000
0100
1000
0001
0100
,
0000
0000
0100
0000
0011
0000
0000
1000
,
0001
0000
0100
0000
1001
0000
0000
0100
,
0001
0000
1000
0000
0110
0000
0000
0001
,
0100
0000
0001
0000
1100
0000
0000
0001
,
1000
0001
0100
0000
0011
0000
0000
1000
,
0100
0000
0010
0000
0101
0000
0000
0010
,
1000
0000
0001
0000
0110
0000
0000
0001
,
1000
0000
0100
0000
1000
1000
0000
0001
,
0001
0000
1001
0000
0010
0100
0001
1000
,
0100
0000
1010
0000
0001
0100
0001
0010
,
0100
0000
1100
0000
0010
0001
0010
0100
,
1000
0000
0011
0000
1000
0010
1000
0100
,
0010
0001
1001
0000
1000
0001
0100
0010
,
1000
0000
0101
0000
0001
0010
0100
1000
,
0100
0000
0011
0000
1000
1000
0001
0001
,
0010
2002
0000
0000
,
3003
0000
1000
0100
0001
0000
0100
0000
,
1000
0000
0001
0100
1000
0000
0100
0000
,
0001
0000
1000
0100
0001
0000
0100
0000
,
1000
0000
0001
0100
1000
0000
0001
0010
,
1000
0000
0001
0010
1000
0000
0010
0000
,
0001
0000
1000
0010
1000
0000
0001
0010
,
0001
0000
1000
0100
0001
0000
0100
0000
,
1000
0000
0010
0100
0010
0000
1000
0100
,
1000
0100
0010
0001
0100
0000
1000
0000
,
0100
0000
0010
1000
0100
0000
0001
0000
,
0100
0000
0010
0001
0100
0000
1000
0000
,
0100
0000
0010
1000
0100
0000
0010
0001
,
0100
0000
1000
0100
0010
0000
1000
0000
,
0100
0000
0010
0001
0010
0000
0100
1000
,
0100
0000
0010
0001
0100
0000
1000
0000
,
0100
0000
0010
1000
0100
0000
0010
0001
,
0010
0001
2000
0000
0010
0010
0000
0000
,
3000
0000
0002
0000
0010
0010
0000
0000
,
0003
2000
3100
0002
,
0103
0000
2000
0000
0100
0100
3000
0100
,
0010
0000
0002
0000
0100
0100
0000
0000
,
0003
0000
2000
0000
0100
0100
0000
0000
,
3000
0002
0013
2000
,
3010
0002
0023
0230
,
2300
0000
3002
0000
0100
0100
0000
0000
,
1003
0000
2000
0000
0010
0010
0000
0000
,
3001
0000
0002
0000
0100
0103
0020
0000
,
1030
0000
0002
0000
1000
1000
0000
0000
,
0103
0000
2000
0000
0100
0100
0000
0000
,
3010
0000
0002
0000
0100
0100
0000
0000
,
0013
0000
2000
0000
0100
0100
0000
0000
,
3010
0000
0220
0000
0000
0000
0000
0300
,
0030
0000
0001
0000
1000
0100
0000
0100
,
0010
0000
0001
0100
1000
0000
1000
0100
,
0001
0000
1000
0000
0000
0100
0000
0000
,
0010
0000
1001
0000
0100
0010
0000
0010
,
0100
0000
1000
0000
0010
0100
0000
0100
,
0001
0000
1000
0100
0001
0000
0001
0100
,
1000
0000
0010
0000
0000
0100
0000
0000
,
0001
0000
1001
0000
0100
0010
0000
0010
,
0100
0000
0000
0000
0001
0000
0000
0001
0010
0000
0000
0000
0100
0000
0000
0000
,
1001
0000
0000
0000
1000
0000
0000
1000
0010
0000
0000
0000
0010
0000
0000
0010
,
0100
0000
0000
0000
0100
0000
0000
0100
0001
0000
0000
0000
0001
0000
0000
0001
,
0010
0000
0000
0000
0010
0000
0000
0010
0100
0000
0000
0000
1000
0000
0100
0000
,
0010
0000
0001
0000
1000
0000
0000
1000
0010
0000
0000
0000
0100
0000
0000
0000
,
1001
0000
0000
0000
0001
0000
0000
0001
0010
0000
0000
0000
0100
0000
0000
0000
,
1000
0000
0001
0001
0000
1000
1000
0000
,
0010
0110
0000
0000
0000
0000
0000
1000
,
0100
0010
0001
0000
0000
0000
0000
0000
;

//---------------dance-single - ----------------
#NOTES:
     dance-single:
     :
     Easy:
     6:
     0.316,0.318,0.035,0.220,0.000:
0000
0000
0000
0000
,
0000
0000
0000
0000
,
0000
0000
0000
0000
,
0000
0000
0000
0000
,
0000
0000
0000
0000
,
0000
0000
0000
0000
,
0000
0000
0000
0000
,
0000
0000
0000
0000
,
0001
0001
0010
0010
,
0100
0100
1000
1000
,
0001
0001
0100
0100
,
1000
1000
0010
0010
,
0001
0100
0010
1000
,
0001
0100
0010
1000
,
0001
0010
1000
0100
,
0001
0010
1000
0100
,
0000
0001
1000
0000
,
1000
0100
0010
0000
,
0010
0100
1000
0000
,
1000
0001
1000
1000
,
0100
0010
0001
0000
,
0001
0100
0010
0000
,
0010
1000
0001
0000
,
0001
1000
0100
0010
,
0001
0100
0010
0000
,
0010
0100
0001
0000
,
0001
1000
0100
0000
,
0100
1000
0010
0100
,
0001
1000
0100
0000
,
0100
1000
0001
0000
,
0001
0100
0100
0010
,
1000
1001
0000
0000
,
0000
0100
0100
0020
,
0030
0100
0100
0002
,
0003
0100
0100
0020
,
0030
1000
1000
0001
,
0001
1000
1000
0000
,
0100
0010
0001
0010
,
0100
0100
1000
0000
,
0001
0100
0010
0100
,
0001
1000
1000
0200
,
0300
0010
0010
0002
,
0003
1000
1000
0020
,
0030
0100
0100
0001
,
1000
0100
0100
0000
,
0010
0001
1000
0001
,
0010
0100
0100
0000
,
1000
0010
0100
0001
,
1000
1002
0000
0000
,
0003
0020
0000
0000
,
0030
0200
0300
2000
,
3000
0000
0002
0000
0003
0000
0000
1000
,
0100
0020
0000
0000
,
0030
0002
0000
0000
,
0003
2000
3000
0020
,
0030
0100
0001
1000
,
0010
0200
0000
0000
,
0300
0002
0000
0000
,
0003
0020
0030
0200
,
0300
2000
0000
0000
,
3000
0002
0000
0000
,
0003
0020
0000
0000
,
0030
0200
0000
0000
,
0300
2002
0000
0000
,
3003
0000
0010
0000
0000
0010
0000
0010
,
1000
0001
0010
0100
,
1000
0000
0001
0000
0000
0100
0000
0000
,
0010
0000
1000
0000
0000
0100
0000
0100
,
0010
0000
0001
0000
0000
0001
0000
0001
,
1000
0100
0010
0001
,
0010
0000
0100
0000
0000
1000
0000
0000
,
0010
0000
0100
0000
0000
0001
0000
0001
,
1000
0100
0100
0010
,
0001
0100
0100
0010
,
0010
1000
1000
0001
,
0001
0000
0010
0000
0010
0000
0000
0100
,
0010
0000
0001
0000
0001
0000
0000
1000
,
0001
1000
1000
0010
,
0010
0000
0100
0001
0000
1000
0001
0000
,
0010
0001
0000
0000
0000
0000
0000
0100
,
0000
1001
0000
0000
;

//---------------dance-single - ----------------
#NOTES:
     dance-single:
     :
     Beginner:
     2:
     0.131,0.177,0.026,0.000,0.000:
0000
0000
0000
0000
,
0000
0000
0000
0000
,
0000
0000
0000
0000
,
0000
0000
0000
0000
,
0000
0000
0000
0000
,
0000
0000
0000
0000
,
0000
0000
0000
0000
,
0000
0000
0000
0000
,
1000
0000
0000
0000
,
0001
0000
0000
0000
,
1000
0000
0000
0000
,
0001
0000
0000
0000
,
0100
0000
0100
0000
,
0010
0000
0010
0000
,
0100
0000
0100
0000
,
0010
0000
0010
0010
,
0000
0000
1000
0000
,
1000
0000
0001
0000
,
0001
0000
1000
0000
,
1000
0000
0001
0000
,
0000
0000
0001
0000
,
0001
0000
1000
0000
,
1000
0000
0001
0000
,
0001
0000
1000
0000
,
0000
0001
0000
0000
,
0000
0010
0000
0010
,
0000
0010
0000
0000
,
0000
0100
0000
0100
,
0000
0100
0000
0000
,
0000
1000
0000
1000
,
0000
1000
0000
0000
,
0000
1001
0000
0000
,
0000
0010
0000
0000
,
0000
0010
0000
0000
,
0000
0010
0000
0000
,
0000
0010
0000
0010
,
0000
0100
0000
0000
,
0000
0100
0000
0000
,
0000
0100
0000
0100
,
0000
0100
0000
0100
,
0000
0001
0000
0000
,
0000
0001
0000
0000
,
0000
0001
0000
0000
,
0000
0001
0000
0001
,
0000
1000
0000
0000
,
0000
1000
0000
0000
,
0000
1000
0000
1000
,
0000
1000
0000
0001
,
0000
1000
0000
0000
,
0000
0100
0000
0000
,
0000
0010
0000
0010
,
0000
0010
0000
0000
,
0000
0001
0000
0000
,
0000
0100
0000
0000
,
0000
0010
0000
0010
,
0000
0010
0000
0000
,
0000
1000
0000
0000
,
0000
0100
0000
0000
,
0000
0010
0000
0010
,
0000
0010
0000
0000
,
0000
0001
0000
0000
,
0000
0100
0000
0000
,
0000
0010
0000
0000
,
0000
1001
0000
0000
,
0000
1000
0000
0000
,
0000
1000
0000
1000
,
0000
1000
0000
0000
,
0000
1000
0000
0000
,
0000
0001
0000
0000
,
0000
0001
0000
0001
,
0000
0001
0000
0000
,
0000
0001
0000
0000
,
0000
0100
0000
0000
,
0000
0100
0000
0100
,
0000
0100
0000
0000
,
0000
0100
0000
0000
,
0000
0010
0000
0000
,
0000
0010
0000
0010
,
0000
0010
0000
0100
,
0000
0100
0000
0000
0000
0000
0000
0000
,
0000
1001
0000
0000
;

//---------------dance-double - ----------------
#NOTES:
     dance-double:
     :
     Hard:
     14:
     0.685,0.742,0.053,0.273,0.304: // measure 1
00000000
00000000
00000000
00000000
,  // measure 2
00000000
00000000
00000000
00000000
,  // measure 3
00000000
00000000
00000000
00000000
,  // measure 4
00000000
00000000
00000000
00000000
,  // measure 5
00000000
00000000
00000000
00000000
,  // measure 6
00000000
00000000
00000000
00000000
,  // measure 7
00000000
00000000
00000000
00000000
,  // measure 8
00000000
00000000
00000000
00000000
,  // measure 9
00010000
00010000
01000000
01000000
,  // measure 10
10000000
10000000
00100000
00100000
,  // measure 11
00010000
00010000
00001000
00001000
,  // measure 12
00000100
00000000
00000100
00000000
00000001
00000010
00000001
00000010
,  // measure 13
00000100
00010000
00000100
00010000
00001000
01000000
00001000
01000000
,  // measure 14
00010000
00100000
00010000
00100000
01000000
10000000
01000000
10000000
,  // measure 15
00100000
01000000
00100000
01000000
00001000
00010000
00001000
00010000
,  // measure 16
00000100
00000000
00000000
00000000
00000010
00000000
00000000
00000000
00000001
00000000
00000000
00000000
00000100
00000000
00000000
00000000
00001000
00000000
00000000
00000000
00010000
00000000
00000000
00000000
00100000
00000000
00000000
00000000
10000000
00000000
00020000
00030000
,  // measure 17
00000000
00000000
00000000
00000000
10000000
00000000
01000000
00000000
00100000
00000000
01000000
10000000
00000000
00000000
00010000
00000000
,  // measure 18
01000000
00000000
00001000
00010000
00001000
00000000
00010000
00000000
00000100
00001000
00000000
00000010
00000000
00000000
00000100
00000000
,  // measure 19
00000001
00000000
00001000
00000000
00000001
00000000
00000010
00000000
00000100
00000000
00010000
00001000
00000000
00000000
01000000
00000000
,  // measure 20
00010000
00000000
00100000
01000000
00100000
00000000
01000000
00000000
10000000
00010000
00000000
01000000
00000000
00000000
00001000
00000000
,  // measure 21
00010000
00000000
00001000
00000000
00000100
00000000
00000010
00000000
00001000
00000000
00000001
00000010
00000000
00000000
00001000
00000000
,  // measure 22
00010000
00000000
00001000
01000000
00001000
00000000
01000000
00000000
00100000
10000000
00000000
00010000
00000000
00000000
00100000
00000000
,  // measure 23
01000000
00000000
10000000
00000000
01000000
00000000
00010000
00000000
00001000
00000000
00010000
00000010
00000000
00000000
00000100
00000000
,  // measure 24
00001000
00000000
00010000
00001000
00010000
00000000
00001000
00000000
00100000
01000000
00000000
00010000
00000000
00000000
00001000
00000000
,  // measure 25
00000100
00000000
00000010
00000000
00002000
00000000
00000001
00000000
00003001
00000000
00000010
00000100
00000000
00000000
00010000
00000000
,  // measure 26
00001000
00000000
01000000
00100000
01000000
00000000
00010000
00000000
00010000
10000000
00000000
01000000
00000000
00000000
00100000
00000000
,  // measure 27
00001000
00000000
00010000
00000000
00000200
00000000
00000010
00000000
00000310
00000000
00000001
00000100
00000000
00000000
00000010
00000000
,  // measure 28
00010000
00000000
00001000
00100000
00002000
00000000
01000000
00000000
01003000
00100000
00000000
10000000
00000000
00000000
01000000
00000000
,  // measure 29
00010000
00000000
00001000
00000000
00000200
00000000
00000010
00000000
00000310
00000000
00010000
00001000
00000000
00000000
00010000
00000000
,  // measure 30
01000000
00000000
10000000
00010000
10000000
00000000
00100000
00000000
00100000
01000000
00000000
00001000
00000000
00000000
00010000
00000000
,  // measure 31
00000100
00000000
00001000
00000000
00000010
00000000
00000100
00000000
00000001
00000000
00000010
00000100
00000000
00000000
00010000
00000000
,  // measure 32
00001000
00000000
01000000
00000000
01100000
00000000
00000000
00000000
00000000
00000000
00000000
00000000
00100000
10000000
00010000
10000000
,  // measure 33
00010000
10000000
00010000
10000000
01000000
00100000
01000000
00000000
10000000
00000000
00000000
00000000
01000000
00000000
00010000
00000000
,  // measure 34
00001000
00000000
00000100
00000000
00000010
00000100
00000010
00000000
00001000
00000000
00000000
00000000
00000001
00000000
00000100
00000000
,  // measure 35
00001000
00000000
00010000
00000000
01000000
00100000
01000000
00000000
10000000
00000000
00000000
00000000
00100000
00000000
00010000
00000000
,  // measure 36
00001000
00000000
00000010
00000000
00000100
00000010
00000100
00000000
00001000
00000000
00000000
00000000
00000001
00000000
00000100
00000000
,  // measure 37
00001000
00000000
00010000
00000000
00100000
01000000
00100000
00000000
10000000
00000000
00000000
00000000
01000000
00000000
00010000
00000000
,  // measure 38
00001000
00000010
00001000
00010000
00001000
00000100
00001000
00010000
,  // measure 39
00001000
00000000
00100000
00000000
01000000
00100000
01000000
00000000
10000000
00000000
00000000
00000000
00100000
00000000
00010000
00000000
,  // measure 40
00001000
00000100
00000001
00001000
00000010
00001000
00010000
00001000
,  // measure 41
00000010
00000000
00000010
00000000
00000100
00000010
00000100
00000000
00000001
00000000
00000000
00000000
00000100
00000000
00001000
00000000
,  // measure 42
00010000
00000000
01000000
00000000
00100000
01000000
00100000
00000000
00010000
00000000
00000000
00000000
10000000
00000000
01000000
00000000
,  // measure 43
00010000
00000000
00001000
00000000
00000100
00000010
00000100
00000000
00000001
00000000
00000000
00000000
00000100
00000000
00001000
00000000
,  // measure 44
00010000
00000000
00100000
00000000
01000000
00100000
01000000
00000000
00010000
00000000
00000000
00000000
10000000
00000000
01000000
00000000
,  // measure 45
00010000
00000000
00001000
00000000
00000010
00000100
00000010
00000000
00000001
00000000
00000000
00000000
00000100
00000000
00001000
00000000
,  // measure 46
00010000
00100000
00010000
00001000
00010000
01000000
00010000
00001000
,  // measure 47
00010000
00000000
00000010
00000000
00000100
00000010
00000100
00000000
00000001
00000000
00000000
00000000
00000010
00000000
00001000
00000000
,  // measure 48
00010000
01000000
10000000
00010000
00100000
00010000
00001000
00010000
,  // measure 49
00100000
01000000
00100000
01000000
20000000
00000000
00000000
00000000
00010000
00000000
00010000
00000000
00000000
00000000
00000000
00000000
,  // measure 50
00000000
00000000
30200000
00000000
00010000
00010000
00000000
00000000
,  // measure 51
00000000
00000000
02300000
00000000
00001000
03001000
00020000
00000000
,  // measure 52
00000100
00000000
00030020
00000000
00001000
00001000
00000000
00000230
,  // measure 53
00000302
00000023
00000230
00000000
00010000
00010000
00000000
00000000
,  // measure 54
00000000
00000000
02000300
00000000
00001000
00001000
00000000
00000000
,  // measure 55
00000000
00000000
03200000
00000000
10000000
10300000
00020000
00000000
,  // measure 56
00100000
00032000
00003200
00000320
,  // measure 57
00000032
00000000
00000000
00000000
00001003
00000000
00000000
00001000
00000100
00000000
00010000
00000000
00000000
00000000
00001000
00000000
,  // measure 58
01000000
00000000
00010000
00010000
10000000
01000000
00000000
00100000
,  // measure 59
00001000
00000000
00000000
00000000
00010000
00000000
00000000
00010000
00000100
00000000
00000010
00000000
00000000
00000000
00000001
00000000
,  // measure 60
00000100
00000000
00000010
00000010
00010000
00001000
00000000
01000000
,  // measure 61
00010000
00000000
00100000
00000000
01000000
00000000
00000000
01000000
10000000
00000000
00010000
00000000
00000000
00000000
01000000
00000000
,  // measure 62
00001000
00000000
00010000
00010000
00000010
00000100
00000000
00000001
,  // measure 63
00000010
00000000
00000000
00000000
00000100
00000000
00000000
00000100
00010000
00000000
00001000
00000000
01000000
00000000
00100000
00000000
,  // measure 64
10000000
01000000
02200000
00000000
00000000
00000000
00000000
03000000
,  // measure 65
00300000
00000000
00100000
00000000
00001000
00010000
00000000
00010000
,  // measure 66
00000100
00000000
00001000
00000000
00000001
00000000
00000100
00000000
00001000
00000000
00000100
00000000
00000001
00000010
00000001
00000000
,  // measure 67
00001000
00000010
00001000
00000000
00000002
00000000
00000100
00000000
00001003
00000000
00000002
00000000
00000010
00000000
00001003
00000000
,  // measure 68
00000002
00000103
00002000
00000000
00013000
00001000
00000000
00010000
,  // measure 69
00011000
00000000
00000010
00000000
00010000
00001000
00000000
00001000
,  // measure 70
01000000
00000000
00010000
00000000
10000000
00000000
01000000
00000000
00010000
00000000
01000000
00000000
10000000
00100000
10000000
00000000
,  // measure 71
00010000
00100000
00010000
00000000
20000000
00000000
01000000
00000000
30010000
00000000
20000000
00000000
00100000
00000000
30010000
00000000
,  // measure 72
20000000
31000000
00020000
00000000
00031000
00010000
00000000
00001000
,  // measure 73
00001000
00000000
00001000
00000000
01000000
00000000
00000000
01000000
00100000
00000000
00000000
00000000
10000000
00000000
01000000
00000000
,  // measure 74
00010000
00000000
01000000
00000000
10000000
00000000
00000000
10000000
00010000
00000000
00000000
00000000
00010000
00000000
00000000
00010000
,  // measure 75
00001000
00000000
00000000
00000000
00001000
00000000
00000000
00001000
00000001
00000000
00000000
00000000
00000001
00000000
00000000
00000001
,  // measure 76
00001000
00000000
00000000
00000000
00001000
00000000
00000000
00001000
00010000
00000000
00000000
00000000
01000000
00000000
00010000
00000000
,  // measure 77
00001000
00000000
00010000
00000000
01000000
00000000
00000000
01000000
00100000
00000000
00000000
00000000
10000000
00000000
01000000
00000000
,  // measure 78
00010000
00000000
01000000
00000000
00100000
00000000
00000000
00100000
00010000
00000000
00000000
00000000
00001000
00000000
00000000
00001000
,  // measure 79
00000100
00000000
00000010
00000011
00000000
00000100
00001100
00000000
,  // measure 80
00010000
00000000
00011000
00000000
00000000
00000000
00000000
00000000
00000000
00000000
00000000
00000000
00000100
00010000
00001000
00010000
,  // measure 81
00001000
00010000
00001000
00010000
00000010
00000000
00000000
00000000
00000000
00000000
00000000
00000000
00000000
00000000
00000000
00000000
;

//---------------dance-double - ----------------
#NOTES:
     dance-double:
     :
     Medium:
     10:
     0.504,0.530,0.238,0.255,0.000: // measure 1
00000000
00000000
00000000
00000000
,  // measure 2
00000000
00000000
00000000
00000000
,  // measure 3
00000000
00000000
00000000
00000000
,  // measure 4
00000000
00000000
00000000
00000000
,  // measure 5
00000000
00000000
00000000
00000000
,  // measure 6
00000000
00000000
00000000
00000000
,  // measure 7
00000000
00000000
00000000
00000000
,  // measure 8
00000000
00000000
00000000
00000000
,  // measure 9
00010000
00001000
00010000
00001000
,  // measure 10
00010000
00000100
00010000
00000100
,  // measure 11
00001000
00000100
00001000
00000100
,  // measure 12
00001000
00000010
00001000
00000010
,  // measure 13
00000100
00000000
00000001
00000000
00000100
00000010
00001000
00000000
,  // measure 14
00000100
00000000
00010000
00000000
00000100
00001000
00000010
00000000
,  // measure 15
00000100
00000000
00001000
00000000
00010000
00001000
00100000
00000000
,  // measure 16
00010000
00000000
01000000
00000000
00100000
10000000
00010000
00100000
,  // measure 17
00000000
00000000
01000000
00000000
00011000
00000000
00000000
00000010
,  // measure 18
00000001
00000000
00000100
00000000
00001010
00000000
00000000
00010000
,  // measure 19
00001000
00000000
01000000
00000000
10100000
00000000
00000000
01000000
,  // measure 20
00010000
00000000
00001000
00000000
00010010
00000000
00000000
00000100
,  // measure 21
00001000
00000010
00000100
00000000
00000011
00000000
00000000
00000100
,  // measure 22
00010000
00000000
00001000
00000000
01100000
00000000
00000000
10000000
,  // measure 23
00010000
00000000
01000000
00000000
00011000
00000000
00000000
00000010
,  // measure 24
00000001
00000000
00001000
00000000
00010100
00000000
00000000
00001000
,  // measure 25
00010000
00000000
01100000
00000000
01000000
00100000
10000000
00010000
,  // measure 26
00100000
00000000
11000000
00000000
00100000
00001000
00010000
00000100
,  // measure 27
00001000
00000000
00000110
00000000
00000001
00001000
00000010
00010000
,  // measure 28
00001000
00000000
00011000
00000000
00100000
10000000
00010000
00100000
,  // measure 29
00001000
00000000
00011000
00000000
00010000
00000010
00001000
00000001
,  // measure 30
00000100
00000000
00001010
00000000
00010000
00001000
00100000
00010000
,  // measure 31
01000000
00000000
11000000
00000000
00100000
10000000
00010000
00100000
,  // measure 32
00001000
00022000
00000000
00000000
,  // measure 33
00033000
00000000
00010000
01000000
10000000
00000000
01000000
00000000
,  // measure 34
00010000
00000000
00001000
00000100
00000001
00000000
00000100
00000000
,  // measure 35
00001000
00000000
00010000
00100000
10000000
00000000
00100000
00000000
,  // measure 36
00010000
00000000
00001000
00000010
00000001
00000000
00000001
00000010
,  // measure 37
00001000
00000000
00010000
01000000
10000000
00000000
00100000
00000000
,  // measure 38
00010000
00000000
00001000
00010000
00001000
00000100
00001000
00010000
,  // measure 39
00001000
01000000
00100000
10000000
01000000
00000000
00010000
00000000
,  // measure 40
00001000
00000000
00000100
00000001
00000010
00000000
00000100
00010000
,  // measure 41
00001000
00010000
00001000
01000000
00100000
00000000
01000000
00000000
,  // measure 42
00001000
00000000
00010000
00000100
00000010
00000000
00000100
00000000
,  // measure 43
00010000
00000000
00001000
00100000
01000000
00000000
00100000
00000000
,  // measure 44
00001000
00000000
00010000
00000010
00000100
00000000
00000100
00000010
,  // measure 45
00010000
00000000
00100000
10000000
01000000
00000000
00010000
00000000
,  // measure 46
00001000
00000000
00000100
00000001
00000010
00000000
00000001
00000000
,  // measure 47
00000100
00000000
00001000
00010000
00001000
00000000
01000000
00100000
,  // measure 48
01000000
00000000
00100000
10000000
01000000
00100000
00001000
00000000
,  // measure 49
00011000
00000000
00020000
00000000
00030100
00002000
00000000
00000000
,  // measure 50
00000000
00000000
00003002
00000000
00000103
00000020
00000000
00000000
,  // measure 51
00000000
00020030
00031000
02000000
,  // measure 52
03100000
00000000
20000000
00000000
30010000
01000000
00000000
01000000
,  // measure 53
00100000
10000000
00020000
00000000
00130000
00002000
00000000
00000000
,  // measure 54
00000000
00000000
00023000
00000000
00030100
00002000
00000000
00000000
,  // measure 55
00000000
00003020
00000130
00000002
,  // measure 56
00001003
00000200
00020300
00032000
,  // measure 57
00203000
00000000
02300000
00000000
13000000
00010000
00000000
00010000
,  // measure 58
01000000
00000000
00002000
00000000
00013000
00000010
00000000
00000010
,  // measure 59
00000100
00000002
00000013
00000200
,  // measure 60
00010300
00000000
00002000
00000000
01003000
00100000
00000000
00100000
,  // measure 61
10000000
00000000
02000000
00000000
03100000
00001000
00000000
00001000
,  // measure 62
00010000
00000000
00000200
00000000
00001300
00000010
00000000
00000010
,  // measure 63
00000100
00000000
00000002
00000000
00000013
00000100
00000000
00000100
,  // measure 64
00010000
00022000
00000000
00000000
,  // measure 65
00033000
00000000
01000000
00000000
00100000
10000000
00000000
10000000
,  // measure 66
01000000
00000000
00100000
00001000
00010000
00000000
00000100
00001000
,  // measure 67
00000010
00000000
00000100
00000000
00000000
00000001
00000000
00000000
,  // measure 68
00001000
00000000
00010000
00000000
01000000
00100000
00000000
00100000
,  // measure 69
10000000
00000000
00010000
00000000
00100000
00001000
00000000
00001000
,  // measure 70
00010000
00000000
00000100
00001000
00000010
00000000
00000100
00000001
,  // measure 71
00000010
00000000
00001000
00000000
00000000
00010000
00000000
00000000
,  // measure 72
01000000
00000000
00100000
00000000
00001000
00010000
00000000
00010000
,  // measure 73
01000000
10000000
00100000
00000000
01100000
00000000
01000000
00001000
,  // measure 74
00010000
00000100
00001100
00001000
,  // measure 75
00001001
00000001
00000101
00000100
,  // measure 76
00000110
00000000
00000010
00000000
00010010
00000000
00010000
00001000
,  // measure 77
00010000
01000000
00100000
00000000
00110000
00000000
00010000
10000000
,  // measure 78
01000000
00100000
00101000
00001000
,  // measure 79
00011000
00000000
00010000
00000100
00000000
00000100
00000010
00000000
,  // measure 80
00000010
00000001
00000000
00000000
00000000
00000000
00000100
00001000
,  // measure 81
00010000
01000000
10000000
00000000
00000000
00000000
00000000
00000000
;

//---------------dance-double - ----------------
#NOTES:
     dance-double:
     :
     Easy:
     7:
     0.355,0.424,0.079,0.106,0.000: // measure 1
00000000
00000000
00000000
00000000
,  // measure 2
00000000
00000000
00000000
00000000
,  // measure 3
00000000
00000000
00000000
00000000
,  // measure 4
00000000
00000000
00000000
00000000
,  // measure 5
00000000
00000000
00000000
00000000
,  // measure 6
00000000
00000000
00000000
00000000
,  // measure 7
00000000
00000000
00000000
00000000
,  // measure 8
00000000
00000000
00000000
00000000
,  // measure 9
10000000
10000000
10000000
10000000
,  // measure 10
00100000
00100000
00100000
00100000
,  // measure 11
01000000
01000000
01000000
01000000
,  // measure 12
00001000
00001000
00001000
00001000
,  // measure 13
00010000
00000010
00010000
00000010
,  // measure 14
00001000
00000010
00001000
00000010
,  // measure 15
00000100
00000001
00000100
00000001
,  // measure 16
00000010
00000001
00000010
00000001
,  // measure 17
00000000
00000000
00000100
00000000
00001100
00000000
00000000
00001000
,  // measure 18
00000001
00000000
00001000
00000000
00001001
00000000
00000000
00000100
,  // measure 19
00000010
00000000
00001000
00000000
00001010
00000000
00000000
00000010
,  // measure 20
00010000
00000000
00001000
00000000
00011000
00000000
00000000
00001000
,  // measure 21
00010000
00000000
01000000
00000000
10010000
00000000
00000000
01000000
,  // measure 22
00100000
00000000
10000000
00000000
00110000
00000000
00000000
01000000
,  // measure 23
10000000
00000000
00100000
00000000
01010000
00000000
00000000
00100000
,  // measure 24
00001000
00000000
00010000
00000000
00001100
00000000
00000000
00000001
,  // measure 25
00000010
00000000
00000100
00000000
00000001
00001000
00000000
00001000
,  // measure 26
00000001
00000000
00000010
00000000
00001000
00010000
00000000
00010000
,  // measure 27
00001000
00000000
00010000
00000000
01000000
00100000
00000000
00100000
,  // measure 28
01000000
00000000
10000000
00000000
00100000
00010000
00000000
00010000
,  // measure 29
00100000
01000000
00100000
00000000
01000000
00001000
00000000
00001000
,  // measure 30
00010000
00000000
00001000
00000000
00010000
00000100
00000000
00000100
,  // measure 31
00000010
00000000
00000001
00000000
00000100
00000010
00000000
00000010
,  // measure 32
00010000
00022000
00000000
00000000
,  // measure 33
00033000
00001000
01000000
00100000
,  // measure 34
10000000
00100000
01000000
00001000
,  // measure 35
00010000
00000100
00000010
00000001
,  // measure 36
00000010
00000100
00010000
00001000
,  // measure 37
00001000
00010000
00000100
00000010
,  // measure 38
00000001
00000010
00000100
00010000
,  // measure 39
00001000
01000000
00100000
10000000
,  // measure 40
00100000
01000000
00001000
00010000
,  // measure 41
01000000
10000000
00100000
01000000
,  // measure 42
00001000
00010000
00000100
00001000
,  // measure 43
00000010
00000100
00000001
00000010
,  // measure 44
00000001
00000100
00001000
00010000
,  // measure 45
01000000
00100000
00010000
00100000
,  // measure 46
00001000
00010000
00001000
00000100
,  // measure 47
00000010
00001000
00000100
00000010
,  // measure 48
00000001
00000100
00001000
00010000
,  // measure 49
00100000
20000000
00000000
30000000
,  // measure 50
00000000
02000000
00000000
03000000
,  // measure 51
00000000
00200000
00300000
00002000
,  // measure 52
00003000
00000000
00020000
00000000
00030000
00000000
00000000
00000100
,  // measure 53
00000000
00000100
00002000
00000000
00000000
00000000
00003000
00000000
,  // measure 54
00000000
00000002
00000000
00000003
,  // measure 55
00000000
00000200
00000300
00002000
,  // measure 56
00003000
00010000
00100000
01000000
,  // measure 57
00100000
10000000
01000000
00000000
,  // measure 58
01000000
00100000
00001000
00000000
,  // measure 59
00001000
00010000
00000100
00001000
,  // measure 60
00000010
00000100
00000001
00000000
,  // measure 61
00000001
00000010
00000100
00000000
,  // measure 62
00000100
00010000
00001000
00000000
,  // measure 63
00001000
01000000
00100000
10000000
,  // measure 64
01000000
00200000
00000000
00000000
,  // measure 65
00300000
00001000
00001000
00000000
,  // measure 66
00010000
00000100
00001000
00000100
,  // measure 67
00000010
00000000
00000001
00000000
00000000
00001000
00000000
00000000
,  // measure 68
00000100
00010000
00001000
00000000
,  // measure 69
00001000
01000000
00100000
00000000
,  // measure 70
00100000
10000000
01000000
00100000
,  // measure 71
00010000
00000000
00001000
00000000
00000000
00000100
00000000
00000000
,  // measure 72
00000010
00000001
00001000
00000000
,  // measure 73
00001000
00000010
00000100
00000000
,  // measure 74
00000100
00001000
00010000
00100000
,  // measure 75
00010000
00001000
00010000
01000000
,  // measure 76
10000000
00010000
01000000
00000000
,  // measure 77
01000000
00001000
00010000
00000000
,  // measure 78
00010000
00000100
00000010
00000001
,  // measure 79
00000100
00000000
00001000
00001000
00000000
00010000
00010000
00000000
,  // measure 80
00001000
00001000
00000000
00000000
00000000
00000000
01000000
00100000
,  // measure 81
01000000
00100000
00000000
00000000
;
