#TITLE:Harmony and Lovely;
#SUBTITLE:;
#ARTIST:Ryu☆;
#TITLETRANSLIT:;
#SUBTITLETRANSLIT:;
#ARTISTTRANSLIT:Ryu*;
#GENRE:;
#CREDIT:;
#MENUCOLOR:;
#METERTYPE:DDR;
#BANNER:Harmony and Lovely.png;
#BACKGROUND:Harmony and Lovely-bg.png;
#LYRICSPATH:;
#CDTITLE:cdtitle.png;
#MUSIC:Harmony and Lovely.mp3;
#OFFSET:-0.028;
#SAMPLESTART:96.009;
#SAMPLELENGTH:15.000;
#SELECTABLE:YES;
#LISTSORT:;
#BPMS:0.000=135.000;
#STOPS:;
#BGCHANGES:0.000=Harmony and Lovely.avi=1.000=1=1=0,
99999=-nosongbg-=1.000=0=0=0 // don't automatically add -songbackground-
;
#ATTACKS:;

//---------------dance-single - ----------------
#NOTES:
     dance-single:
     :
     Hard:
     11:
     0.476,0.506,0.112,0.146,0.103:
0000
0000
0000
0000
,
0000
0000
0000
0000
,
0000
0000
0000
0000
,
0000
0000
0000
0000
,
0000
0000
0000
0000
,
0001
0000
0000
0101
0000
0000
0000
0000
0000
0000
0000
0000
0000
0000
0010
0000
,
1000
0000
0000
1100
0000
0000
0000
0000
0000
0000
0000
0000
0000
0000
0000
0000
,
0010
0001
0100
1000
0010
1000
0100
0001
,
0010
0100
1000
0010
0001
0100
0001
0010
,
1000
0000
0000
0100
0000
0000
0010
0000
0100
0000
1000
0000
0010
0000
0100
0000
,
0001
0000
0000
0010
0000
0000
0001
0000
0000
0000
0100
0000
0010
0000
1000
0000
,
0001
0000
0000
0010
0000
0000
0001
0000
0100
0000
0010
0000
1000
0000
0100
0000
,
0010
0000
0000
0100
0000
0000
1000
0000
0000
0000
0010
0000
0100
0000
0001
0000
,
1000
0100
0010
0100
1000
0100
0001
0100
,
1000
0010
0100
0010
1000
0010
0001
0010
,
1000
0001
0010
0100
1000
0010
0100
0010
,
2000
0000
0001
0000
0000
0000
0001
0000
0000
0000
3001
0000
0010
0100
0000
0010
,
0100
1000
0010
0100
0010
1000
1100
0000
,
0010
0001
0100
1000
0100
0010
1010
0000
,
1000
0001
0010
1000
0010
0001
0101
0000
,
1000
0010
0100
0001
0010
0100
1100
0000
,
0001
0100
0010
1000
0100
0010
0011
0001
,
1000
0100
0010
0001
0100
0010
0110
0100
,
0001
1000
0100
0001
0100
1000
1010
0010
,
0100
0001
0010
1000
0001
0100
1000
0000
,
0001
1000
0000
0000
0001
0000
0100
0000
0000
0001
0000
0000
0010
0000
0000
0000
,
0100
0000
1000
0000
0000
0010
0000
0100
0000
0010
0000
0000
1000
0000
0000
0000
,
0001
0010
1000
0100
1000
0010
0001
0100
,
0010
0000
1000
0000
0100
0000
0001
0000
0010
0000
0001
0000
0100
0010
0100
0010
,
0000
0000
0000
0000
,
0002
0000
0023
0000
,
0230
0000
2300
0000
,
3002
0000
0203
0320
,
0230
0000
0000
0320
,
2030
0000
3002
0000
,
0023
0000
0230
0000
,
2300
0000
0000
0000
,
3020
0000
0230
0000
,
0301
0010
0110
0000
0001
0010
0100
0000
,
1000
0010
0110
0000
1000
0010
0100
0000
,
0001
1000
1100
0000
0001
1000
0100
0000
,
1000
0000
0001
0000
0101
0000
0000
0000
1000
0000
0001
0000
0100
0000
0000
0100
,
0001
0010
0100
1000
0100
0010
0001
0000
,
1000
0010
0100
0001
0100
0010
1000
0000
,
0001
0010
1000
0010
0100
0001
0100
1000
,
0010
0100
1000
0100
0010
0001
0010
1000
,
0001
0000
1000
0000
0100
0000
0000
0010
0100
0000
1000
0000
0010
0000
0100
0000
,
0001
0000
0010
0000
0100
0000
0000
1000
0100
0000
0010
0000
0001
0000
0100
0000
,
0010
0000
1000
0000
0001
0000
0000
0100
0001
0000
0010
0000
0100
0000
1000
0000
,
0010
0000
0100
0000
0001
0000
0000
1000
0001
0000
0010
0000
0100
0000
1000
0000
,
0010
0000
0100
0000
0001
0000
0000
1000
0010
0000
0100
0000
0001
0000
0010
0000
,
0100
0000
0001
0000
0100
0000
0000
1000
0001
0000
0100
0000
0010
0000
1000
0000
,
0100
0010
0000
0010
,
0000
0000
0000
0000
0010
0000
0000
0000
0000
0000
0000
0000
1000
0001
0000
1000
,
0001
0100
1000
0100
0010
1000
0001
0001
,
1000
0100
0001
0100
1000
0010
0100
0001
,
1000
0100
0001
0100
0010
0001
1000
1000
,
0001
0100
1000
0100
0001
0010
0100
1000
,
0001
0100
1000
0100
0001
0010
0100
0100
,
1000
0010
0001
0010
1000
0100
0010
0001
,
1000
0100
0001
0100
0010
0001
0100
0100
,
0001
0010
1000
0010
0001
0100
0010
1000
,
0100
0000
0000
0000
;

//---------------dance-single - ----------------
#NOTES:
     dance-single:
     :
     Medium:
     8:
     0.362,0.399,0.094,0.206,0.009:
0000
0000
0000
0000
,
0000
0000
0000
0000
,
0000
0000
0000
0000
,
0000
0000
0000
0000
,
0000
0000
0000
0000
,
1000
0000
0000
1000
0000
0000
0000
0000
0000
0000
0000
0000
0000
0000
1000
0000
,
0001
0000
0000
0001
0000
0000
0000
0000
0000
0000
0000
0000
0000
0000
0000
0000
,
1000
0100
0010
0000
0001
0010
0100
0000
,
1000
0010
0100
0000
0001
0100
0010
0000
,
1000
0000
1000
0000
0001
0100
0010
0000
,
1000
0000
1000
0000
0100
0010
0100
1000
,
0001
0000
0001
0000
0100
0010
1000
0000
,
0001
0000
0001
0000
0100
0010
0100
0001
,
1000
1100
0001
0101
,
1000
0000
1010
0000
0001
0010
0100
0000
,
1000
1010
0001
0011
,
1000
0100
0010
0000
0000
0000
1001
0000
,
0001
0000
0100
0000
0010
0100
0001
0000
,
1000
0000
0100
0000
0010
0100
1000
0000
,
0010
0000
0100
0000
0001
0100
0010
0000
,
1000
0000
0100
0000
0010
0001
1000
0000
,
0001
0000
0100
0000
0010
0100
0010
0000
,
1000
0000
0001
0000
0100
0010
0100
0000
,
0001
0010
1000
0100
,
0001
0000
1000
0000
0100
0010
0001
1000
,
0000
0100
0000
0100
,
0000
0001
0000
0001
,
2000
3200
0320
0032
,
1003
0000
0010
0000
0100
0001
1000
0001
,
0000
0000
0000
0000
,
0020
0000
0230
0000
,
2300
0000
3002
0000
,
2003
0000
3200
0320
,
0230
0000
0000
2300
,
3020
0000
0230
0000
,
0302
0000
2003
0000
,
3200
0000
0000
0000
,
0320
0000
0230
0000
,
1300
0001
0100
0000
1000
0000
0101
0000
,
0001
1000
0100
0000
0001
0000
1100
0000
,
0001
1000
0010
0000
0001
0000
1010
0000
,
1000
0001
0010
0000
1000
0000
0011
0000
,
0001
1000
0100
0000
0001
0100
0100
0000
,
1000
0001
0100
0000
1000
0100
0100
0000
,
0010
0100
0001
0000
0010
1000
1000
0000
,
0100
0010
0001
0000
1000
0010
0010
0000
,
0100
0000
0001
0000
1000
0100
0010
0100
,
1000
0000
0010
0000
0100
0001
1000
0001
,
0100
0000
0010
0000
1000
0100
0010
0000
,
0002
0000
0100
0103
,
1000
0000
0010
0000
0100
0001
1000
0100
,
0010
0000
0100
0000
1000
0001
0100
0000
,
0020
1000
0000
1000
,
0230
1000
0302
0010
,
1003
0100
0010
0000
0010
0100
1000
0000
,
0001
0100
0010
0000
0010
0100
0001
0000
,
1000
0100
0010
0000
0010
0100
1000
0001
,
0100
0010
1000
0000
1000
0010
0100
0000
,
0001
1000
0100
0000
0100
1000
0001
0100
,
0010
1000
0001
0000
0001
0010
0100
0000
,
0100
1000
0001
0000
0001
0100
0010
0100
,
0001
1000
0100
0000
0010
0100
1000
0000
,
1001
0000
0000
0000
;

//---------------dance-single - ----------------
#NOTES:
     dance-single:
     :
     Easy:
     5:
     0.229,0.240,0.000,0.017,0.000:
0000
0000
0000
0000
,
0000
0000
0000
0000
,
0000
0000
0000
0000
,
0000
0000
0000
0000
,
0000
0000
0000
0000
,
1000
0000
0000
0000
0000
0000
0000
0001
,
0001
0000
0000
0000
,
1000
0100
0001
0010
,
1000
0010
0001
0100
,
1000
1000
1000
0001
,
0100
0100
0010
0100
,
0001
0001
1000
0100
,
0010
0010
0001
0000
,
1000
0100
1000
0100
,
0010
0001
0010
0001
,
1000
0010
1000
0010
,
0100
0001
0000
0001
,
1000
0100
0010
0001
,
0010
0100
1000
0001
,
1000
0100
0010
0001
,
1000
0001
0010
0100
,
1000
0001
0100
0010
,
1000
0001
1000
0010
,
0100
0001
0100
0010
,
1000
0001
1000
0010
,
0200
0000
0000
0300
,
0002
0000
0000
0003
,
1000
0100
1000
0100
,
0001
0010
0001
0010
,
0000
0000
0000
0000
,
0100
0000
1000
0000
,
0001
0000
0100
0000
,
0010
0000
0100
0001
,
0100
0000
0000
0001
,
0100
0000
0010
0000
,
0100
0000
0001
0000
,
1000
0000
0000
0000
,
0100
0000
0010
0000
,
0001
0100
0001
0100
,
0001
1000
0001
1000
,
0001
0010
0001
0010
,
0100
0000
0000
1000
,
1000
0100
1000
0100
,
1000
0001
1000
0001
,
1000
0010
1000
0010
,
0100
0000
0001
0000
,
1000
0100
0010
0100
,
1000
0010
0100
0010
,
1000
0100
0010
0100
,
1000
0000
0000
1000
,
0001
0100
0010
0100
,
0001
0010
0100
0010
,
0001
0000
0000
0000
,
1000
0000
0100
0000
,
0010
0010
0001
0100
,
0010
0010
1000
0100
,
0010
0010
0100
1000
,
0010
0010
0100
0001
,
0100
0100
0001
0010
,
0100
0100
1000
0010
,
0100
0100
0001
1000
,
0100
0100
1000
0001
,
0010
0000
0000
0000
;

//---------------dance-single - ----------------
#NOTES:
     dance-single:
     :
     Beginner:
     2:
     0.114,0.158,0.000,0.000,0.000:
0000
0000
0000
0000
,
0000
0000
0000
0000
,
0000
0000
0000
0000
,
0000
0000
0000
0000
,
0000
0000
0000
0000
,
1000
0000
0000
0000
,
0001
0000
0000
0000
,
0100
0000
0100
0000
,
0100
0000
0100
0000
,
0100
0000
0000
0000
,
0010
0000
0000
0000
,
1000
0000
0000
0000
,
0001
0000
0000
0000
,
1000
0000
1000
0000
,
1000
0000
0000
0000
,
0001
0000
0001
0000
,
0001
0000
0000
0000
,
0100
0000
0100
0000
,
0010
0000
0010
0000
,
0100
0000
0100
0000
,
0010
0000
0010
0000
,
1000
0000
1000
0000
,
0001
0000
0001
0000
,
1000
0000
1000
0000
,
0001
0000
0001
0000
,
0000
1000
0000
1000
,
0000
0001
0000
0001
,
0000
1000
0000
1000
,
0000
0001
0000
0001
,
0000
0000
0000
0000
,
1000
0000
0000
0000
,
0100
0000
0000
0000
,
0010
0000
0000
0000
,
0001
0000
0000
0000
,
1000
0000
0000
0000
,
0010
0000
0000
0000
,
0100
0000
0000
0000
,
0001
0000
0000
0000
,
1000
0000
1000
0000
,
1000
0000
0000
0000
,
0001
0000
0001
0000
,
0001
0000
0000
0000
,
0100
0000
0100
0000
,
0010
0000
0010
0000
,
0100
0000
0000
0000
,
0010
0000
0010
0000
,
1000
0000
1000
0000
,
0001
0000
0001
0000
,
0100
0000
0100
0100
,
0100
0000
0000
0001
,
0001
0000
0001
0000
,
1000
0000
1000
0000
,
0100
0000
0000
0000
,
0010
0000
0010
0000
,
0001
0000
0001
0000
,
1000
0000
1000
0000
,
0010
0000
0010
0000
,
0100
0000
0100
0000
,
0010
0000
0010
0000
,
1000
0000
1000
0000
,
0001
0000
0001
0000
,
0010
0000
0010
0000
;

//---------------dance-double - ----------------
#NOTES:
     dance-double:
     :
     Hard:
     12:
     0.518,0.558,0.283,0.180,0.124:
00000000
00000000
00000000
00000000
,
00000000
00000000
00000000
00000000
,
00000000
00000000
00000000
00000000
,
00000000
00000000
00000000
00000000
,
00000000
00000000
00000000
00000000
,
00001000
00000000
00000000
01001000
00000000
00000000
00000000
00000000
00000000
00000000
00000000
00000000
00000000
00000000
00001000
00000000
,
00010000
00000000
00000000
00010100
00000000
00000000
00000000
00000000
00000000
00000000
00000000
00000000
00000000
00000000
00000000
00000000
,
00000100
00000010
00000001
00000100
00001000
00010000
00100000
01000000
,
00010000
10000000
01000000
00010000
00001000
00000010
00000100
00010000
,
01000000
00000000
00000000
01000000
10000000
00000000
00000000
10000000
00010000
00000000
01000000
00000000
10000000
00000000
01000000
00000000
,
00001000
00000000
00000000
00001000
00010000
00000000
00000000
00010000
00000100
00000000
00000001
00000000
00000100
00000000
00000010
00000000
,
00000001
00000000
00000000
00000001
00000100
00000000
00000000
00000100
00000010
00000000
00010000
00000000
01000000
00000000
10000000
00000000
,
00010000
00000000
00000000
00010000
01000000
00000000
00000000
01000000
10000000
00000000
00010000
00000000
00100000
00000000
10000000
00000000
,
00010000
00100000
00101000
00001000
00010000
00000100
00000110
00000010
,
00000001
00000100
00000110
00000010
00010000
00001000
01001000
01000000
,
00010000
00100000
10000000
00100000
00010000
00001000
00000100
00000001
,
00000100
00000000
00000010
00000000
00000001
00000000
00000100
00000000
00001000
00000000
00010000
00000000
00100000
10000000
00000000
00100000
,
10000000
00010000
01010000
01000000
00001000
00010000
00010100
00000100
,
00001000
00000010
00000110
00000100
00001000
00010000
00110000
00100000
,
10000000
01000000
01010000
00010000
00001000
00000100
00000110
00000010
,
00001000
00000001
00000011
00000010
00000100
00010000
00011000
00001000
,
01000000
00100000
10100000
10000000
01000000
00010000
00011000
00001000
,
00000100
00000010
00001010
00001000
00000001
00000010
00000011
00000001
,
00001000
00000100
00010100
00010000
00001000
01000000
01100000
00100000
,
10000000
00010000
01010000
01000000
00001000
00010000
00000100
00000001
,
00000200
00010000
00000000
00010300
,
00200000
00001000
00000000
00301000
,
00001000
01000000
10000000
01000000
00001000
00010000
00000100
00000001
,
00000100
00000000
00000010
00000000
00000001
00000000
00000100
00000000
00001000
00000000
00010000
00000000
00100000
10000000
00100000
10000000
,
00000000
00000000
00000000
00000000
,
00000002
00000000
00000203
00000000
,
00000320
00000000
00020030
00000000
,
00032000
00000000
02003000
23000000
,
32000000
00000000
00000000
23000000
,
32000000
00000000
03020000
00000000
,
00230000
00000000
00302000
00000000
,
00003020
00000000
00000000
00000000
,
00000032
00000000
00000203
00000300
,
00000001
00001000
00001100
00000000
00000100
00010000
00011000
00000000
,
01000000
00010000
00110000
00000000
00100000
01000000
11000000
00000000
,
10000000
00010000
01010000
00000000
00001000
00010000
00011000
00000000
,
00010000
00000000
00000100
00000000
00000110
00000000
00000000
00000000
00000010
00000000
00000001
00000000
00000101
00000000
00000000
00000100
,
00000001
00001000
00001100
00000000
00000100
00010000
00011000
00000000
,
00001000
01000000
01010000
00000000
00010000
00100000
01100000
00000000
,
01000000
10000000
00100000
00010000
00001000
00000100
00000010
00000000
,
00000100
00000001
00000010
00000100
00001000
00010000
00100000
00000000
,
01000000
00000000
10000000
00010000
10000000
00000000
00000000
01000000
00010000
00000000
00001000
00000000
00000100
00000000
00000010
00000000
,
00001000
00000000
00000001
00000010
00000001
00000000
00000000
00000001
00000100
00000000
00000010
00000000
00010000
00000000
00001000
00000000
,
01000000
00000000
00010000
00100000
00010000
00000000
00000000
01000000
00100000
00000000
10000000
00000000
01000000
00000000
00010000
00000000
,
00001000
00000000
00000100
00000010
00000100
00000000
00000000
00000010
00001000
00000000
00000001
00000000
00000010
00000000
00000100
00000000
,
00000010
00000000
00000001
00001000
00000001
00000000
00000000
00001000
00000100
00000000
00010000
00000000
00001000
00000000
01000000
00000000
,
00100000
00000000
10000000
01000000
10000000
00000000
00000000
00100000
01000000
00000000
00010000
00000000
00100000
00000000
00001000
00000000
,
00000200
00000010
00000000
00000310
,
00020000
00000000
00000000
00000000
00001000
00000000
00000000
00000000
02030000
00000000
00000000
00000000
03100000
00010000
00000000
00100000
,
00010000
10000000
01000000
00010000
00001000
00001000
00000010
00000010
,
00001000
00010000
01000000
00100000
00010000
00001000
00000100
00000010
,
00000001
00000100
00000010
00000100
00001000
00001000
00010000
00010000
,
00100000
10000000
00010000
10000000
01000000
00010000
00001000
00000100
,
00000010
00001000
00000010
00000100
00001000
00001000
00010000
00010000
,
00100000
01000000
00001000
00010000
00000100
00000010
00000001
00000010
,
00000100
00010000
00001000
01000000
00100000
00100000
10000000
10000000
,
01000000
00010000
00001000
00000100
00000001
00000010
00000100
00001000
;

//---------------dance-double - ----------------
#NOTES:
     dance-double:
     :
     Medium:
     8:
     0.348,0.345,0.137,0.137,0.009:
00000000
00000000
00000000
00000000
,
00000000
00000000
00000000
00000000
,
00000000
00000000
00000000
00000000
,
00000000
00000000
00000000
00000000
,
00000000
00000000
00000000
00000000
,
00001000
00000000
00000000
00001000
00000000
00000000
00000000
00000000
00000000
00000000
00000000
00000000
00000000
00000000
00010000
00000000
,
00010000
00000000
00000000
00010000
00000000
00000000
00000000
00000000
00000000
00000000
00000000
00000000
00000000
00000000
00000000
00000000
,
00001000
01000000
00001000
00000000
00001000
00100000
00001000
00000000
,
00010000
00000100
00010000
00000000
00010000
00000010
00010000
00000000
,
00000100
00000010
00000001
00000000
00000100
00000000
00000010
00000000
,
00010000
00001000
01000000
00000000
00010000
00000000
10000000
00000000
,
01000000
00100000
00001000
00000000
00010000
00000000
00000100
00000000
,
00000010
00000001
00000100
00000000
00001000
00000000
00010000
00000000
,
00100000
10000000
00010000
10000000
00100000
00000000
01000000
00000000
,
00010000
00100000
00001000
00100000
00010000
00000000
01000000
00000000
,
00001000
00010000
00000100
00010000
00001000
00000000
00000010
00000000
,
00000001
00000100
00000010
00000100
00000001
00000000
00001000
00000000
,
00000001
00000000
00000101
00000000
00000100
00000010
00010000
00000000
,
00001000
00000000
01001000
00000000
01000000
00010000
00100000
00000000
,
01000000
00000000
11000000
00000000
10000000
00010000
01000000
00000000
,
00001000
00000000
00011000
00000000
00010000
00000100
00000010
00000000
,
00000001
00000000
00001001
00000000
00001000
00000100
00010000
00000000
,
00001000
00000000
00101000
00000000
00100000
01000000
10000000
00000000
,
00100000
00000000
01100000
00000000
01000000
00001000
00010000
00000000
,
00000100
00000000
00000110
00000000
00000010
00001000
00010000
00000000
,
00000000
01000000
00000000
01000000
,
00000000
00010000
00000000
00010000
,
00001000
00000100
00000001
00000010
,
00001000
00010000
01000000
10000000
,
00000000
00000000
00000000
00000000
,
00020000
00030000
02000000
03000000
,
00002000
00003000
00020000
00030000
,
00000200
00000300
00000010
00000001
,
00000020
00000000
00000030
00000001
,
00000020
00000030
00000200
00000300
,
00020000
00030000
00002000
00003000
,
02000000
00000000
00000000
03000000
,
00200000
00300000
20000000
30000000
,
00010000
01010000
01000000
01010000
,
00001000
00011000
00010000
00011000
,
00000100
00001100
00001000
00001100
,
00000010
00000011
00000001
00000011
,
00000010
00000000
00000001
00000000
00001000
00000100
00010000
00000000
,
00001000
00000000
01000000
00000000
00010000
00100000
01000000
00000000
,
10000000
00000000
00100000
00000000
01000000
00010000
00100000
00000000
,
00001000
00000000
00010000
00000000
00000100
00000010
00000001
00000000
,
00001000
00000100
00000100
00000000
00001000
00000100
00010000
00000000
,
00001000
01000000
01000000
00000000
00010000
00100000
01000000
00000000
,
10000000
00010000
00010000
00000000
01000000
00001000
00010000
00000000
,
00000100
00001000
00001000
00000000
00000010
00000100
00000001
00000000
,
00001000
00000100
00000100
00000000
00010000
00001000
00100000
00000000
,
00010000
10000000
10000000
00000000
01000000
00100000
00001000
00000000
,
00020000
00001000
00000000
00031000
,
02000000
03100000
00200000
00310000
,
01000000
00100000
10000000
00000000
01000000
00000000
00100000
00000000
,
00001000
00010000
00000100
00000000
00001000
00000000
00000001
00000000
,
00000100
00000010
00010000
00000000
00001000
00000000
01000000
00000000
,
00100000
10000000
01000000
00000000
00010000
00000000
00001000
00000000
,
00000010
00000001
00001000
00000001
00000010
00000000
00000100
00000000
,
00001000
00000010
00010000
00000010
00001000
00000000
00000100
00000000
,
00010000
00001000
01000000
00001000
00010000
00000000
00100000
00000000
,
10000000
01000000
00100000
01000000
10000000
00000000
00010000
00000000
;

//---------------dance-double - ----------------
#NOTES:
     dance-double:
     :
     Easy:
     5:
     0.222,0.239,0.000,0.009,0.000: // measure 1
00000000
00000000
00000000
00000000
,  // measure 2
00000000
00000000
00000000
00000000
,  // measure 3
00000000
00000000
00000000
00000000
,  // measure 4
00000000
00000000
00000000
00000000
,  // measure 5
00000000
00000000
00000000
00000000
,  // measure 6
00010000
00000000
00000000
00000000
00000000
00000000
00000000
00001000
,  // measure 7
00001000
00000000
00000000
00000000
,  // measure 8
00010000
01000000
10000000
01000000
,  // measure 9
00010000
00001000
00000100
00000001
,  // measure 10
00001000
00000001
00001000
00000001
,  // measure 11
00000010
00001000
00010000
00100000
,  // measure 12
10000000
00010000
10000000
00010000
,  // measure 13
10000000
01000000
00010000
00001000
,  // measure 14
00000100
00000001
00000010
00000001
,  // measure 15
00000100
00000010
00010000
00001000
,  // measure 16
00100000
00010000
01000000
00100000
,  // measure 17
20000000
00000000
30000000
00010000
,  // measure 18
10000000
01000000
00100000
00010000
,  // measure 19
00001000
00000100
00000010
00000001
,  // measure 20
00000100
00000010
00010000
00001000
,  // measure 21
01000000
00100000
10000000
00010000
,  // measure 22
10000000
01000000
00010000
00001000
,  // measure 23
00000100
00000001
00001000
00000001
,  // measure 24
00000010
00001000
00010000
00100000
,  // measure 25
10000000
00010000
10000000
01000000
,  // measure 26
00000000
00100000
00000000
00100000
,  // measure 27
00000000
00001000
00000000
00001000
,  // measure 28
00010000
00000100
00000010
00000001
,  // measure 29
00000010
00000100
00010000
00001000
,  // measure 30
00000000
00000000
00000000
00000000
,  // measure 31
01000000
00000000
00100000
00000000
,  // measure 32
01000000
00000000
00001000
00000000
,  // measure 33
00010000
00000000
00000100
00000010
,  // measure 34
00000100
00000000
00000000
00000010
,  // measure 35
00000100
00000000
00010000
00000000
,  // measure 36
00001000
00000000
01000000
00000000
,  // measure 37
00100000
00000000
00000000
00000000
,  // measure 38
10000000
00000000
01000000
00000000
,  // measure 39
00100000
00010000
00100000
00000000
,  // measure 40
00001000
00010000
00001000
00000000
,  // measure 41
00010000
00000100
00010000
00000000
,  // measure 42
00000100
00000010
00000100
00000000
,  // measure 43
00000010
00000001
00000100
00000000
,  // measure 44
00000010
00001000
00000100
00000000
,  // measure 45
00010000
00001000
01000000
00000000
,  // measure 46
00100000
10000000
01000000
00000000
,  // measure 47
00100000
00001000
00010000
00001000
,  // measure 48
00100000
00001000
00010000
00001000
,  // measure 49
01000000
00010000
00100000
00010000
,  // measure 50
01000000
00000000
00001000
00010000
,  // measure 51
00000100
00000010
00000100
00001000
,  // measure 52
00000100
00000010
00000001
00000100
,  // measure 53
00000001
00000000
00000000
00000000
,  // measure 54
00001000
00000000
00000100
00000000
,  // measure 55
00010000
00001000
01000000
00010000
,  // measure 56
10000000
01000000
00100000
00000000
,  // measure 57
00001000
00010000
00000100
00000010
,  // measure 58
00000001
00000100
00000010
00000000
,  // measure 59
00010000
00001000
00100000
00010000
,  // measure 60
01000000
10000000
01000000
00000000
,  // measure 61
00010000
00100000
00001000
00010000
,  // measure 62
00000100
00000010
00000100
00001000
;
