#TITLE:花吹雪 ~IIDX LIMITED~;
#SUBTITLE:;
#ARTIST:S.S.D.FANTASICA feat. ユッコ;
#TITLETRANSLIT:Hanafubuki ~IIDX LIMITED~;
#SUBTITLETRANSLIT:;
#ARTISTTRANSLIT:S.S.D.FANTASICA feat. yukko;
#GENRE:;
#CREDIT:Silverhawke;
#MENUCOLOR:;
#METERTYPE:DDR;
#BANNER:Hanafubuki ~IIDX LIMITED~.png;
#BACKGROUND:Hanafubuki ~IIDX LIMITED~-bg.png;
#LYRICSPATH:;
#CDTITLE:cdtitle.png;
#MUSIC:Hanafubuki ~IIDX LIMITED~.mp3;
#OFFSET:-0.028;
#SAMPLESTART:52.388;
#SAMPLELENGTH:15.000;
#SELECTABLE:YES;
#LISTSORT:;
#BPMS:0.000=150.000;
#STOPS:;
#BGCHANGES:0.000=Hanafubuki ~IIDX LIMITED~.avi=1.000=1=1=0,
99999=-nosongbg-=1.000=0=0=0 // don't automatically add -songbackground-
;
#ATTACKS:;

//---------------dance-single - ----------------
#NOTES:
     dance-single:
     :
     Hard:
     12:
     0.561,0.514,0.222,0.339,0.069:
0000
0000
0000
0000
,
0000
0000
0000
0000
,
0000
0000
0000
0000
,
0000
0000
0000
0000
,
0000
0000
0000
0000
,
2100
0000
3002
0000
,
0013
1100
0010
0101
,
0001
0100
1000
0100
0010
0001
0010
1000
,
0100
0010
0001
1001
,
1000
0001
0001
1000
1000
0100
0010
0001
,
0000
1000
1000
0001
0001
0100
0010
1000
,
0000
0001
0001
1000
1000
0010
0100
0010
,
1000
0100
0001
0100
1000
0010
0100
0001
,
0000
0100
0100
0010
0010
1000
0100
0010
,
0000
0100
0100
0010
0010
0001
0100
0010
,
0000
0100
0100
0001
0001
0010
0100
0010
,
0001
0100
1000
0100
0010
1000
0100
0010
,
0001
0000
0000
0001
0100
0000
0010
0000
0010
0000
0000
0000
1000
0000
0001
0000
,
0010
0000
0000
0010
0100
0000
1000
0000
1000
0000
0000
0000
0001
0000
0100
0000
,
0020
0230
0302
2003
,
3100
0010
0010
0100
0100
1000
0000
1000
,
0001
0000
0000
0001
0100
0000
0010
0000
0010
0000
0000
0000
0100
0000
0001
0000
,
1000
0000
0000
1000
0100
0000
0010
0000
0010
0000
0000
0000
0001
0000
1000
0000
,
0020
0230
0302
2003
,
3100
0000
1000
0001
1000
0000
0010
0000
0010
0000
0000
0000
0100
0000
0001
0000
,
0101
1100
0101
1100
,
0001
0010
0001
0010
0100
1000
1000
0000
,
1100
0101
1100
0101
,
1000
0010
1000
0010
0100
0001
0001
0000
,
1000
0100
0110
0010
,
0002
0013
2000
3100
,
0002
0203
2300
3020
,
0031
0000
1000
0001
1000
0000
0001
0000
0001
0000
0000
0000
1000
0000
0100
0000
,
0010
0000
1000
0100
0010
0000
1000
0100
,
0010
0001
0100
0010
0100
0001
0010
0100
,
2000
3020
0230
0302
,
1003
0000
0100
0010
0100
0000
1000
0000
0010
0000
0100
0000
0100
0000
0000
0000
,
0001
0000
0100
0001
0010
0000
0100
0001
,
0010
0100
1000
0010
0100
0000
1000
0100
,
0002
0023
0230
2300
,
3001
0101
0000
0110
0000
1010
0000
1001
,
0002
0010
1000
0103
,
0020
1000
0100
0031
,
2000
0100
0001
3010
,
0100
0000
0001
1000
0001
0000
0010
0000
0010
0000
0000
0000
0000
0000
0000
0000
,
0110
0000
1001
0000
,
1000
0011
0001
1010
,
1000
0100
0001
0100
0010
1000
0010
0001
,
0200
0320
2030
3002
,
0013
0000
0100
0000
0100
0000
1000
0000
1000
0000
0001
0100
0001
0000
1000
0000
,
0000
0000
0001
0000
0001
0000
1000
0000
1000
0000
0100
0010
0100
0000
1000
0000
,
0000
0000
0010
0000
0010
0000
0100
0000
0100
0000
0001
1000
0001
0000
0010
0000
,
0100
0001
0100
1000
0010
0001
0010
1000
,
0000
0000
0100
0000
0100
0000
0010
0000
0010
0000
0001
0100
0001
0000
0010
0000
,
0000
0000
0100
0000
0100
0000
1000
0000
1000
0000
0001
0100
0001
0000
0010
0000
,
0000
0100
1000
0010
0001
0010
1000
0100
,
0001
1000
0010
1000
0001
0100
1000
0020
,
0000
0030
0000
0000
0000
0000
0000
0000
;

//---------------dance-single - ----------------
#NOTES:
     dance-single:
     :
     Medium:
     9:
     0.357,0.361,0.011,0.074,0.000:
0000
0000
0000
0000
,
0000
0000
0000
0000
,
0000
0000
0000
0000
,
0000
0000
0000
0000
,
0000
0000
0000
0000
,
0002
0003
2000
3000
,
0001
0010
0100
1000
,
0001
0100
0010
0000
0010
0100
0001
0000
,
1000
0001
0100
0100
,
0010
0000
1000
0000
0100
1000
0100
0000
,
0010
0000
0001
0000
0100
0001
0100
0000
,
0010
0000
1000
0000
0100
1000
0100
0000
,
0010
0001
0010
0001
1000
0000
0001
0000
,
0100
0000
0001
0000
1000
0100
1000
0000
,
0100
0000
1000
0000
0001
0100
0001
0000
,
0100
0000
0001
0000
1000
0100
1000
0000
,
0001
0100
0001
0100
0010
0000
1000
0000
,
0001
0000
0000
0100
0001
0000
0100
0000
,
0010
0000
0000
1000
0100
0000
0010
0000
,
0100
0000
0000
1000
0001
0000
0010
0000
,
0100
1000
0001
0000
1000
0001
0100
0000
,
0010
0000
0000
0100
0001
0000
0010
0000
,
0100
0000
0000
0010
0100
0000
1000
0000
,
0001
0100
1000
0010
,
0001
1000
0001
0000
1000
0000
0000
0000
,
0001
0001
0100
0100
,
0010
1000
0100
0000
0010
0000
0001
0000
,
0100
0100
0010
0010
,
1000
0001
0010
0000
0100
0000
1000
0000
,
0001
0100
1000
0100
,
0001
1000
0100
0001
,
0100
1000
0001
0100
,
0010
0100
0010
0000
0100
0000
0000
0000
,
0001
0000
1000
0001
0100
0000
0001
0000
,
1000
0000
0001
1000
0100
0000
1000
0000
,
0001
0010
0100
1000
,
0010
0100
0010
0000
0100
0000
0100
0000
,
0001
0000
1000
0010
0100
0000
0010
1000
,
0100
0000
0010
0000
0001
0000
1000
0001
,
1000
0001
0100
0010
,
0000
0100
0000
0100
0000
0100
0000
0100
,
0002
0000
0000
0000
,
0023
0000
0000
0000
,
2030
0000
0000
0000
,
3200
0000
0302
0000
,
1003
0000
0001
0000
,
0100
0010
1000
1001
,
0001
0010
0100
1000
,
0001
0100
0010
0000
0100
0000
0001
0000
,
1000
0000
0100
0000
0010
0100
1000
0000
,
0001
0000
0100
0000
0010
0100
0001
0000
,
1000
0000
0010
0000
0100
0010
1000
0000
,
0001
0010
0100
0000
0100
0010
0001
0000
,
1000
0000
0001
0000
0100
0010
1000
0000
,
0001
0000
1000
0000
0100
0010
0001
0000
,
1000
0100
0010
0000
0001
0100
0010
0000
,
1000
0001
1000
0000
0001
0100
0010
1000
;

//---------------dance-single - ----------------
#NOTES:
     dance-single:
     :
     Easy:
     5:
     0.234,0.270,0.000,0.064,0.000:
0000
0000
0000
0000
,
0000
0000
0000
0000
,
0000
0000
0000
0000
,
0000
0000
0000
0000
,
0000
0000
0000
0000
,
0100
0000
0010
0000
,
1000
0100
0010
0001
,
1000
1000
0100
0100
,
0001
0100
1000
0100
,
0010
0001
0100
0000
,
0010
1000
0100
0000
,
0010
0001
0100
0000
,
0010
1000
0001
0000
,
0100
0001
0010
0000
,
0100
1000
0010
0000
,
0100
0001
0010
0000
,
0100
1000
0001
0000
,
0100
0000
0100
0001
,
1000
0000
1000
0001
,
0010
0000
0010
0100
,
1000
0001
0100
0100
,
0001
0000
0001
0100
,
0010
0000
0010
1000
,
0100
0000
0100
1000
,
0001
1000
0001
0000
,
0100
0100
0010
0000
,
0100
0001
1000
0000
,
0100
0100
0010
0000
,
0100
1000
0001
0000
,
0100
0000
0001
0000
,
0010
0000
1000
0000
,
0100
0000
0001
0000
,
1000
0001
1000
0000
,
0001
0100
0010
0000
,
0001
0100
0010
0000
,
0001
0100
0010
1000
,
0200
0000
0300
0000
,
1000
0100
0010
0000
,
1000
0100
0010
0000
,
1000
0100
0010
0001
,
0200
0000
0300
0000
,
0002
0000
0003
0000
,
0200
0000
0300
0000
,
2000
0000
3000
0000
,
0020
0000
0030
0000
,
0001
0000
1000
0000
,
0010
0100
0001
1000
,
0100
0000
0010
0000
,
0001
0100
1000
0100
,
0010
1000
0001
0000
,
0010
0001
1000
0000
,
0010
1000
0001
0000
,
0100
0001
0010
1000
,
0100
1000
0001
0000
,
0100
0001
1000
0000
,
0010
1000
0001
0100
,
0010
0100
1000
0001
;

//---------------dance-single - ----------------
#NOTES:
     dance-single:
     :
     Beginner:
     1:
     0.098,0.150,0.000,0.021,0.000:
0000
0000
0000
0000
,
0000
0000
0000
0000
,
0000
0000
0000
0000
,
0000
0000
0000
0000
,
0000
0000
0000
0000
,
0000
0000
0000
0000
,
0000
0000
0000
0000
,
0001
0000
0001
0000
,
0001
0000
0000
0000
,
1000
0000
0000
0000
,
0100
0000
0000
0000
,
0001
0000
0000
0000
,
0010
0000
0010
0000
,
0010
0000
0000
0000
,
1000
0000
0000
0000
,
0100
0000
0000
0000
,
0001
0000
0001
0000
,
0001
0000
0000
0000
,
1000
0000
0000
0000
,
0100
0000
0000
0000
,
0010
0000
0000
0000
,
0001
0000
0000
0000
,
0100
0000
0000
0000
,
1000
0000
0000
0000
,
0010
0000
0010
0000
,
0100
0000
0100
0000
,
0100
0000
0000
0000
,
0001
0000
0001
0000
,
0001
0000
0000
0000
,
1000
0000
0000
0000
,
0001
0000
0000
0000
,
0100
0000
0000
0000
,
0010
0000
0010
0000
,
0010
0000
0000
0000
,
1000
0000
0000
0000
,
0100
0000
0100
0000
,
0100
0000
0000
0000
,
0010
0000
0000
0000
,
0001
0000
0000
0000
,
0100
0000
0100
0000
,
0100
0000
0000
0000
,
0020
0000
0000
0000
,
0030
0000
0000
0000
,
0200
0000
0000
0000
,
0300
0000
0000
0000
,
0001
0000
0000
0000
,
1000
0000
1000
0000
,
1000
0000
0000
0000
,
0100
0000
0000
0000
,
0001
0000
0001
0000
,
0001
0000
0000
0000
,
1000
0000
1000
0000
,
1000
0000
0000
0000
,
0100
0000
0100
0000
,
0100
0000
0000
0000
,
0010
0000
0010
0000
,
0010
0000
0010
0000
;

//---------------dance-double - ----------------
#NOTES:
     dance-double:
     :
     Hard:
     12:
     0.546,0.542,0.116,0.328,0.085:
00000000
00000000
00000000
00000000
,
00000000
00000000
00000000
00000000
,
00000000
00000000
00000000
00000000
,
00000000
00000000
00000000
00000000
,
00000000
00000000
00000000
00000000
,
00002000
00000000
00023000
00000000
,
00031000
01001000
00010000
00010100
,
00000100
00000010
00000001
00000100
00001000
00010000
00001000
00000100
,
00000010
00000000
00010000
00001000
00010000
00000000
00001000
00000000
00021000
00000000
00000000
00000000
00030000
00000000
00000000
00000000
,
01000000
10000000
10000000
00100000
00100000
01000000
01000000
00001000
,
00000000
00010000
00010000
00000100
00000100
00001000
00001000
00000010
,
00000000
00000100
00000100
00000001
00000001
00000010
00000010
00000100
,
00010000
00001000
00010000
01000000
10000000
01000000
00010000
00001000
,
00000100
00000010
00000010
00010000
00010000
00001000
00001000
01000000
,
00000000
00010000
00010000
00100000
00100000
00001000
00001000
00010000
,
00000000
00000010
00000010
00000100
00000100
00001000
00001000
00010000
,
01000000
10000000
01000000
00010000
00001000
00000100
00000001
00001000
,
00000100
00000000
00000000
00010000
00001000
01000000
00100000
10000000
,
01000000
00000000
00000000
00100000
00001000
00010000
00000100
00001000
,
00000010
00000000
00000000
00000100
00000001
00001000
00000100
00010000
,
00001000
01000000
01000000
00010000
00010000
10000000
01000000
00010000
,
01000000
00000000
00000000
00100000
00001000
00010000
00000100
00001000
,
00000010
00000000
00000000
00000100
00001000
00010000
00100000
01000000
,
00010000
11000000
10000000
01010000
,
00010000
00000000
10000000
00010000
10000000
00000000
00010000
00000000
00010000
00000000
00000000
00000000
00000000
00000000
00000000
00000000
,
20000000
30020000
00032000
00003002
,
00001003
00000000
00000100
00000000
00001000
00000000
00000100
00000000
00000010
00000000
00000001
00001000
00000001
00000000
00000000
00000000
,
00000002
00002003
00023000
20030000
,
30010000
00000000
01000000
00000000
00010000
00000000
01000000
00000000
00100000
00000000
10000000
00010000
10000000
00000000
00000000
00000000
,
01000000
00100000
00101000
00001000
,
00010000
00000010
00000110
00000100
,
00000001
00001100
00001000
00000101
,
00000001
00000000
00000100
00000010
00000100
00000000
00000010
00000000
00000010
00000000
00000000
00000000
00001000
00000000
00000100
00000000
,
00000010
00000000
00001000
00000100
00000010
00000000
00001000
00000100
,
00000010
00000000
00000000
00000010
00000001
00000000
00001000
00000000
00000100
00000000
00000000
00000100
00010000
00000000
01000000
00000000
,
20000000
30200000
02300000
03020000
,
10030000
00000000
00010000
01000000
00010000
00000000
00100000
00000000
00100000
00000000
00000000
00000000
00010000
00000000
01000000
00000000
,
00100000
00000000
00010000
01000000
00100000
00000000
00010000
01000000
,
00100000
00000000
00000000
00100000
10000000
00000000
00010000
00000000
01000000
00000000
00000000
00000000
00001000
00000000
00000100
00000000
,
00000002
00000023
00000230
00002300
,
00003001
00000000
00001000
00000100
00001000
00000000
00000010
00000000
00000010
00000000
00000000
00000000
00020000
00000000
00000000
00000000
,
02030000
00000000
00000000
03020000
,
00030200
00000000
00000000
00000000
00000000
00000000
00001300
00000001
,
00000200
00000320
00020030
00032000
,
02003000
00000000
03020000
00000000
,
10030000
00000000
00010000
00000000
,
01000000
10100000
01000000
00110000
,
10000000
01000000
00100000
00010000
00001000
00000100
00000010
00000001
,
00001000
00000000
00000010
00000100
00000010
00000000
00001000
00000000
00002000
00000000
00000000
00000000
00003002
00000000
00000000
00000000
,
00000103
00000000
00000001
00001000
00000001
00000000
00000010
00000000
00000010
00000000
00000100
00000000
00000100
00000000
00010000
00000000
,
00000000
00000000
00001000
00100000
00001000
00000000
01000000
00000000
01000000
00000000
00010000
00000000
00010000
00000000
00100000
00000000
,
00000000
00000000
01000000
00100000
01000000
00000000
10000000
00000000
10000000
00000000
00100000
00000000
00100000
00000000
01000000
00000000
,
00001000
00010000
00001000
00000100
00000001
00000100
00001000
00010000
,
01000000
00000000
00100000
00010000
00100000
00000000
00001000
00000000
00001000
00000000
00010000
00000000
00010000
00000000
00000100
00000000
,
00000000
00000000
00001000
00000001
00001000
00000000
00000010
00000000
00000010
00000000
00010000
00000000
00010000
00000000
00001000
00000000
,
00000000
00100000
01000000
10000000
01000000
00010000
00001000
00000100
,
00000001
00000010
00000100
00001000
00010000
00100000
01000000
10000000
;

//---------------dance-double - ----------------
#NOTES:
     dance-double:
     :
     Medium:
     8:
     0.357,0.391,0.032,0.064,0.000:
00000000
00000000
00000000
00000000
,
00000000
00000000
00000000
00000000
,
00000000
00000000
00000000
00000000
,
00000000
00000000
00000000
00000000
,
00000000
00000000
00000000
00000000
,
00020000
00030000
00002000
00003000
,
00010000
01000000
10000000
00010000
,
10000000
10000000
00010000
00010000
,
00001000
00001000
00000001
00000001
,
00000100
00000010
00001000
00000000
00000010
00000100
00000001
00000000
,
00000100
00000010
00001000
00000000
00000010
00000100
00000001
00000000
,
00000100
00000000
00001000
00000000
00010000
00001000
00010000
00000000
,
01000000
00000000
10000000
00000000
00010000
10000000
00010000
00000000
,
01000000
00100000
10000000
00000000
00100000
01000000
00010000
00000000
,
01000000
00100000
10000000
00000000
00100000
01000000
00010000
00000000
,
00100000
00000000
01000000
00000000
00010000
00001000
00010000
00000000
,
00000100
00000000
00000010
00000000
00000001
00001000
00000001
00000000
,
00000100
00000000
00000010
00001000
,
00000100
00000000
00010000
00001000
,
01000000
00000000
00100000
10000000
,
00010000
00100000
01000000
00000000
10000000
01000000
00100000
00000000
,
00001000
00000000
00010000
00000100
,
00000010
00000000
00000001
00000100
,
00001000
00010000
00100000
10000000
,
00010000
01000000
01100000
00000000
,
00100000
10000000
00010000
10000000
,
00100000
01000000
00010000
01000000
00100000
01000000
00010000
00000000
,
00100000
00001000
00010000
00000100
,
00000010
00000001
00001000
00000001
00000010
00000001
00001000
00000000
,
00000100
00010000
00001000
01000000
,
00100000
10000000
00010000
00100000
,
01000000
00010000
00001000
00000100
,
00000010
00001000
00000001
00001000
00001100
00000000
00000000
00000000
,
00000001
00000000
00000100
00000001
00001000
00000000
00000100
00001000
,
00000001
00000000
00000100
00001000
00010000
00000000
00001000
00000000
,
01000000
00100000
10000000
00010000
,
00100000
01000000
10000000
01000000
00100000
00000000
00010000
00000000
,
10000000
00000000
01000000
00100000
00010000
00000000
00100000
01000000
,
10000000
00000000
01000000
00000000
00010000
00000000
00001000
00010000
,
00001000
00000100
00000010
00001000
,
00000001
00000100
00000001
00001000
00000001
00000000
00000100
00000000
,
00000020
00000000
00000000
00000000
,
00020030
00000000
00000000
00000000
,
00032000
00000000
00000000
00000000
,
02003000
00000000
00000000
00000000
,
03100000
00000000
10000000
00000000
,
00010000
00100000
01000000
10000000
,
01000000
00010000
00001000
00000100
,
00000001
00001000
00000001
00001000
00000001
00000000
00001001
00000000
,
00000001
00000000
00000100
00000000
00000010
00001000
00000100
00000000
,
00010000
00000000
00001000
00000000
01000000
00010000
00100000
00000000
,
01000000
00000000
10000000
00000000
00010000
01000000
00100000
00000000
,
01000000
00001000
00010000
00001000
,
00000100
00000000
00000010
00000000
00001000
00000100
00000010
00000000
,
00000001
00000000
00000100
00000000
00000010
00001000
00000100
00000000
,
00010000
00001000
00100000
00010000
,
01000000
00100000
01000000
00000000
00010000
10000000
00010000
10000000
;

//---------------dance-double - ----------------
#NOTES:
     dance-double:
     :
     Easy:
     5:
     0.221,0.270,0.000,0.000,0.000: // measure 1
00000000
00000000
00000000
00000000
,  // measure 2
00000000
00000000
00000000
00000000
,  // measure 3
00000000
00000000
00000000
00000000
,  // measure 4
00000000
00000000
00000000
00000000
,  // measure 5
00000000
00000000
00000000
00000000
,  // measure 6
10000000
00000000
01000000
00000000
,  // measure 7
00100000
00001000
00010000
00001000
,  // measure 8
00010000
00000000
00000100
00000000
,  // measure 9
00000010
00000001
00000100
00000000
,  // measure 10
00000010
00010000
00000010
00000010
,  // measure 11
00010000
00001000
00010000
00010000
,  // measure 12
00001000
01000000
00001000
00001000
,  // measure 13
01000000
00010000
00100000
00000000
,  // measure 14
01000000
00010000
01000000
01000000
,  // measure 15
00010000
00001000
00010000
00010000
,  // measure 16
00001000
00000100
00001000
00001000
,  // measure 17
00000100
00000001
00001000
00000000
,  // measure 18
00000001
00000000
00000000
00000000
,  // measure 19
00000010
00000000
00000000
00000000
,  // measure 20
00000100
00010000
00001000
00000000
,  // measure 21
01000000
00010000
10000000
00000000
,  // measure 22
01000000
00000000
00000000
00000000
,  // measure 23
00100000
00000000
00000000
00000000
,  // measure 24
00001000
00010000
00000100
00000000
,  // measure 25
00000010
00000000
00000001
00000000
,  // measure 26
00001000
00000010
00000100
00000000
,  // measure 27
00000100
00001000
00010000
00000000
,  // measure 28
00010000
00001000
01000000
00000000
,  // measure 29
01000000
00010000
00100000
00000000
,  // measure 30
01000000
10000000
00010000
00000000
,  // measure 31
01000000
00001000
00010000
00000000
,  // measure 32
00001000
00000100
00000010
00000100
,  // measure 33
00000001
00000000
00000000
00000000
,  // measure 34
00000010
00000100
00000010
00000100
,  // measure 35
00001000
00000100
00001000
00000100
,  // measure 36
00010000
00001000
01000000
00000000
,  // measure 37
00010000
00000000
00000000
10000000
,  // measure 38
01000000
10000000
01000000
00100000
,  // measure 39
01000000
00100000
01000000
00100000
,  // measure 40
00001000
00100000
00001000
00010000
,  // measure 41
00000100
00000000
00000000
00001000
,  // measure 42
00000100
00000000
00000000
00000100
,  // measure 43
00000010
00000000
00000000
00000010
,  // measure 44
00000001
00000000
00000000
00000001
,  // measure 45
00001000
00000000
00000000
00000000
,  // measure 46
00000100
00000000
00010000
00000000
,  // measure 47
00001000
00001000
00001000
00001000
,  // measure 48
01000000
00000000
00010000
00000000
,  // measure 49
10000000
01000000
00100000
00010000
,  // measure 50
10000000
00000000
01000000
00000000
,  // measure 51
00010000
00001000
00010000
00000000
,  // measure 52
00001000
00000000
00000100
00000000
,  // measure 53
00000001
00001000
00000001
00000000
,  // measure 54
00000100
00000000
00001000
00000000
,  // measure 55
00010000
00001000
00010000
00000000
,  // measure 56
01000000
00000000
10000000
00000000
,  // measure 57
00010000
01000000
00100000
10000000
;
