#TITLE:Ganymede kamome mix;
#SUBTITLE:;
#ARTIST:kamome sano;
#TITLETRANSLIT:;
#SUBTITLETRANSLIT:;
#ARTISTTRANSLIT:;
#GENRE:;
#CREDIT:Silverhawke;
#MENUCOLOR:;
#METERTYPE:DDR;
#BANNER:Ganymede kamome mix.png;
#BACKGROUND:Ganymede kamome mix-bg.png;
#LYRICSPATH:;
#CDTITLE:cdtitle.png;
#MUSIC:Ganymede kamome mix.mp3;
#OFFSET:-0.028;
#SAMPLESTART:79.060;
#SAMPLELENGTH:15.000;
#SELECTABLE:YES;
#LISTSORT:;
#DISPLAYBPM:100.000:200.000;
#BPMS:0.000=200.000,66.000=400.000,67.000=100.000,83.000=200.000,234.500=100.000,239.000=200.000,240.000=400.000,241.000=200.000,337.000=100.000;
#STOPS:66.000=0.450
,240.000=0.450
;
#BGCHANGES:;
#ATTACKS:;

//---------------dance-single - ----------------
#NOTES:
     dance-single:
     :
     Hard:
     18:
     0.992,0.964,0.294,0.109,1.000:
0000
0000
0000
0000
,
0000
0000
0000
0000
,
0000
0000
0000
0000
,
0000
0000
0000
0000
,
0000
0000
0000
0000
,
1001
0000
1001
0000
0100
0000
0010
0001
0010
0001
0010
0000
0001
0000
0100
0010
,
0100
0000
0100
0000
0001
0000
1000
0100
1000
0100
1000
0000
0010
0000
0100
0000
,
1001
0000
1001
0000
0010
0000
1000
0100
1000
0001
1000
0000
0010
0000
0100
0001
,
1000
0000
1000
0001
0100
0000
0010
1000
0001
0000
0001
0000
0001
0000
0001
0000
,
1100
0000
1100
0000
0010
0000
0001
0100
0001
0100
0001
0000
1000
0000
0010
0000
,
0101
0000
0101
0000
1000
0000
0100
0010
0100
0010
0100
0000
1000
0000
0010
0000
,
0101
0101
0010
0000
1100
1100
0010
0000
,
0011
0011
0100
0000
1010
1010
0100
0000
,
0001
0100
0001
0100
0010
1000
0010
1000
,
0001
0010
0001
0010
0001
0010
0001
0010
0100
1000
0100
1000
0100
1000
0100
1000
,
0002
0000
0000
0000
,
0000
0000
0000
0000
0003
0000
1001
0100
,
1000
0100
0010
0100
1000
0100
0001
0010
,
0100
0010
1000
0010
0001
0100
0010
1000
,
0100
0001
0100
0010
0100
1000
0010
0100
,
0010
0001
0010
1000
0010
0100
0001
0010
,
0001
0010
0100
1000
0100
1000
0001
0100
,
0001
0100
0010
1000
0010
1000
0001
0100
,
1000
0100
0001
0100
0010
0100
1000
0100
,
0010
0100
0001
0100
1000
0100
0001
0010
,
0001
0010
0100
1000
0100
1000
0001
0100
,
0001
0100
0010
1000
0010
1000
0001
0010
,
0100
0010
1000
0010
0100
0010
0001
0010
,
1000
0000
0010
0000
0100
0000
0010
0000
0001
0000
0100
0000
0010
0000
1000
0100
,
1000
0000
0001
0100
0001
0000
1000
0020
0100
0000
0130
0000
0001
0000
0010
0100
,
0010
0000
0001
1000
0001
0000
0100
0020
1000
0000
1030
0000
0001
0000
1000
0100
,
1000
0000
0001
0010
0001
0000
1000
0200
0001
0000
0301
0000
0100
0000
1000
0010
,
1000
0000
0001
0010
0001
0000
0001
0000
1000
0100
0010
0001
0100
0000
0010
1000
,
0001
0000
0001
1000
0010
0100
0010
0000
1000
0100
0010
0001
0100
0000
0010
1000
,
0100
0000
0100
1000
0010
0100
0010
0000
1000
0001
0010
0100
1000
0000
0001
0100
,
0010
0000
0010
0000
1000
0001
1000
0200
0001
0000
0301
0000
0100
1000
0100
0000
,
1000
0001
1000
0000
0002
0000
2003
0000
3100
0010
0001
0100
2000
0000
0000
0000
,
3100
0000
0100
0000
0001
0010
0001
0010
0001
0000
1100
0000
1000
0000
0001
0000
,
0100
0001
0100
0110
0010
1000
0100
0010
,
0100
2002
0000
0000
0000
0000
0000
0000
,
0000
0000
3003
0000
0000
0000
0001
0010
1000
0000
0010
0000
0001
0000
0100
0000
,
0010
1000
0010
0100
0001
0010
0100
1000
,
0100
0000
0000
0010
0000
0000
0002
0000
0000
1000
0000
0000
1003
0000
0000
0010
0000
0000
0000
0010
0000
0100
0000
0000
,
0000
0100
0000
0001
0000
0000
0000
0001
0000
1000
0000
0000
0000
1000
0000
0100
0000
0000
0000
0100
0000
0010
0000
0000
,
0000
0010
0000
0100
0000
0000
0000
0100
0000
1000
0000
0010
0000
0100
0000
0001
0000
0000
0000
0001
0000
0010
0000
0000
,
0000
0010
0000
0001
0000
0000
0000
0001
0000
0100
0000
0000
0000
0100
0000
1000
0000
0000
0000
1000
0000
0001
0000
0000
,
0000
0001
0000
1000
0000
0000
0000
1000
0000
0100
0000
0010
0000
1000
0000
0100
0000
0000
0000
0100
0000
0001
0000
0000
,
0000
0001
0000
0100
0000
0000
0000
0100
0000
1000
0000
0000
0000
1000
0000
0010
0000
0000
0000
0010
0000
0100
0000
0000
,
0000
0100
0000
0001
0000
0010
0000
0100
0000
0001
0000
0000
0000
0001
0000
0100
0000
0000
0000
0100
0000
1000
0000
0000
,
0000
1000
0000
0010
0000
0000
0000
0010
0000
0100
0000
0000
0000
0100
0000
0001
0000
0010
0000
0001
0000
0100
0000
0001
,
0000
0100
0000
0010
0000
0100
0000
0010
0000
1000
0000
0001
0000
0100
0000
0110
0000
0000
0000
0000
0000
0101
0000
0000
,
0000
0110
0000
0101
0000
1010
0000
1100
,
0000
0000
0000
1010
0000
0000
0000
0000
0000
1000
0000
0100
0000
0010
0000
0001
0000
0100
0000
0001
0000
1000
0000
0100
,
0000
1000
0000
0010
0000
0100
0000
0001
0000
0010
0000
0100
0000
1000
0000
0001
0000
0100
0000
1000
0000
0001
0000
0010
,
0000
1000
0000
0001
0000
0010
0000
1000
0000
0001
0000
0100
0000
1000
0000
0010
0000
0000
0000
0100
0000
0010
0000
0000
,
0000
0000
0000
1001
0000
0000
0000
0000
0000
0001
0000
0100
0000
1000
0000
0100
0000
0000
0000
0100
0000
0010
0000
0100
,
0000
0010
0000
1000
0000
0000
0000
1000
0000
0001
0000
0000
0000
0001
0000
0010
0000
0100
0000
0010
0000
0001
0000
0100
,
0000
0001
0000
1000
0000
0100
0000
1000
0000
0010
0000
0100
0000
0010
0000
1000
0000
0100
0000
0010
0000
0001
0000
0100
,
0000
0010
0000
0001
0000
0010
0000
1000
0000
0100
0000
0010
0000
0001
0000
2002
0000
0000
0000
0000
0000
0000
0000
0000
,
0000
0000
0000
0000
,
3003
0000
0000
0000
1001
0000
0001
0000
0100
0000
0010
1000
0010
1000
0001
0000
,
0010
0000
1000
0000
0010
0100
0010
0000
0001
0000
0100
0010
0100
0010
1000
0000
,
0001
0000
0010
0000
0100
0000
0100
0000
1000
0000
0010
0100
0010
0100
1000
0000
,
0100
0000
0001
0000
0010
0100
0010
0000
0001
0000
0100
0010
0100
0010
1000
0000
,
0001
0000
0010
0000
0100
0000
0100
0000
0001
0000
0100
1000
0100
1000
0001
0000
,
0100
0000
0010
0000
1000
0001
1000
0000
0100
0000
0001
0100
0001
0100
0010
0000
,
0001
0000
0100
0000
0010
0000
0010
0000
1000
0000
0001
0010
0001
0010
0100
0000
,
1000
0000
0010
0000
0100
1000
0100
0000
0001
0000
1000
0100
1000
0100
0010
0000
,
1000
0000
0000
0010
0000
0000
0001
0000
0010
0000
0100
0000
1000
0000
0100
0000
0010
0000
0001
0000
0010
0000
0100
0000
,
1000
0100
0010
0001
0100
0010
1000
0010
0100
0001
0100
0010
,
1000
0010
0100
0001
0010
0100
1000
0010
0100
0001
0100
0010
,
1000
0100
0010
0001
0100
1000
0100
0001
0010
0001
0100
0010
,
1000
0100
0010
0001
1000
0100
1000
0001
0100
0001
1000
0010
,
1000
0001
0010
0001
0100
0001
0010
1000
0010
0001
0100
0001
,
0010
1000
0010
0001
0100
0010
1000
0100
0010
0001
0010
0100
,
1000
0010
0100
0001
0010
0001
0010
0100
0010
0100
1000
0100
,
1000
0001
1000
0001
0010
0100
1000
1001
0000
1000
0010
0100
,
0001
1001
0000
0001
0100
1000
0100
0010
0100
0001
0100
0010
,
0100
1000
0100
0001
0100
0010
1000
1001
0000
1000
0100
0010
,
0001
1001
0000
1000
0100
0010
0100
0001
0100
0010
0100
1000
,
0100
0000
0000
0000
0001
0000
0000
0000
0100
0000
0000
0000
1000
0000
0000
0000
0000
0000
1000
0000
0000
0000
0000
0000
0010
0000
0000
0000
0000
0000
0100
0000
0000
0001
0000
0000
1000
0000
0000
0001
0000
0000
0100
0000
0000
0000
0000
0000
,
1000
0000
1000
0000
0100
0001
0100
0000
0010
0000
1000
0100
1000
0001
0010
0000
,
0001
0000
0000
0100
0000
0000
0010
0000
0000
0000
0000
0000
1000
0000
0000
0000
0100
0000
0000
0000
0010
0000
0000
0000
0001
0000
0000
0000
0010
0000
0000
0000
0100
0000
0000
0000
1000
0000
0000
0000
0010
0000
0000
0000
0100
0000
0000
0000
,
0001
0100
0010
1000
0100
0001
1000
0010
0001
1000
0010
0001
,
1000
0000
0100
0000
0001
0000
1001
0000
0000
0100
0000
0000
0010
0000
0000
0100
0000
0000
0001
0000
0000
0100
0000
0000
,
0001
0100
1000
0100
1000
0100
0001
1000
,
0001
1000
0001
0010
0001
0010
1000
0010
,
1000
0010
0100
0010
0100
0010
0001
0100
,
1000
0010
0000
0000
0000
0000
0000
0000
;

//---------------dance-single - ----------------
#NOTES:
     dance-single:
     :
     Medium:
     15:
     0.776,0.776,0.202,0.320,0.602:
0000
0000
0000
0000
,
0000
0000
0000
0000
,
0000
0000
0000
0000
,
0000
0000
0000
0000
,
0000
0000
0000
0000
0000
0000
0001
0001
,
0100
0000
0000
0010
0000
1000
0100
0000
1000
0000
0000
0001
0100
0000
0010
0000
,
0100
0000
0000
0001
0000
0010
0100
0000
1000
0000
0000
0010
1000
0000
0100
0000
,
0010
0000
0000
0001
0000
0100
0010
0000
0100
0000
0001
0000
0010
0000
0000
0100
,
1000
0000
0010
0000
0100
0001
0100
0000
0001
0100
0001
0000
1100
0000
1000
0000
,
0001
0000
0000
1000
0100
0000
0010
0000
0001
0000
0000
0000
0101
0000
0001
0000
,
0010
0000
0000
0100
1000
0000
0010
0000
0100
0000
0000
0000
0101
0000
0001
0000
,
1000
0000
1100
1000
0001
0000
0011
0001
,
1000
0000
1010
1000
0001
0000
0001
0010
,
0001
0010
0100
1000
0100
1000
0001
0100
,
1000
0000
0010
0000
0001
0100
0001
0000
1000
0010
1000
0000
2002
0000
0000
0000
,
0000
0000
0000
0000
,
0000
0000
3003
0000
0010
1000
0010
0100
,
0001
0010
0100
0100
1000
0010
1000
0100
,
0010
0001
0100
0100
0001
0010
0100
1000
,
0001
0100
0010
0010
0100
0001
0010
1000
,
0010
0001
0100
0100
0010
1000
0100
0000
,
0010
0001
0100
0000
0010
1000
0100
0001
,
0100
1000
0010
0000
0100
0001
0010
0000
,
0100
1000
0010
0000
0100
0001
0010
1000
,
0010
0001
0100
0000
0010
1000
1100
0000
,
0010
0001
0101
0000
1000
0100
0001
0100
,
1000
0010
0100
0000
0001
0010
0110
0000
,
1000
0010
0110
0000
0001
0100
1000
0100
,
0001
0000
0010
0000
0100
0000
0000
0000
1000
0000
0000
1000
0100
0000
0000
0100
,
0010
0000
0000
0010
0001
0000
0200
0000
0310
0000
0000
0010
0100
0000
0000
0100
,
0001
0000
0000
0001
1000
0000
0200
0000
0310
0000
0000
0010
0001
0000
0000
0001
,
1000
0000
0000
1000
0010
0000
0200
0000
0301
0000
0000
0001
0010
0000
0000
0010
,
0100
0000
1000
0000
0001
0100
0001
0000
0010
0000
0000
0010
0100
0000
0000
0100
,
1000
0000
0001
0000
0100
0010
0100
0000
0001
0000
0000
0001
0010
0000
0000
0010
,
0100
0000
0100
0000
1000
0001
1000
0001
0100
0000
0000
0100
0010
0000
0010
0000
,
1000
0001
1000
0000
0001
0000
0020
0000
0230
0000
0000
0000
1300
0000
0000
1000
,
0001
0000
0100
0000
0010
0100
0010
0100
0002
0000
1000
0000
1003
0000
0000
0000
,
0200
0320
0031
1001
0000
1000
0000
0100
,
0000
0110
0000
0010
0000
0001
0000
0101
,
0000
0010
0000
0010
0000
0000
0000
0000
,
0000
1000
0100
0010
0000
0001
0000
0101
,
0000
0100
0000
0010
0000
1010
0000
1000
,
0000
0001
0010
0200
0000
2300
0000
3200
,
0000
2300
0000
3200
0000
2300
0000
3200
,
0000
0000
0000
0310
0000
0000
0000
0001
0000
2000
0000
0000
0000
0000
0000
3200
0000
0000
0000
0000
0000
2300
0000
0000
,
0000
3200
0000
2300
0000
3200
0000
1300
,
0000
0010
0000
0100
0000
0000
0000
0001
0000
0020
0000
0000
0000
0000
0000
0230
0000
0000
0000
0000
0000
2300
0000
0000
,
0000
3200
0000
0320
0000
0230
0000
1300
,
0000
0010
0000
0100
0000
0000
0000
0001
0000
0010
0000
0000
0000
0010
0000
0001
0000
0000
0000
0001
0000
1000
0000
0000
,
0000
1000
0000
0010
0000
0000
0000
0010
0000
0100
0000
0000
0000
0100
0000
0001
0000
0000
0000
0001
0000
1000
0000
0000
,
0000
1000
0000
0010
0000
0100
0000
0010
0000
0100
0000
0000
0000
0000
0000
0011
0000
0000
0000
0000
0000
0100
0000
0000
,
0000
1010
0000
0100
0000
0011
0000
0100
,
0000
1010
0000
0002
0000
0203
0000
2300
,
0000
3200
0000
0302
0000
0023
0000
2030
,
0000
0000
0000
3020
0000
0000
0000
0000
0000
0031
0000
0000
0000
1000
0000
0001
0000
0000
0000
0000
0000
1000
0000
0000
,
0000
0000
0000
0010
0000
0100
0000
0010
0000
0100
0000
0000
0000
0100
0000
0001
0000
0000
0000
0001
0000
1000
0000
0000
,
0000
1000
0000
0100
0000
0000
0000
0000
0000
0010
0000
0000
0000
0010
0000
0001
0000
0000
0000
0000
0000
0100
0000
0000
,
0000
0100
0000
0010
0000
0000
0000
0000
0000
1000
0000
0000
0000
1000
0000
0100
0000
0000
0000
0100
0000
0010
0000
0000
,
0000
0010
0000
0001
0000
0000
0000
0001
0000
2000
0000
0000
0000
0000
0000
0000
0000
0000
0000
0000
0000
0000
0000
0000
,
0000
0000
0000
3000
,
0001
0000
0100
0000
0010
0000
0100
0001
0100
0000
0010
0000
1000
0000
0100
0000
,
0010
0000
0001
0000
0100
0000
0001
1000
0001
0000
0010
0000
0110
0000
0000
0000
,
1000
0000
1000
0100
0000
0100
0010
0000
0010
0001
0000
0001
,
0100
0000
0100
0010
0000
0010
1000
0000
1000
0001
0000
0000
,
0010
0000
0100
0000
1000
0000
0001
0100
0001
0000
0010
0000
0100
0000
1000
0000
,
0010
0000
0100
0000
0001
0000
1000
0100
1000
0000
0001
0000
0011
0000
0000
0000
,
0100
0000
0100
1000
0000
1000
0010
0000
0010
0100
0000
0100
,
0001
0000
0001
0010
0000
0010
0100
0000
0100
1000
0000
0000
,
0001
0000
0010
0000
0100
0000
1000
0010
1000
0000
0001
0000
0010
0000
0100
0000
,
1000
0010
1000
0000
0001
0000
0100
0010
0100
0000
0001
0000
1001
0000
0000
0000
,
1000
0000
1000
0100
0000
0100
0010
0000
0010
0001
0010
0001
,
1000
0000
1000
0010
0000
0010
0100
0000
0100
0001
0000
0000
,
1000
0000
0100
0000
0001
0000
0100
0010
0100
0000
1000
0000
0010
0000
0001
0000
,
0010
0100
0010
0000
1000
0000
0100
0010
0100
0000
1000
0000
1001
0000
0000
0000
,
0100
0000
0100
0010
0000
0010
0001
0000
0001
0100
0001
0100
,
0010
0000
0010
1000
0000
1000
0001
0000
0001
0010
0000
0000
,
0100
1000
0001
0100
0010
0000
0100
0001
1000
0100
0010
0000
,
0100
0000
0100
1000
0000
1000
0010
0000
0010
0100
0000
0100
,
0001
0010
0100
1000
0001
0000
1000
0100
0010
0001
1000
0000
,
0010
0000
0010
0100
0000
0100
0001
0000
0001
1000
0000
1000
,
0100
0000
0010
0100
0000
0100
1000
0000
0010
0100
0000
0100
,
0001
0000
0010
0100
0000
1000
0100
0000
0010
0001
0000
0100
,
0010
0000
0100
0001
0000
1000
0100
0010
0001
0100
0000
0010
,
0100
0000
1000
0100
0000
0001
0010
0100
1000
0010
0000
0100
,
0001
0010
0001
0100
0010
1000
0010
0100
,
0001
0010
0001
0100
0010
1000
0010
0100
,
0001
0010
0100
1000
0001
0100
0010
1000
,
0001
0100
1000
0100
0001
0010
1000
0100
;

//---------------dance-single - ----------------
#NOTES:
     dance-single:
     :
     Easy:
     12:
     0.653,0.776,0.379,0.168,0.021:
0000
0000
0000
0000
,
0000
0000
0000
0000
,
0000
0000
0000
0000
,
0000
0000
0000
0000
,
0000
0000
0000
0000
0000
0000
1000
1000
,
0100
0000
0010
0100
1000
0000
0010
0100
,
0001
0010
0100
1000
0001
0000
0100
0100
,
0010
0000
1000
0100
0010
0100
1000
0000
,
1000
0000
0010
0100
0010
0100
0001
0001
,
0010
0100
1000
1000
0010
0000
1000
1000
,
0100
0010
0001
0001
0100
0000
0010
0010
,
1000
0000
0010
0010
0001
0000
0100
0100
,
1000
0000
0100
0100
0001
0000
0010
0100
,
1000
0001
0010
0100
1000
0001
0100
1000
,
0010
0001
0100
1000
0010
0001
0200
0000
,
0000
0000
0000
0000
,
0000
0000
0300
0000
0010
1000
0010
1000
,
0001
0010
0001
0010
0100
1000
0100
1000
,
0001
0010
0001
0000
1000
0100
1000
0100
,
0010
0001
0010
0001
1000
0010
1000
0010
,
0100
0001
0100
0000
0010
1000
0100
0000
,
0010
0001
0100
0000
0010
1000
0100
0000
,
0010
0001
0100
0000
0010
1000
0001
0000
,
0010
0001
1000
0000
0010
1000
0001
0000
,
0010
0001
1000
0000
0100
1000
0001
0000
,
0100
0001
1000
0000
0100
1000
0001
0000
,
0100
0001
1000
0000
0010
0100
0001
0001
,
0000
0100
0100
0100
0010
0000
0100
0001
,
0000
0100
0010
0100
0001
0001
0020
0000
,
0130
0100
2000
3002
0103
0100
0020
0000
,
1030
1000
0002
0023
0130
0100
2000
0000
,
3010
0010
0200
0302
0013
0010
0200
0000
,
1300
0100
0001
0100
1000
1000
0020
0000
,
0130
0100
0002
0023
0130
0100
2000
0000
,
3001
0100
1000
0100
0001
0001
0020
0000
,
1030
1000
0020
0000
0031
0100
1000
0100
,
0001
0010
1000
0010
0002
0000
0013
0100
,
1000
0100
0010
0001
0000
0010
0000
0100
,
0000
1000
0000
0100
0000
0010
0000
0001
,
0000
0000
0000
0000
0010
0010
0000
0000
,
0000
0100
1000
0001
0000
0100
0000
1000
,
0000
0100
0000
0001
0000
0010
0000
0100
,
0000
1000
0000
0010
0000
0010
0000
0010
,
0000
0010
0000
0010
0000
0010
0000
0010
,
0000
0110
0000
1000
0000
1000
0000
1000
,
0000
1000
0000
1000
0000
1000
0000
1000
,
0000
1001
0000
0010
0000
0010
0000
0010
,
0000
1001
0000
0100
0000
0100
0000
0100
,
0000
0110
0000
0001
0000
0110
0000
0010
,
0000
1001
0000
0100
0000
0110
0000
1000
,
0000
1001
0000
0110
0000
0110
0000
0110
,
0000
0110
0000
1001
0000
1001
0000
1001
,
0000
0110
0000
0001
0000
0010
0000
0100
,
0000
1000
0000
0001
0000
0010
0000
0100
,
0000
0100
0000
1000
0000
0000
0000
0000
0000
0001
0000
0000
0000
0000
0000
0110
0000
0000
0000
0000
0000
1000
0000
0000
,
0000
0110
0000
1001
0000
1001
0000
1001
,
0000
1001
0000
0010
0000
1001
0000
0100
,
0000
1001
0000
0110
0000
0110
0000
0110
,
0000
0110
0000
2002
0000
0000
0000
0000
,
0000
0000
0000
3003
,
0010
1000
0100
0010
0001
0100
0010
0000
,
0100
0001
0010
0000
0110
0000
1001
0000
,
1000
0100
0010
0001
0010
0100
1000
0000
,
0001
0100
0010
0000
0110
0000
1001
0000
,
0010
1000
0100
0000
0010
0001
0100
0000
,
1000
0100
0001
0010
1000
0010
0001
0000
,
0100
0010
1000
0000
0100
0010
0001
0000
,
0100
1000
0100
0001
0010
0100
1000
0000
,
0001
0100
0001
0100
0010
0100
0010
0100
,
0001
0100
0010
0000
0100
0001
0010
0000
,
0100
1000
0100
1000
0100
0010
0100
0010
,
0100
1000
0010
0000
0100
0010
1000
0000
,
0001
1000
0001
1000
0010
0100
0010
0100
,
0001
0010
0100
1000
0010
0100
0001
0000
,
1000
0100
0010
0100
1000
0001
0100
0010
,
1000
0100
0010
0001
1000
0100
0010
0001
,
0100
0110
0010
0110
,
1001
1001
1001
1001
,
0010
0110
0100
0110
,
1001
1001
1001
1001
,
0010
1000
0100
0010
0001
0100
0010
0000
,
0100
0001
0010
0100
1000
0010
0100
0000
,
0001
0000
0001
0100
0000
0000
1000
0000
1000
0100
0000
0000
,
0001
0000
0001
0010
0000
0000
1000
0000
1000
0010
0000
0000
,
0001
0100
0010
0100
0001
0100
0010
0100
,
0001
1000
0100
1000
0001
1000
0100
1000
,
0001
0010
0100
1000
0001
0010
0100
1000
,
0001
0100
0010
1000
0001
0100
0010
1000
;

//---------------dance-single - ----------------
#NOTES:
     dance-single:
     :
     Beginner:
     9:
     0.502,0.554,0.135,0.050,0.000:
0000
0000
0000
0000
,
0000
0000
0000
0000
,
0000
0000
0000
0000
,
0000
0000
0000
0000
,
0000
0000
0000
0010
,
0010
0000
0100
0001
0100
0000
0010
0000
,
0010
1000
1000
0001
,
0001
0000
0010
0100
0010
0000
0001
0000
,
0001
1000
1000
0010
,
0010
0000
0100
0001
0100
0000
0010
0000
,
0010
0000
0100
0001
0100
0000
0010
0000
,
0010
1000
1000
0001
,
0001
0000
0010
0000
0010
0000
0100
0100
,
0000
0000
1000
1000
0000
0000
0001
0001
,
0001
0000
0100
0100
0100
0000
0020
0000
,
0000
0000
0000
0000
,
0000
0030
1000
1000
,
0001
0001
0100
0100
,
0010
0010
1000
0100
,
0010
0001
1000
0010
,
0100
0001
0010
0000
0100
0000
1000
0000
,
0010
0100
0010
1000
,
0100
0010
0100
0000
1000
0000
0001
0000
,
0100
0010
0100
0001
,
0010
0100
0010
0000
0001
0000
1000
0000
,
0100
0010
0001
0100
,
0010
1000
0001
0000
0100
0000
0010
0000
,
1000
0001
0010
0000
0100
0000
1000
0100
,
0000
1000
0100
0000
0010
0000
0001
0000
,
0100
0000
0010
0100
0001
0000
1000
0000
,
0100
0000
1000
0001
0100
0000
0010
0000
,
1000
0000
0100
1000
0010
0000
0100
0000
,
0001
1000
0100
0000
0100
0000
1000
0000
,
0010
0100
0001
0000
0010
0000
0100
0000
,
1000
0100
0010
0001
0100
0000
0100
0000
,
0001
0010
0001
0000
1000
0100
1000
0000
,
0001
0000
0100
0010
1000
0000
0001
0000
,
0010
0100
0010
0100
0000
1000
0000
0010
,
0000
0100
0000
0001
0000
0010
0000
0110
,
0000
0000
0000
0000
,
0000
1000
0100
0010
0000
0001
0000
0100
,
0000
0010
0000
1000
0000
0100
0000
0010
,
0000
0001
0000
0100
0000
0001
0000
0100
,
0000
0001
0000
0100
0000
0001
0000
0100
,
0000
0001
1000
0100
0000
0010
0000
0100
,
0000
0010
0000
0100
0000
0010
0000
0100
,
0000
0010
0001
1000
0000
0010
0000
1000
,
0000
0100
0000
1000
0000
0010
0000
1000
,
0000
0100
0010
0001
0000
0001
0000
1000
,
0000
1000
0000
0010
0100
0010
0100
0010
,
0100
0010
0000
1000
0000
1000
0000
0001
,
0000
0001
0000
0110
0000
0110
0000
1001
,
0000
1001
0000
0001
0000
0010
0000
0100
,
0000
1000
0000
0100
0000
0010
0000
0001
,
0000
1000
0000
1000
0000
1001
0000
0001
,
0000
1001
0000
0110
0000
0110
0000
0110
,
0000
0110
0000
1000
0000
0010
0000
0100
,
0000
0001
0000
0010
0000
0100
0000
1000
,
0001
0010
0100
2000
0000
0000
0000
0000
,
0000
0000
0000
3000
,
0010
0000
1000
0000
0010
1000
0100
0000
,
0010
0100
1000
0001
0100
0000
0010
0000
,
0100
0001
1000
0000
0100
1000
0001
0000
,
0010
0001
0100
0000
0010
0000
0110
0000
,
1000
0010
0100
0000
0001
0010
0100
0000
,
1000
0001
0100
0000
0010
0000
0110
0000
,
1000
0100
1000
0000
0001
0100
0001
0000
,
1000
0100
0010
0001
0100
0010
0100
0000
,
0001
0100
0010
0110
,
1000
0100
0010
0000
0001
0100
0010
0000
,
1000
0100
0010
0110
,
0001
0100
0010
0000
1000
0100
0010
0000
,
0001
1000
0010
0110
,
1000
0100
0001
0000
0001
0100
1000
0000
,
0001
0100
1000
0100
0001
0000
0010
0000
,
1000
0010
0001
0010
0100
0000
1000
0000
,
0020
1030
0200
0301
,
0010
0000
1000
0000
0001
0010
0100
0000
,
2000
3100
0020
0031
,
1000
0000
0100
0000
0001
0100
0010
0000
,
0001
0100
1000
0000
0100
0010
1000
0000
,
0100
0001
0100
1000
0010
0100
0001
0000
,
1000
0010
1000
0010
0100
0001
0100
0000
,
0001
0010
0001
0010
0100
1000
0010
0000
,
1000
0100
1000
0000
0001
0100
0001
0000
,
1000
0010
1000
0000
0001
0010
0001
0000
,
1000
0010
0100
0000
0001
0010
0100
0000
,
1000
0100
0001
0000
1000
0010
0001
0100
;

//---------------dance-double - ----------------
#NOTES:
     dance-double:
     :
     Hard:
     18:
     0.954,0.964,0.177,0.084,1.000: // measure 1
00000000
00000000
00000000
00000000
,  // measure 2
00000000
00000000
00000000
00000000
,  // measure 3
00000000
00000000
00000000
00000000
,  // measure 4
00000000
00000000
00000000
00000000
,  // measure 5
00000000
00000000
00000000
00000000
,  // measure 6
10010000
00000000
10010000
00000000
01000000
00000000
00100000
00001000
00100000
00001000
00100000
00000000
00001000
00000000
00010000
00000000
,  // measure 7
00000100
00000000
00000100
00000000
00001000
00000000
00000010
00000100
00000010
00000100
00000010
00000000
00001000
00000000
00000001
00000000
,  // measure 8
00000101
00000000
00000101
00000000
00000100
00000000
00000010
00001000
00000010
00001000
00000010
00000000
00001000
00000100
00001000
00000000
,  // measure 9
00000100
00000000
00010000
00001000
00010000
00000000
00001000
01000000
00100000
00000000
00100000
00000000
00100000
00000000
00100000
00000000
,  // measure 10
10100000
00000000
10100000
00000000
10000000
00000000
01000000
00100000
01000000
00100000
01000000
00000000
00010000
00000000
00001000
00000000
,  // measure 11
00001100
00000000
00001100
00000000
00000100
00000000
00000010
00010000
00000010
00010000
00000010
00000000
00001000
00000000
01000000
00000000
,  // measure 12
01100000
11000000
10000000
00000000
10100000
01100000
01000000
00000000
,  // measure 13
01001000
00011000
00010000
00000000
00010100
00001100
00001000
00000000
,  // measure 14
00000001
00000100
00000001
00000100
00001000
00010000
00001000
00010000
,  // measure 15
01000000
10000000
01000000
10000000
01000000
10000000
01000000
10000000
00010000
00100000
00010000
00100000
00010000
00100000
00010000
00100000
,  // measure 16
00002000
00000000
00000000
00000000
,  // measure 17
00000000
00000000
00000000
00000000
00000000
00000000
00013000
01000000
,  // measure 18
10000000
01000000
00100000
01000000
10000000
01000000
00001000
00000100
,  // measure 19
00000001
00000100
00000010
00000100
00000001
00000100
00010000
00100000
,  // measure 20
10000000
00100000
01000000
00100000
00010000
00100000
00001000
00000010
,  // measure 21
00000100
00000010
00000001
00000010
00000100
00000010
00001000
00000100
,  // measure 22
00000010
00000100
00000001
00000100
00000010
00000100
00001000
00010000
,  // measure 23
00100000
01000000
00100000
00010000
00100000
01000000
10000000
00100000
,  // measure 24
01000000
00100000
00010000
00100000
01000000
00100000
10000000
01000000
,  // measure 25
00010000
00001000
00010000
00001000
00000100
00000001
00001000
00000100
,  // measure 26
00001000
00000100
00010000
00001000
00010000
00001000
00100000
00010000
,  // measure 27
00100000
00010000
01000000
00100000
01000000
00100000
10000000
10000000
,  // measure 28
01000000
00100000
00001000
00010000
00010000
00000100
00000010
00000001
,  // measure 29
00000001
00000000
00000100
00000000
00001000
00000000
00001000
00000000
00000100
00000000
00000001
00000000
00001000
00000000
00000100
00010000
,  // measure 30
00001000
00000000
00001000
00010000
00000100
00000000
00001000
00000100
00010000
00000000
00010000
00000000
00001000
00000000
01000000
00100000
,  // measure 31
10000000
00000000
10000000
00100000
01000000
00000000
00100000
10000000
01000000
00000000
01000000
00000000
00100000
00000000
00001000
00010000
,  // measure 32
00000100
00000000
00000100
00010000
00001000
00000000
00010000
00000100
00001000
00000000
00001000
00000000
00000010
00000000
00000100
00000001
,  // measure 33
00001000
00000000
00001000
00000001
00000100
00000000
00000100
00000000
00000010
00001000
00000100
00000010
00000001
00000000
00001000
00000100
,  // measure 34
00010000
00000000
00001000
00000000
01000000
00010000
01000000
00010000
10000000
00100000
10000000
00100000
01000000
00000000
00010000
00100000
,  // measure 35
01000000
00000000
01000000
00000000
10000000
00100000
10000000
00100000
10000000
00000000
01000000
00000000
00100000
00000000
00001000
00010000
,  // measure 36
00001000
00000000
00000100
00000000
00000010
00001000
00000010
00001000
00000001
00000000
00000010
00000000
00000100
00001000
00000100
00000000
,  // measure 37
00010000
00001000
00010000
00000000
00001000
00000000
01000000
00000000
00010000
00100000
01000000
10000000
00200000
00000000
00000000
00000000
,  // measure 38
01300000
01000000
00010000
00100000
00001000
00010000
00001000
00010000
,  // measure 39
00000000
00000100
00000000
00010000
00001000
00010000
00000000
01000000
,  // measure 40
00000000
00002000
00000000
00000000
00000000
00003000
00000000
00000000
,  // measure 41
00000000
00000000
00000000
00000000
00000000
00000000
00000100
00000010
00000100
00000000
00001000
00000000
00000001
00000000
00000100
00000000
,  // measure 42
00000010
00010000
00001000
00010000
01000000
10000000
00010000
02000000
,  // measure 43
00000000
00000000
00000000
03200000
00000000
00000000
00000000
00000000
00000000
20300000
00000000
00000000
00000000
00000000
00000000
30010000
00000000
00000000
00000000
00010000
00000000
01000000
00000000
00000000
,  // measure 44
00000000
01000000
00000000
00100000
00000000
00000000
00000000
00100000
00000000
10000000
00000000
00000000
00000000
10000000
00000000
01000000
00000000
00000000
00000000
01000000
00000000
00010000
00000000
00000000
,  // measure 45
00000000
00010000
00000000
00001000
00000000
00000000
00000000
00001000
00000000
00000100
00000000
00000010
00000000
00001000
00000000
00000100
00000000
00000000
00000000
00000100
00000000
00000010
00000000
00000000
,  // measure 46
00000000
00000010
00000000
00000001
00000000
00000000
00000000
00000001
00000000
00000100
00000000
00000000
00000000
00000100
00000000
00001000
00000000
00000000
00000000
00001000
00000000
00010000
00000000
00000000
,  // measure 47
00000000
00010000
00000000
00100000
00000000
00000000
00000000
00100000
00000000
10000000
00000000
00010000
00000000
10000000
00000000
01000000
00000000
00000000
00000000
01000000
00000000
00100000
00000000
00000000
,  // measure 48
00000000
00100000
00000000
00001000
00000000
00000000
00000000
00001000
00000000
00000100
00000000
00000000
00000000
00000100
00000000
00000010
00000000
00000000
00000000
00000010
00000000
00001000
00000000
00000000
,  // measure 49
00000000
00001000
00000000
00000001
00000000
00000010
00000000
00000100
00000000
00001000
00000000
00000000
00000000
00001000
00000000
00000010
00000000
00000000
00000000
00000010
00000000
00000100
00000000
00000000
,  // measure 50
00000000
00000100
00000000
00000001
00000000
00000000
00000000
00000001
00000000
00000100
00000000
00000000
00000000
00000100
00000000
00001000
00000000
00000000
00000000
00001000
00000000
00010000
00000000
00000000
,  // measure 51
00000000
00010000
00000000
01000000
00000000
10000000
00000000
01000000
00000000
00200000
00000000
00320000
00000000
00230000
00000000
00301000
00000000
00000000
00000000
00000000
00000000
00011000
00000000
00000000
,  // measure 52
00000000
00010000
00000000
00010100
00000000
00000100
00000000
00000110
,  // measure 53
00000000
00000000
00000000
00000010
00000000
00000000
00000000
00000000
00000000
00000001
00000000
00000100
00000000
00000010
00000000
00001000
00000000
00000100
00000000
00001000
00000000
00000001
00000000
00000100
,  // measure 54
00000000
00000001
00000000
00000010
00000000
00000100
00000000
00000010
00000000
00001000
00000000
00010000
00000000
00001000
00000000
01000000
00000000
00100000
00000000
01000000
00000000
00010000
00000000
00100000
,  // measure 55
00000000
00010000
00000000
10000000
00000000
01000000
00000000
10000000
00000000
00010000
00000000
01000000
00000000
00010000
00000000
10000000
00000000
00000000
00000000
10000000
00000000
01000000
00000000
00000000
,  // measure 56
00000000
00000000
00000000
01100000
00000000
00000000
00000000
00000000
00000000
00100000
00000000
00001000
00000000
00010000
00000000
00000010
00000000
00000000
00000000
00000100
00000000
00001000
00000000
00010000
,  // measure 57
00000000
01000000
00000000
10000000
00000000
00000000
00000000
00000000
00000000
10010000
00000000
00000000
00000000
00000000
00000000
00010000
00000000
00000000
00000000
00010000
00000000
01000000
00000000
00000000
,  // measure 58
00000000
01000000
00000000
00001000
00000000
00000000
00000000
00001000
00000000
00010000
00000000
00000000
00000000
00010000
00000000
00000100
00000000
00000010
00000000
00000001
00000000
00000100
00000000
00000010
,  // measure 59
00000000
00001000
00000000
00000100
00000000
00010000
00000000
00001000
00000000
00100000
00000000
00010000
00000000
01000000
00000000
00200000
00000000
00000000
00000000
00000000
00000000
00000000
00000000
00000000
,  // measure 60
00000000
00000000
00000000
00000000
,  // measure 61
00300000
00000000
00000000
00000000
10000000
00000000
10000000
00000000
00010000
00000000
01000000
00100000
01000000
00100000
01000000
00000000
,  // measure 62
00001000
00000000
00000100
00000000
00000010
00010000
00000010
00000000
00001000
00000000
01000000
00100000
01000000
00100000
01000000
00000000
,  // measure 63
00010000
00001000
00010000
00000000
00000100
00000000
00000100
00000000
00000010
00000000
00000001
00001000
00000001
00001000
00000001
00000000
,  // measure 64
00000100
00000010
00000100
00000000
00000010
00000000
00010000
00000000
00001000
00000000
01000000
00010000
01000000
00010000
01000000
00000000
,  // measure 65
00010000
00100000
00010000
00000000
10000000
00000000
10000000
00000000
01000000
00000000
00100000
00001000
00100000
00001000
00100000
00000000
,  // measure 66
00001000
00010000
00001000
00000000
00000100
00000000
00000010
00000000
00010000
00000000
00001000
01000000
00001000
01000000
00001000
00000000
,  // measure 67
00100000
00010000
00100000
00000000
01000000
00000000
10000000
00000000
00100000
00000000
01000000
00010000
01000000
00010000
01000000
00000000
,  // measure 68
00010000
00100000
00010000
00000000
00100000
00001000
00100000
00001000
00100000
00000000
00001000
00000000
00010000
00000100
00010000
00000000
,  // measure 69
00000010
00000000
00000000
00001000
00000000
00000000
00000010
00000000
00000000
00000000
00000000
00000000
00000100
00000000
00000000
00000000
00001000
00000000
00000000
00000000
00010000
00000000
00000000
00000000
00100000
00000000
00000000
00000000
00010000
00000000
00000000
00000000
00001000
00000000
00000000
00000000
00000100
00000000
00000000
00000000
00001000
00000000
00000000
00000000
00010000
00000000
00000000
00000000
,  // measure 70
00100000
00010000
00001000
00000100
00001000
00010000
00100000
00010000
00001000
00000100
00001000
00010000
,  // measure 71
00001000
00010000
00100000
10000000
01000000
00010000
00001000
00010000
01000000
10000000
01000000
00010000
,  // measure 72
00001000
00000100
00000001
00001000
00000100
00000010
00000001
00000010
00000100
00001000
00000001
00000010
,  // measure 73
00000100
00010000
00001000
01000000
00100000
10000000
00010000
10000000
00100000
01000000
00100000
10000000
,  // measure 74
00010000
10000000
00100000
01000000
00001000
00010000
00000010
00010000
00001000
01000000
00001000
00010000
,  // measure 75
00000010
00010000
00001000
01000000
00100000
10000000
01000000
00100000
00001000
00010000
00000100
00000010
,  // measure 76
00000001
00000100
00000010
00001000
00000100
00001000
00000100
00010000
00000100
00010000
00001000
00010000
,  // measure 77
00001000
01000000
00001000
01000000
00100000
01000000
00100000
01000000
00000000
00010000
10000000
00010000
,  // measure 78
10000000
00010000
00000000
10000000
01000000
00100000
00001000
00010000
00000100
00001000
00000100
00010000
,  // measure 79
00001000
00100000
01000000
10000000
00010000
10000000
00010000
10000000
00000000
01000000
00100000
01000000
,  // measure 80
00100000
01000000
00000000
00100000
00001000
00010000
00001000
00010000
00000100
00001000
00000100
00010000
,  // measure 81
00001000
00000000
00000000
00000000
00100000
00000000
00000000
00000000
00010000
00000000
00000000
00000000
01000000
00000000
00000000
00000000
00000000
00000000
01000000
00000000
00000000
00000000
00000000
00000000
00100000
00000000
00000000
00000000
00000000
00000000
10000000
00000000
00000000
01000000
00000000
00000000
10000000
00000000
00000000
01000000
00000000
00000000
10000000
00000000
00000000
00000000
00000000
00000000
,  // measure 82
00010000
01000000
00010000
00000000
00100000
00001000
00100000
00000000
00001000
00000000
00010000
00000100
00010000
00000100
00010000
00000000
,  // measure 83
00000010
00000000
00000000
00000100
00000000
00000000
00000010
00000000
00000000
00000000
00000000
00000000
00001000
00000000
00000000
00000000
00000100
00000000
00000000
00000000
00000010
00000000
00000000
00000000
00000001
00000000
00000000
00000000
00000010
00000000
00000000
00000000
00000100
00000000
00000000
00000000
00001000
00000000
00000000
00000000
00000010
00000000
00000000
00000000
00000100
00000000
00000000
00000000
,  // measure 84
00000001
00000100
00000010
00010000
00001000
01000000
00100000
01000000
00001000
00010000
01000000
10000000
,  // measure 85
00100000
00000000
10000000
00000000
01000000
00000000
00010000
00000000
00000000
00001000
00000000
00000000
00010000
00000000
00000000
00001000
00000000
00000000
00000100
00000000
00000000
00000010
00000000
00000000
,  // measure 86
00000100
00000010
00000001
00001000
00000001
00001000
00010000
10000000
,  // measure 87
00010000
10000000
01000000
00100000
01000000
00100000
00010000
00001000
,  // measure 88
00010000
00001000
00000010
00000100
00000010
00000100
00001000
00000001
,  // measure 89
00001000
00000001
00000000
00000000
00000000
00000000
00000000
00000000
;

//---------------dance-double - ----------------
#NOTES:
     dance-double:
     :
     Medium:
     15:
     0.666,0.704,0.202,0.034,0.252: // measure 1
00000000
00000000
00000000
00000000
,  // measure 2
00000000
00000000
00000000
00000000
,  // measure 3
00000000
00000000
00000000
00000000
,  // measure 4
00000000
00000000
00000000
00000000
,  // measure 5
00000000
00000000
00000000
00000000
,  // measure 6
00001000
00011000
00010000
00000000
00000100
00001000
00000010
00000000
,  // measure 7
00000100
00000001
00000100
00001000
00010000
00100000
10000000
00000000
,  // measure 8
00010000
01010000
01000000
00000000
00001000
00010000
00001000
00010000
,  // measure 9
00000100
00001000
00000100
00001000
00000010
00000010
00000010
00000010
,  // measure 10
00000100
00000101
00000001
00000000
00001000
00000100
00010000
00001000
,  // measure 11
01000000
01010000
00010000
00000000
00100000
01000000
10000000
01000000
,  // measure 12
00010000
00011000
00001000
00000000
00000100
00000110
00000010
00000000
,  // measure 13
00001000
00001001
00000001
00000000
00000010
00000110
00000100
00000000
,  // measure 14
00010000
00001000
00010000
00001000
00100000
01000000
00100000
01000000
,  // measure 15
10000000
00010000
01000000
00100000
10000000
01000000
00010000
00001000
,  // measure 16
00000200
00000000
00000000
00000000
,  // measure 17
00000000
00000000
00000000
00000000
00000000
00000000
00000310
00001000
,  // measure 18
00000100
00001000
00000010
00001000
00000100
00001000
00010000
00100000
,  // measure 19
01000000
00100000
00010000
00100000
01000000
00100000
00010000
01000000
,  // measure 20
10000000
01000000
00010000
01000000
10000000
01000000
00100000
00010000
,  // measure 21
00001000
00010000
00100000
00010000
00001000
00010000
01000000
10000000
,  // measure 22
00100000
00000000
01000000
00010000
00100000
00000000
00001000
00010000
,  // measure 23
00000100
00000000
00001000
00000010
00000100
00000000
00000001
00000010
,  // measure 24
00000100
00000000
00001000
00010000
00100000
00000000
01000000
10000000
,  // measure 25
00010000
00000000
01000000
00100000
10000000
00000000
01000000
00100000
,  // measure 26
00001000
00000000
00010000
00000010
00000100
00000000
00000001
00001000
,  // measure 27
00000100
00000000
00000010
00000001
00000100
00000010
00000010
00000000
,  // measure 28
00001000
00000100
00000000
00010000
00001000
00010000
00001000
00000000
,  // measure 29
01000000
00010000
00000000
10000000
01000000
00000000
00100000
00010000
,  // measure 30
01000000
00000000
00100000
01000000
00100000
00000000
01000000
00000000
00010000
00000000
00100000
00000000
00001000
00000000
00010000
00000000
,  // measure 31
00000100
00000000
00001000
00000100
00001000
00000000
00000100
00000000
00010000
00000000
00001000
00000000
00000100
00000000
00000010
00000000
,  // measure 32
00001000
00000000
00000010
00000100
00000010
00000000
00001000
00000000
00000010
00000000
00000100
00000000
00000001
00000000
00000010
00000000
,  // measure 33
00000100
00000000
00000010
00000100
00000010
00000000
00000100
00000000
00000010
00000000
00000001
00000000
00001000
00000000
00000100
00000000
,  // measure 34
00010000
00000000
00001000
00010000
00001000
00000000
01000000
00000000
00100000
00000000
10000000
00000000
00010000
00000000
01000000
00000000
,  // measure 35
00100000
00000000
10000000
00010000
10000000
00000000
00100000
00000000
00010000
00000000
00010000
00000000
00001000
00000000
00000100
00000000
,  // measure 36
00000010
00000000
00001000
00000001
00001000
00000000
00000001
00000000
00000010
00000000
00000010
00000000
00000100
00000000
00020000
00000000
,  // measure 37
00000000
00000000
00030000
00000000
00001000
00000000
01000000
00000000
00010000
10000000
00010000
00000000
00200000
00000000
00000000
00000000
,  // measure 38
00000000
00300000
01000000
00000000
01000000
01000000
00000000
00010000
,  // measure 39
00000000
00001000
00000000
00000100
00000000
00001000
00000000
00010000
,  // measure 40
00000000
00011000
00000000
00000000
00000000
00000000
00000000
00000000
,  // measure 41
00000000
00000000
00000000
00001000
00100000
00001000
00000000
00000100
,  // measure 42
00000000
00000010
00000000
00001000
00000000
00000001
00000000
00000100
,  // measure 43
00000000
00000010
00000000
00001000
00000000
00000100
00000000
00000010
,  // measure 44
00000000
00000001
00000000
00000010
00000000
00000100
00000000
00000010
,  // measure 45
00000000
00000001
00000000
00000100
00000000
00000110
00000000
00000010
,  // measure 46
00000000
00010000
00000000
00001000
00000000
00010000
00000000
00000010
,  // measure 47
00000000
00010000
00000000
00001000
00000000
01001000
00000000
01000000
,  // measure 48
00000000
00010000
00000000
00100000
00000000
00010000
00000000
01000000
,  // measure 49
00000000
00100000
00000000
10000000
00000000
01000000
00000000
00100000
,  // measure 50
00000000
00001000
00000000
00010000
00000000
00000100
00000000
00000010
,  // measure 51
00000000
00000001
00000000
00000101
00000000
00001000
00000000
00001100
,  // measure 52
00000000
00000100
00000000
00010100
00000000
00010000
00000000
00011000
,  // measure 53
00000000
00001000
00000000
01001000
00000000
01000000
00000000
00100000
,  // measure 54
00000000
10000000
00000000
01000000
00000000
00100000
00000000
00001000
,  // measure 55
00000000
00010000
00000000
00000100
00000000
00000010
00000000
00000011
,  // measure 56
00000000
00000001
00000000
00000101
00000000
00000100
00000000
00000110
,  // measure 57
00000000
00000010
00000000
00010010
00000000
00010000
00000000
00001000
,  // measure 58
00000000
00000000
00000000
01000000
00000000
00000000
00000000
00000000
00000000
00100000
00000000
00000000
00000000
00000000
00000000
10000000
00000000
00010000
00000000
10000000
00000000
00010000
00000000
00000000
,  // measure 59
00000000
00000000
00000000
01000000
00000000
00100000
00000000
01000000
00000000
00100000
00000000
00000000
00000000
00000000
00000000
20000000
00000000
00000000
00000000
00000000
00000000
00000000
00000000
00000000
,  // measure 60
00000000
00000000
00000000
00000000
,  // measure 61
30000000
00000000
00000000
00000000
00010000
00000000
00010000
00000000
01000000
00000000
00001000
00010000
00001000
00000000
00010000
00000000
,  // measure 62
00000100
00000000
00000100
00000000
00000010
00000001
00000010
00000000
00000001
00000000
00001000
00000000
00000010
00000000
00000100
00000000
,  // measure 63
00000001
00000000
00000000
00000000
00001000
00000000
00001000
00000000
00000100
00000000
00010000
00000000
00001000
01000000
00001000
00000000
,  // measure 64
00010000
00000000
01000000
00000000
10000000
00000000
00010000
00000000
01000000
00000000
00100000
00000000
10000000
00010000
10000000
00000000
,  // measure 65
01000000
00000000
00000000
00000000
00100000
00000000
00010000
00000000
01000000
00000000
00001000
00000000
00010000
00000100
00010000
00000000
,  // measure 66
00000100
00000000
00000010
00000000
00000001
00000000
00000100
00000000
00001000
00000000
00010000
00000000
00001000
00010000
00001000
00000000
,  // measure 67
01000000
00000000
00000000
00000000
00100000
00000000
10000000
00000000
00010000
00000000
00100000
00000000
00001000
00010000
00001000
00000000
,  // measure 68
00000100
00000000
00000010
00000000
00001000
00000000
00000001
00000000
00000010
00000000
00000100
00000000
00001000
00000001
00001000
00000000
,  // measure 69
00000001
00000000
00000000
00000100
00000000
00000100
00000010
00000000
00000010
00000100
00000000
00000100
,  // measure 70
00000010
00000000
00000010
00010000
00000000
00010000
00000010
00000000
00000010
00010000
00000000
00010000
,  // measure 71
00001000
00000000
00001000
01000000
00000000
01000000
00100000
00000000
00100000
10000000
00000000
10000000
,  // measure 72
00010000
00000000
00010000
00100000
00000000
00100000
01000000
00000000
01000000
10000000
00000000
10000000
,  // measure 73
00010000
00000000
00010000
01000000
00000000
01000000
00001000
00000000
00001000
00010000
00000000
00010000
,  // measure 74
00000010
00000000
00000010
00000100
00000000
00000100
00000001
00000000
00000001
00000010
00000000
00000010
,  // measure 75
00000100
00000000
00000100
00010000
00000000
00010000
00001000
00000000
00001000
00100000
00000000
00100000
,  // measure 76
00010000
00000000
00010000
01000000
00100000
01000000
00100000
00000000
00000000
10000000
00010000
10000000
,  // measure 77
00010000
10000000
11000000
00010000
,  // measure 78
01010000
00000000
00000000
10000000
00000000
10000000
01000000
00000000
01000000
00010000
00000000
00010000
,  // measure 79
00001000
00000000
00001000
00000100
00000000
00000000
00000101
00000000
00000000
00000010
00000000
00000000
,  // measure 80
00001010
00000000
00000000
00000001
00000000
00000001
00000100
00000000
00000100
00001000
00000000
00001000
,  // measure 81
00010000
00000000
00000000
00000000
00010000
00000000
01000000
00000000
00000000
10000000
00000000
00000000
00100000
00000000
00000000
00000000
00000000
00000000
01000000
00000000
00000000
00010000
00000000
00000000
,  // measure 82
00100000
00000000
00001000
00010000
00000100
00000000
00001000
00000010
,  // measure 83
00000100
00000000
00000001
00000010
00000100
00000010
00000001
00000100
,  // measure 84
00001000
00000100
00000010
00010000
00001000
00100000
00010000
01000000
,  // measure 85
00100000
10000000
00010000
01000000
00010000
01000000
00001000
00010000
,  // measure 86
00001000
00010000
00000100
00001000
00000100
00001000
00000010
00000100
,  // measure 87
00000010
00000100
00000001
00001000
00000001
00001000
00010000
00001000
,  // measure 88
00010000
00001000
00010000
10000000
00010000
10000000
01000000
00100000
,  // measure 89
01000000
00100000
00000000
00000000
00000000
00000000
00000000
00000000
;

//---------------dance-double - ----------------
#NOTES:
     dance-double:
     :
     Easy:
     11:
     0.541,0.630,0.194,0.025,0.046: // measure 1
00000000
00000000
00000000
00000000
,  // measure 2
00000000
00000000
00000000
00000000
,  // measure 3
00000000
00000000
00000000
00000000
,  // measure 4
00000000
00000000
00000000
00000000
,  // measure 5
00000000
00000000
00000000
00000000
,  // measure 6
10000000
10000000
00010000
00000000
01000000
00000000
00001000
00000000
,  // measure 7
00010000
00000100
00001000
00000000
00000010
00000000
00000100
00000000
,  // measure 8
00000001
00000001
00000010
00000000
00000001
00000000
00000100
00000000
,  // measure 9
00000010
00001000
00000100
00000000
00010000
00001000
00010000
00001000
,  // measure 10
01000000
01000000
00100000
00000000
10000000
00000000
00010000
00000000
,  // measure 11
00100000
00100000
00001000
00000000
00010000
00000000
00000100
00000000
,  // measure 12
00001000
00001000
00000010
00000000
00000100
00000100
00000001
00000000
,  // measure 13
00000010
00000010
00000100
00000000
00010000
00010000
00001000
00000000
,  // measure 14
01000000
00010000
01000000
00000000
00100000
10000000
00100000
00000000
,  // measure 15
10000000
01000000
00100000
00010000
10000000
01000000
00100000
00010000
,  // measure 16
20000000
00000000
00000000
00000000
,  // measure 17
00000000
00000000
00000000
30000000
,  // measure 18
00010000
01000000
00100000
10000000
,  // measure 19
00000000
01000000
00010000
00001000
,  // measure 20
00000000
00000100
00000000
00000001
,  // measure 21
00000000
00000000
00001000
00000000
00000000
00000000
00000001
00000010
,  // measure 22
00000100
00000000
00000010
00000000
00000001
00000000
00000100
00000010
,  // measure 23
00001000
00000000
00000100
00000000
00010000
00000000
00001000
00100000
,  // measure 24
00010000
00000000
01000000
00000000
00100000
00000000
10000000
01000000
,  // measure 25
00100000
00000000
00001000
00000000
00010000
00000000
00000100
00001000
,  // measure 26
00000010
00000000
00000100
00000001
00000010
00000000
00000100
00010000
,  // measure 27
00001000
00000000
01000000
00010000
00100000
00000000
01000000
00000000
,  // measure 28
10000000
00010000
00000000
01000000
00001000
01000000
00001000
00000000
,  // measure 29
00010000
00000100
00000000
00001000
00000010
00000000
00000100
00000001
,  // measure 30
00000010
00000100
00010000
00001000
00100000
00000000
00010000
01000000
,  // measure 31
00100000
10000000
01000000
00010000
00001000
00000000
00000100
00000010
,  // measure 32
00001000
00000100
00000010
00000001
00000100
00000000
00000010
00010000
,  // measure 33
00001000
00100000
00010000
01000000
00100000
00000000
10000000
01000000
,  // measure 34
00100000
00010000
00100000
01000000
10000000
00000000
01000000
00010000
,  // measure 35
00001000
00000100
00000010
00001000
00000001
00000000
00000100
00000010
,  // measure 36
00010000
00000000
00001000
00100000
00010000
00000000
01000000
00100000
,  // measure 37
10000000
01000000
00010000
00001000
00000100
00000000
00000020
00000000
,  // measure 38
00000000
00000000
00000000
00000000
00000000
00000130
00000000
00000001
,  // measure 39
00000000
00000100
00000000
00000010
00000000
00001000
00000000
00000010
,  // measure 40
00000000
00010000
00000000
00000000
00000000
00000000
00000000
00000000
,  // measure 41
00000000
00000000
00000000
00001000
00010000
00001000
00000000
01000000
,  // measure 42
00000000
00100000
00000000
10000000
00000000
00010000
00000000
00100000
,  // measure 43
00000000
01000000
00000000
10000000
00000000
00010000
00000000
00010000
,  // measure 44
00000000
10000000
00000000
10000000
00000000
00010000
00000000
00010000
,  // measure 45
00000000
10000000
00000000
01000000
00000000
00010000
00000000
00010000
,  // measure 46
00000000
00001000
00000000
00001000
00000000
00010000
00000000
00010000
,  // measure 47
00000000
00001000
00000000
00000100
00000000
00000001
00000000
00000001
,  // measure 48
00000000
00001000
00000000
00001000
00000000
00000001
00000000
00000001
,  // measure 49
00000000
00000010
00000000
00001000
00000000
00010000
00000000
00010000
,  // measure 50
00000000
00001000
00000000
00001000
00000000
00010000
00000000
00010000
,  // measure 51
00000000
00000000
00000000
00100000
00000000
00000000
00000000
00000000
00000000
10000000
00000000
00010000
00000000
10000000
00000000
00010000
00000000
00000000
00000000
00000000
00000000
01010000
00000000
00000000
,  // measure 52
00000000
10000000
00000000
11000000
00000000
00010000
00000000
01010000
,  // measure 53
00000000
10000000
00000000
11000000
00000000
01000000
00000000
00010000
,  // measure 54
00000000
00001000
00000000
00000010
00000000
00000001
00000000
00000100
,  // measure 55
00000000
00000000
00000000
00000010
00000000
00001000
00000000
00000010
00000000
00001000
00000000
00000000
00000000
00000000
00000000
00000001
00000000
00000000
00000000
00000000
00000000
00000101
00000000
00000000
,  // measure 56
00000000
00001000
00000000
00001100
00000000
00000001
00000000
00000101
,  // measure 57
00000000
00000000
00000000
00001000
00000000
00000100
00000000
00001000
00000000
00000100
00000000
00000000
00000000
00000000
00000000
00010000
00000000
00000000
00000000
00000000
00000000
00011000
00000000
00000000
,  // measure 58
00000000
00000000
00000000
00001000
00000000
00000000
00000000
00000000
00000000
01001000
00000000
00000000
00000000
00000000
00000000
01000000
00000000
00000000
00000000
01000000
00000000
00100000
00000000
00000000
,  // measure 59
00000000
00100000
00000000
10000000
00000000
00000000
00000000
10000000
00000000
00010000
00000000
10000000
00000000
00010000
00000000
02000000
00000000
00000000
00000000
00000000
00000000
00000000
00000000
00000000
,  // measure 60
00000000
00000000
00000000
00000000
,  // measure 61
03000000
00000000
00100000
10000000
01000000
00000000
00100000
00000000
,  // measure 62
00001000
00000000
00010000
00000100
00001000
00000000
00000010
00000000
,  // measure 63
00000100
00000000
00000001
00000010
00000100
00000000
00000010
00000001
,  // measure 64
00000100
00000000
00000010
00000000
00010000
00000000
00001000
01000000
,  // measure 65
00010000
00000000
00100000
01000000
10000000
00000000
01000000
00000000
,  // measure 66
00100000
00000000
00001000
00010000
00000100
00000000
00000010
00000000
,  // measure 67
00000001
00000000
00000100
00001000
00010000
00000000
01000000
10000000
,  // measure 68
00010000
00000000
10000000
01000000
00100000
00010000
00001000
00000100
,  // measure 69
00000010
00000001
00000101
00001000
,  // measure 70
00001100
00000001
00000101
00001000
,  // measure 71
00001100
00000000
00000100
00000000
00010000
00000000
00001000
01000000
,  // measure 72
00010000
00000000
00100000
01000000
10000000
01000000
00100000
00001000
,  // measure 73
00010000
00000100
00001100
00001000
,  // measure 74
00001010
00000000
00000010
00000100
00000001
00000000
00001000
00000100
,  // measure 75
00000010
00000000
00000001
00000100
00001000
00000000
00010000
00100000
,  // measure 76
10000000
00000000
00010000
10000000
00010000
10000000
01000000
00100000
,  // measure 77
00010000
01000000
01001000
00001000
,  // measure 78
00011000
00010000
00010100
00000100
,  // measure 79
00000110
00000010
00000011
00000001
,  // measure 80
00000101
00000100
00000110
00000010
,  // measure 81
00010010
00000000
00010000
00001000
01000000
00000000
00100000
10000000
,  // measure 82
01000000
00000000
00010000
00001000
00010000
00001000
00000100
00000010
,  // measure 83
00001000
00000000
00000001
00000010
00000100
00001000
00000100
00000010
,  // measure 84
00000001
00000000
00000100
00000010
00010000
00001000
01000000
00100000
,  // measure 85
10000000
00010000
00100000
01000000
00100000
01000000
10000000
00010000
,  // measure 86
10000000
00010000
01000000
00001000
01000000
00001000
00010000
00000010
,  // measure 87
00010000
00000010
00001000
00000100
00001000
00000100
00000010
00000001
,  // measure 88
00000010
00000001
00000100
00000010
00000100
00000010
00001000
00000001
,  // measure 89
00001000
00000001
00000000
00000000
00000000
00000000
00000000
00000000
;
