#TITLE:Fragrance;
#SUBTITLE:;
#ARTIST:矢鴇つかさ;
#TITLETRANSLIT:;
#SUBTITLETRANSLIT:;
#ARTISTTRANSLIT:Yatoki Tsukasa;
#GENRE:;
#CREDIT:Silverhawke;
#MENUCOLOR:;
#METERTYPE:DDR;
#BANNER:Fragrance.png;
#BACKGROUND:Fragrance-bg.png;
#LYRICSPATH:;
#CDTITLE:cdtitle.png;
#MUSIC:Fragrance.mp3;
#OFFSET:-0.028;
#SAMPLESTART:21.361;
#SAMPLELENGTH:15.000;
#SELECTABLE:YES;
#LISTSORT:;
#BPMS:0.000=180.000;
#STOPS:;
#BGCHANGES:;
#ATTACKS:;

//---------------dance-single - ----------------
#NOTES:
     dance-single:
     :
     Hard:
     12:
     0.563,0.653,0.145,0.205,0.030:
0000
0000
0000
0000
,
0000
0000
0000
0000
,
0000
0000
0000
0000
,
0000
0000
0000
0000
,
0000
0000
0000
0000
,
0000
0000
0000
0000
,
0000
0000
0000
0000
,
0000
0000
0000
0000
,
0100
0000
0001
1000
0000
1000
0100
0000
,
0010
0000
0001
0100
0000
0100
0010
0000
,
1000
0000
0001
0010
0000
0010
0100
0000
,
1000
0000
0010
0100
0000
0010
0001
0000
,
0010
0000
1000
0001
0000
0001
0010
0000
,
0100
0000
1000
0010
0000
0010
0100
0000
,
0001
0000
0010
0100
0000
0100
1000
0000
,
0001
0000
0100
0010
1000
0100
0010
0000
,
0002
0000
1003
0100
0000
0100
1000
0010
,
0000
0100
0001
0010
0100
1000
0001
0200
,
0000
0310
1000
0100
0000
0100
1000
0010
,
0000
0100
0001
1000
0100
0010
0001
0100
,
0020
0000
1030
0001
0000
0001
0100
0010
,
0000
0010
1000
0010
0100
0001
0010
0200
,
0000
1300
0010
0100
0000
0100
0001
1000
,
0000
0100
0010
0100
1000
0001
0101
0000
,
2000
0000
3010
0100
0000
0100
0001
1000
,
0000
1000
0100
0010
0001
0100
0010
2000
,
0000
3001
0010
0100
0000
0100
1000
0010
,
0000
0010
1000
0100
0010
0001
0100
0010
,
2000
0000
3100
0010
0000
0010
0001
0100
,
0000
0100
0010
1000
0001
1000
0100
0020
,
0000
0031
1000
0100
0000
0100
0010
0001
,
0000
0001
0100
0010
1000
0001
1001
0000
,
0100
0000
0010
0001
0000
1000
0000
0110
,
0000
0001
0000
1000
0010
0100
0001
0000
,
0010
0000
0100
1000
0000
0001
0000
0110
,
0000
1000
0000
0010
0100
0001
1000
0000
,
0100
0000
0010
0001
0000
0100
0000
1010
,
0000
0001
0000
1000
0100
0010
0001
0000
,
1000
0000
0010
0100
0000
0001
0000
1100
,
0000
0010
0000
0001
0100
0010
1000
0000
,
0001
0100
0001
0100
0010
0100
0001
0010
,
0000
0010
0100
1000
0001
0100
0000
0120
,
0000
1030
0100
0010
0000
0001
1000
0001
,
1000
0100
0010
0001
0100
0010
1000
0000
,
1002
0000
0013
0100
1000
0100
1000
0100
,
0001
0100
0010
0001
0100
0010
0000
2010
,
0000
3100
0010
0001
0000
0100
0010
1000
,
0001
1000
0100
0001
0100
1000
0001
0000
,
1000
0001
1000
0001
1000
0000
0001
1000
0002
0000
0000
0000
0103
0000
0010
0000
,
0000
0010
1000
0001
0010
0100
0000
1200
,
0000
0310
0001
0100
0000
1000
0100
0010
,
1000
0010
0100
0001
0010
0100
1000
0000
,
0201
0000
0310
1000
0000
0001
0010
0100
,
1000
0010
0100
1000
0100
0001
0000
0102
,
0000
0013
0100
1000
0000
0010
0100
0001
,
1000
0000
0100
0000
0001
0000
0100
0000
1000
0000
0010
0000
0100
0001
0100
0001
,
2000
0000
0000
0000
,
3000
0000
0000
0000
,
0200
0000
0000
0000
,
0000
0000
0000
0000
,
0300
0000
0000
0000
;

//---------------dance-single - ----------------
#NOTES:
     dance-single:
     :
     Medium:
     8:
     0.385,0.435,0.012,0.205,0.000:
0000
0000
0000
0000
,
0000
0000
0000
0000
,
0000
0000
0000
0000
,
0000
0000
0000
0000
,
0000
0000
0000
0000
,
0000
0000
0000
0000
,
0000
0000
0000
0000
,
0000
0000
0000
0000
,
0010
0000
1000
0000
0000
0010
0100
0000
,
0001
0000
0010
0000
0000
0100
0010
0000
,
0001
0000
1000
0000
0000
0010
0100
0000
,
0010
0000
1000
0000
0000
0100
0010
0000
,
0010
0000
0001
0000
0000
1000
0010
0000
,
1000
0000
0100
0000
0000
0010
0001
0000
,
0100
0000
0010
0000
0000
1000
0010
0000
,
0100
0000
0001
1000
0001
0000
1001
0000
,
2000
0000
0000
3001
0000
0100
0000
0010
,
0000
1000
0000
0100
0000
0010
0000
0002
,
0000
0003
0000
1000
0000
0010
0000
0100
,
0000
0010
0000
1000
0000
0001
1000
0000
,
0002
0000
0000
0013
0000
0100
0000
1000
,
0000
0010
0000
0100
0000
0010
0000
2000
,
0000
3000
0000
0001
0000
0100
0000
0001
,
0000
0010
0000
0100
0000
1000
0001
0000
,
0200
0000
0000
0310
0000
1000
0000
0010
,
0000
0100
0000
0001
0000
1000
0000
0200
,
0000
0300
0000
0010
0000
0001
0000
1000
,
0000
0001
0000
0010
0000
0100
1000
0000
,
0020
0000
0000
0130
0000
0001
0000
0100
,
0000
0010
0000
1000
0000
0001
0000
0020
,
0000
0030
0000
0100
0000
1000
0000
0010
,
0000
0100
0000
0001
0000
1000
0100
0000
,
1000
0000
0001
0010
0000
0100
0000
0010
,
0000
0001
0000
1000
0000
0010
0100
0000
,
0001
0000
1000
0100
0000
0010
0000
0100
,
0000
1000
0000
0010
0000
0100
0001
0000
,
1000
0000
0100
0010
0000
0100
0000
1000
,
0000
0010
0000
0100
0000
0001
0010
0000
,
0001
0000
0100
0010
0000
1000
0000
0100
,
0000
0010
0000
0100
0000
1000
0001
0000
,
0200
0000
0000
0310
0000
1000
0010
1000
,
0000
0001
0000
0100
0000
0010
1000
0020
,
0000
0030
0000
0100
0000
0001
0010
0001
,
0000
1000
0000
0100
0000
0010
0001
0000
,
2000
0000
0000
3010
0000
0100
0010
0100
,
0000
0001
0000
1000
0000
0100
0010
0200
,
0000
0300
0000
1000
0000
0001
0100
0001
,
0000
0010
0000
0100
0000
1000
0001
0000
,
0100
0100
0100
0000
0010
1000
0100
1000
,
0000
0010
0000
0100
0000
0001
0010
0002
,
0000
0003
0000
1000
0000
0100
0010
0100
,
0000
1000
0000
0010
0000
0100
0001
0000
,
2000
0000
0000
3100
0000
0010
0001
0010
,
0000
0100
0000
1000
0000
0010
0100
0020
,
0000
0030
0000
0100
0000
0001
1000
0001
,
0000
0010
0000
0100
0000
1000
0001
0000
,
0200
0000
0000
0000
,
0300
0000
0000
0000
,
0020
0000
0000
0000
,
0000
0000
0000
0000
,
0030
0000
0000
0000
;

//---------------dance-single - ----------------
#NOTES:
     dance-single:
     :
     Easy:
     5:
     0.250,0.285,0.000,0.024,0.000:
0000
0000
0000
0000
,
0000
0000
0000
0000
,
0000
0000
0000
0000
,
0000
0000
0000
0000
,
0000
0000
0000
0000
,
0000
0000
0000
0000
,
0000
0000
0000
0000
,
0000
0000
0000
0000
,
0001
0100
0000
0100
,
0010
0100
0000
0100
,
0010
1000
0000
1000
,
0100
0010
0000
0010
,
0001
1000
0000
1000
,
0010
0100
0000
0100
,
0001
1000
0000
1000
,
0100
0010
0100
1000
,
0001
0000
0000
0001
0000
0000
0001
0000
,
1000
0000
0100
0000
0010
0000
0000
0001
,
0000
0000
0000
0001
0000
0000
1000
0000
,
0010
0100
0010
0000
,
0100
0000
0000
0100
0000
0000
0100
0000
,
0001
0000
1000
0000
0100
0000
0000
0100
,
0000
0000
0000
0010
0000
0000
0001
0000
,
1000
0001
0100
0000
,
0010
0000
0000
1000
0000
0000
0010
0000
,
0100
0000
0001
0000
1000
0000
0000
0100
,
0000
0000
0000
0010
0000
0000
0100
0000
,
1000
0001
0100
0000
,
0001
0000
0000
1000
0000
0000
0001
0000
,
0100
0000
0010
0000
0100
0000
0000
0001
,
0000
0000
0000
0010
0000
0000
0100
0000
,
1000
0010
0100
0000
,
0001
0000
0000
1000
0000
0000
0000
0001
,
0000
0000
0000
1000
0000
0000
0001
0000
,
0100
0000
0000
0010
0000
0000
0000
0100
,
0000
0000
0000
0010
0000
0000
1000
0000
,
0100
0000
0000
0010
0000
0000
0000
0001
,
0000
0000
0000
0010
0000
0000
0100
0000
,
1000
0000
0000
0010
0000
0000
0000
0100
,
0000
0000
0000
0001
0000
0000
0010
0000
,
0100
0000
0000
1000
0000
0000
0100
0000
,
0010
0000
0001
0000
1000
0000
0000
0010
,
0000
0000
0000
0100
0000
0000
0010
0000
,
1000
0001
0010
0000
,
0001
0000
0000
1000
0000
0000
0001
0000
,
0010
0000
0100
0000
0010
0000
0000
0001
,
0000
0000
0000
0100
0000
0000
0010
0000
,
1000
0100
0010
0000
,
1000
0000
0000
0100
0000
0000
1000
0000
,
0001
0000
0010
0000
0100
0000
0000
0001
,
0000
0000
0000
1000
0000
0000
0001
0000
,
0100
0010
0001
0000
,
0010
0000
0000
0100
0000
0000
0010
0000
,
0001
0000
1000
0000
0001
0000
0000
0010
,
0000
0000
0000
1000
0000
0000
0001
0000
,
0100
1000
0001
0000
,
0020
0000
0000
0000
,
0030
0000
0000
0000
,
2000
0000
0000
0000
,
3000
0000
0000
0000
;

//---------------dance-single - ----------------
#NOTES:
     dance-single:
     :
     Beginner:
     1:
     0.093,0.140,0.000,0.012,0.000:
0000
0000
0000
0000
,
0000
0000
0000
0000
,
0000
0000
0000
0000
,
0000
0000
0000
0000
,
0000
0000
0000
0000
,
0000
0000
0000
0000
,
0000
0000
0000
0000
,
0000
0000
0000
0000
,
1000
0000
0000
0000
,
0000
0000
0000
0000
,
0001
0000
0000
0000
,
0000
0000
0000
0000
,
0100
0000
0000
0000
,
0000
0000
0000
0000
,
0010
0000
0000
0000
,
0000
0000
0000
0000
,
1000
0000
1000
0000
,
1000
0000
0000
0000
,
0001
0000
0000
0000
,
0001
0000
0000
0000
,
0100
0000
0100
0000
,
0100
0000
0000
0000
,
0010
0000
0000
0000
,
0010
0000
0000
0000
,
0100
0000
0100
0000
,
0100
0000
0000
0000
,
0001
0000
0000
0000
,
0001
0000
0000
0000
,
1000
0000
1000
0000
,
1000
0000
0000
0000
,
0100
0000
0000
0000
,
0100
0000
0000
0000
,
0010
0000
0000
0000
,
0001
0000
0000
0000
,
0100
0000
0000
0000
,
1000
0000
0000
0000
,
0010
0000
0000
0000
,
0001
0000
0000
0000
,
0100
0000
0000
0000
,
1000
0000
0000
0000
,
0010
0000
0010
0000
,
0010
0000
0000
0000
,
0100
0000
0000
0000
,
0100
0000
0000
0000
,
0001
0000
0001
0000
,
0001
0000
0000
0000
,
1000
0000
0000
0000
,
1000
0000
0000
0000
,
0200
0000
0300
0000
,
0100
0000
0000
0000
,
0010
0000
0000
0000
,
0010
0000
0000
0000
,
0001
0000
0001
0000
,
0001
0000
0000
0000
,
0100
0000
0000
0000
,
0100
0000
0000
0000
,
0010
0000
0000
0000
,
0000
0000
0000
0000
,
0100
0000
0000
0000
;

//---------------dance-double - ----------------
#NOTES:
     dance-double:
     :
     Hard:
     12:
     0.539,0.616,0.060,0.193,0.018:
00000000
00000000
00000000
00000000
,
00000000
00000000
00000000
00000000
,
00000000
00000000
00000000
00000000
,
00000000
00000000
00000000
00000000
,
00000000
00000000
00000000
00000000
,
00000000
00000000
00000000
00000000
,
00000000
00000000
00000000
00000000
,
00000000
00000000
00000000
00000000
,
00001000
00000000
01000000
00100000
00000000
00100000
10000000
00000000
,
01000000
00000000
00100000
00001000
00000000
00001000
00010000
00000000
,
00000100
00000000
00000010
00000001
00000000
00000001
00000100
00000000
,
00000010
00000000
00010000
00001000
00000000
00001000
00000100
00000000
,
00000010
00000000
00010000
00001000
00000000
01000000
00100000
00000000
,
10000000
00000000
01000000
00010000
00000000
00001000
00000100
00000000
,
00000010
00000000
00010000
00001000
00000000
00100000
01000000
00000000
,
00010000
00000000
00001000
00000100
00001000
00010000
00100000
10000000
,
00010000
00000000
01000000
00100000
00000000
10000000
01000000
00010000
,
00000000
00001000
00000100
00000010
00000000
00010000
00001000
00000200
,
00000000
00000310
00001000
00000100
00000000
00001000
00010000
00100000
,
00000000
00010000
01000000
00100000
10000000
01000000
00100000
00000000
,
00020000
00000000
01030000
00100000
00000000
10000000
01000000
00100000
,
00000000
00001000
00010000
00001000
00000000
00000100
00000010
00002000
,
00000000
00003001
00000010
00000100
00000000
00010000
00001000
01000000
,
00000000
00010000
00100000
01000000
10000000
00100000
01000000
00000000
,
10020000
00000000
00130000
00001000
00000000
00010000
00000100
00000010
,
00000000
00000001
00000100
00000010
00000000
00001000
00000100
00020000
,
00000000
00031000
01000000
00100000
00000000
10000000
01000000
00010000
,
00000000
00001000
00000100
00000010
00001000
00000100
00000001
00000000
,
00000200
00000000
00001300
00000100
00000000
00010000
00001000
01000000
,
00000000
00010000
00100000
01000000
00000000
00010000
00001000
00000200
,
00000000
00000310
00010000
00001000
00000000
00100000
01000000
10000000
,
00000000
01000000
00010000
00001000
00000100
00000010
00001000
00000000
,
00000001
00000000
00001000
00000100
00000000
00010000
00000000
00011000
,
00000000
00001000
00000000
01000000
00100000
10000000
01000000
00000000
,
00100000
00000000
00010000
01000000
00000000
00001000
00000000
00011000
,
00000000
00010000
00000000
00000100
00000010
00000001
00000100
00000000
,
00001000
00000000
00010000
01000000
00000000
00100000
00000000
00110000
,
00000000
00010000
00000000
10000000
00100000
00010000
00001000
00000000
,
00000100
00000000
00000010
00010000
00000000
00001000
00000000
01001000
,
00000000
01000000
00000000
00100000
10000000
01000000
00010000
00000000
,
00002000
00000000
00003100
00000010
00000000
00001000
00000100
00000010
,
00000001
00000100
00001000
00010000
00100000
10000000
00010000
00200000
,
00000000
01300000
10000000
00010000
00000000
01000000
00001000
00010000
,
00000100
00000010
00000100
00001000
00000010
00000100
00000001
00000000
,
00002000
00000000
00003100
00010000
00000000
00001000
01000000
00010000
,
00100000
01000000
10000000
01000000
00010000
00001000
00000100
00000020
,
00000000
00001030
00000100
00010000
00000000
00001000
01000000
00010000
,
00000000
00001000
00000010
00000100
00001000
00010000
00100000
00000000
,
10000000
00010000
10000000
00010000
10000000
00000000
00010000
10000000
00010000
00000000
00000000
00000000
01000000
00000000
00100000
00000000
,
00000000
10000000
01000000
00010000
00001000
00010000
00100000
00020000
,
00000000
00031000
00000100
00000010
00000000
00010000
00000100
00000010
,
00000001
00000100
00000010
00010000
00001000
01000000
00010000
00000000
,
00200000
00000000
01300000
10000000
00000000
01000000
00010000
00001000
,
00000100
00000010
00001000
00000100
00000001
00000100
00001000
00000020
,
00000000
00000130
00000001
00001000
00000000
00000100
00010000
00100000
,
10000000
01000000
00100000
00010000
00001000
00000100
00000010
00000001
,
00002000
00000000
00000000
00000000
,
00003000
00000000
00000000
00000000
,
00020000
00000000
00000000
00000000
,
00000000
00000000
00000000
00000000
,
00030000
00000000
00000000
00000000
;

//---------------dance-double - ----------------
#NOTES:
     dance-double:
     :
     Medium:
     9:
     0.376,0.435,0.193,0.024,0.000: // measure 1
00000000
00000000
00000000
00000000
,  // measure 2
00000000
00000000
00000000
00000000
,  // measure 3
00000000
00000000
00000000
00000000
,  // measure 4
00000000
00000000
00000000
00000000
,  // measure 5
00000000
00000000
00000000
00000000
,  // measure 6
00000000
00000000
00000000
00000000
,  // measure 7
00000000
00000000
00000000
00000000
,  // measure 8
00000000
00000000
00000000
00000000
,  // measure 9
10000000
00000000
01000000
00000000
00000000
00100000
00001000
00000000
,  // measure 10
00010000
00000000
00000100
00000000
00000000
00000010
00000001
00000000
,  // measure 11
00000001
00000000
00000100
00000000
00000000
00000010
00010000
00000000
,  // measure 12
00001000
00000000
01000000
00000000
00000000
00100000
10000000
00000000
,  // measure 13
10000000
00000000
01000000
00100000
00000000
00100000
00001000
00000000
,  // measure 14
00010000
00000000
00000100
00000010
00000000
00000010
00000001
00000000
,  // measure 15
00000001
00000000
00000100
00000010
00000000
00000010
00010000
00000000
,  // measure 16
00001000
00000000
01000000
00100000
00000000
00100000
10000000
00000000
,  // measure 17
00010000
00000000
00000000
10010000
00000000
00000000
10000000
01000000
,  // measure 18
00000000
00000000
00100000
00001000
00000000
00010000
00000000
00000100
,  // measure 19
00000000
00000000
00000000
00001100
00000000
00000000
00001000
00000010
,  // measure 20
00000000
00000000
00000100
00000001
00000000
00000001
00001000
00000000
,  // measure 21
00000100
00000000
00000000
00010100
00000000
00000000
00010000
00001000
,  // measure 22
00000000
00000000
01000000
00010000
00000000
00100000
00000000
01000000
,  // measure 23
00000000
00000000
00000000
11000000
00000000
00000000
10000000
00010000
,  // measure 24
00000000
00000000
01000000
00001000
00000000
00001000
00010000
00000000
,  // measure 25
00000100
00000000
00000000
00000110
00000000
00000000
00000010
00000001
,  // measure 26
00000000
00000000
00000100
00000010
00000000
00010000
00000000
00001000
,  // measure 27
00000000
00000000
00000000
01001000
00000000
00000000
01000000
00100000
,  // measure 28
00000000
00000000
10000000
00010000
00000000
00010000
00100000
00000000
,  // measure 29
01000000
00000000
00000000
01100000
00000000
00000000
00100000
00001000
,  // measure 30
00000000
00000000
00000100
00000010
00000000
00001000
00000000
00000001
,  // measure 31
00000000
00000000
00000000
00000011
00000000
00000000
00000010
00000100
,  // measure 32
00000000
00000000
00010000
00001000
00000000
00001000
01000000
00000000
,  // measure 33
00100000
00000000
10000000
00100000
00000000
10000000
00000000
00100000
,  // measure 34
00000000
01000000
00000000
00010000
00100000
00000000
00001000
00000000
,  // measure 35
00010000
00000000
00000100
00001000
00000000
00000010
00000000
00000100
,  // measure 36
00000000
00000010
00000000
00001000
00000100
00000000
00000010
00000000
,  // measure 37
00000001
00000000
00000100
00000010
00000000
00010000
00000000
00001000
,  // measure 38
00000000
01000000
00000000
00010000
00100000
00000000
01000000
00000000
,  // measure 39
10000000
00000000
00100000
01000000
00000000
00001000
00000000
00010000
,  // measure 40
00000000
00000100
00000000
00000010
00000001
00000000
00000100
00000000
,  // measure 41
00000010
00000000
00000000
00001010
00000000
00000000
00001000
00000100
,  // measure 42
00000000
00000000
00010000
00001000
00000000
00100000
00000000
00010000
,  // measure 43
00000000
00000000
00000000
01010000
00000000
00000000
01000000
00100000
,  // measure 44
00000000
00000000
10000000
01000000
00000000
00010000
00001000
00000000
,  // measure 45
00000100
00000000
00000000
00000110
00000000
00000000
00000010
00001000
,  // measure 46
00000000
00000000
00000001
00000010
00000000
00000100
00000000
00010000
,  // measure 47
00000000
00000000
00000000
00011000
00000000
00000000
00001000
01000000
,  // measure 48
00000000
00000000
00100000
10000000
00000000
01000000
00100000
00000000
,  // measure 49
00010000
00010000
00010000
00000000
10010000
00000000
10000000
01000000
,  // measure 50
00000000
00000000
00100000
00001000
00000000
00010000
00000100
00001000
,  // measure 51
00000000
00000000
00000000
00001010
00000000
00000000
00000010
00000100
,  // measure 52
00000000
00000001
00001000
00000001
00000000
00000100
00000010
00000000
,  // measure 53
00010000
00000000
00000000
00011000
00000000
00000000
00001000
01000000
,  // measure 54
00000000
00000000
00010000
10000000
00000000
01000000
00100000
00001000
,  // measure 55
00000000
00000000
00000000
00011000
00000000
00000000
00010000
00000100
,  // measure 56
00000000
00000000
00000010
00000001
00000100
00000001
00000010
00000000
,  // measure 57
00000200
00000000
00000000
00000000
,  // measure 58
00000300
00000000
00000000
00000000
,  // measure 59
00020000
00000000
00000000
00000000
,  // measure 60
00000000
00000000
00000000
00000000
,  // measure 61
00030000
00000000
00000000
00000000
;

//---------------dance-double - ----------------
#NOTES:
     dance-double:
     :
     Easy:
     5:
     0.261,0.326,0.000,0.024,0.000: // measure 1
00000000
00000000
00000000
00000000
,  // measure 2
00000000
00000000
00000000
00000000
,  // measure 3
00000000
00000000
00000000
00000000
,  // measure 4
00000000
00000000
00000000
00000000
,  // measure 5
00000000
00000000
00000000
00000000
,  // measure 6
00000000
00000000
00000000
00000000
,  // measure 7
00000000
00000000
00000000
00000000
,  // measure 8
00000000
00000000
00000000
00000000
,  // measure 9
00000100
00010000
00000000
00010000
,  // measure 10
00001000
01000000
00000000
01000000
,  // measure 11
00100000
10000000
00000000
10000000
,  // measure 12
01000000
00100000
01000000
00000000
,  // measure 13
10000000
00000000
01000000
00000000
,  // measure 14
00100000
00001000
00010000
00000100
,  // measure 15
00000010
00000000
00000001
00000000
,  // measure 16
00000100
00001000
00010000
00100000
,  // measure 17
01000000
00000000
00010000
00000000
,  // measure 18
10000000
01000000
00010000
01000000
,  // measure 19
00100000
00000000
00001000
00000000
,  // measure 20
00000100
00000010
00010000
00001000
,  // measure 21
01000000
00000000
00010000
00000000
,  // measure 22
00100000
01000000
10000000
01000000
,  // measure 23
00010000
00000000
00001000
00000000
,  // measure 24
00000100
00000010
00001000
00000010
,  // measure 25
00000100
00000000
00000001
00000000
,  // measure 26
00000010
00001000
00010000
00100000
,  // measure 27
01000000
00000000
00010000
00000000
,  // measure 28
10000000
01000000
00010000
00001000
,  // measure 29
00000100
00000000
00000010
00000000
,  // measure 30
00000001
00000100
00001000
00000100
,  // measure 31
00000010
00000000
00010000
00000000
,  // measure 32
00001000
01000000
00001000
00010000
,  // measure 33
00000100
00000000
00001000
00000000
,  // measure 34
00000010
00000100
00000010
00000100
,  // measure 35
00000001
00000000
00000001
00000000
,  // measure 36
00001000
00000100
00001000
00000100
,  // measure 37
00010000
00000000
00010000
00000000
,  // measure 38
00001000
01000000
00001000
01000000
,  // measure 39
00100000
00000000
00100000
00000000
,  // measure 40
10000000
01000000
00100000
00000000
,  // measure 41
00010000
00000000
01000000
00000000
,  // measure 42
00001000
00010000
00000100
00000010
,  // measure 43
00000001
00000000
00000100
00000000
,  // measure 44
00000010
00010000
00001000
00100000
,  // measure 45
01000000
00000000
10000000
00000000
,  // measure 46
01000000
00010000
00001000
00000100
,  // measure 47
00000010
00000000
00001000
00000000
,  // measure 48
00000001
00000010
00000100
00001000
,  // measure 49
00000001
00000001
00000001
00000000
00001000
00000000
00000000
00000000
,  // measure 50
00000100
00010000
00001000
00100000
,  // measure 51
01000000
00000000
10000000
00000000
,  // measure 52
00100000
01000000
00001000
00010000
,  // measure 53
01000000
01000000
01000000
00000000
10000000
00000000
00000000
00000000
,  // measure 54
01000000
00010000
00001000
00000100
,  // measure 55
00000010
00000000
00001000
00000000
,  // measure 56
00000100
00000010
00000100
00010000
,  // measure 57
00002000
00000000
00000000
00000000
,  // measure 58
00003000
00000000
00000000
00000000
,  // measure 59
00020000
00000000
00000000
00000000
,  // measure 60
00000000
00000000
00000000
00000000
,  // measure 61
00030000
00000000
00000000
00000000
;
