#TITLE:Forever Sunshine (D.O.G G3 Mix);
#SUBTITLE:;
#ARTIST:Remixed by JAKAZiD;
#TITLETRANSLIT:;
#SUBTITLETRANSLIT:;
#ARTISTTRANSLIT:;
#GENRE:;
#CREDIT:Silverhawke;
#MENUCOLOR:;
#METERTYPE:DDR;
#BANNER:Forever Sunshine (D.O.G G3 Mix).png;
#BACKGROUND:Forever Sunshine (D.O.G G3 Mix)-bg.png;
#LYRICSPATH:;
#CDTITLE:cdtitle.png;
#MUSIC:Forever Sunshine (D.O.G G3 Mix).mp3;
#OFFSET:-0.028;
#SAMPLESTART:59.652;
#SAMPLELENGTH:15.000;
#SELECTABLE:YES;
#LISTSORT:;
#BPMS:0.000=165.000;
#STOPS:;
#BGCHANGES:;
#ATTACKS:;

//---------------dance-single - ----------------
#NOTES:
     dance-single:
     :
     Hard:
     12:
     0.606,0.600,0.390,0.362,0.005:
0000
0000
0000
0000
,
0000
0000
0000
0000
,
0000
0000
0000
0000
,
0000
0000
0000
0000
,
1001
0100
0000
0100
,
0010
1000
0000
1000
,
0100
0010
0100
0010
,
0001
1000
1001
0110
,
1000
0100
1000
0100
0010
0100
1000
0001
,
0000
0100
0100
0000
0010
0000
0100
0000
,
0001
0100
0001
0100
0010
1000
0100
0010
,
0000
0001
0001
0000
0100
0010
0110
0000
,
1000
0010
1000
0010
0100
0001
0010
0100
,
0000
1000
1000
0000
0010
0000
0100
0000
,
0001
0010
0001
0010
0100
0010
0001
1000
,
0000
0010
0010
0000
0100
0001
1001
0000
,
1000
0100
0010
0100
1000
0010
0100
0010
,
0000
1000
1000
0000
0001
0000
0010
0000
,
0001
0100
0010
0100
0001
0010
0100
1000
,
0000
0010
0010
0000
0100
0001
1001
0000
,
1100
0100
0010
0011
0000
0001
0100
0110
,
0000
1000
0100
0010
0000
0001
0100
0010
,
0110
0100
0100
0100
,
0001
0001
1000
1000
0100
0010
0001
1000
,
1001
0000
0110
0000
0010
2000
0100
0000
,
3002
0010
1003
0010
,
0201
0000
0310
0000
1000
0200
0010
0000
,
2300
0010
3001
0100
,
2010
0000
3100
0000
0010
0002
1000
0000
,
0203
0010
0302
0010
,
2003
0000
3100
0000
0010
0001
0100
1000
,
0100
0000
0010
0000
1000
0100
0010
0001
,
1001
0000
0110
0000
0010
0002
0100
0000
,
2003
0010
3001
0010
,
1200
0000
0310
0000
0001
0200
0010
0000
,
0302
0010
1003
0100
,
0012
0000
0103
0000
0010
2000
0001
0000
,
3200
0010
2300
0010
,
3002
0000
0103
0000
0010
1000
0100
0001
,
0200
0310
0002
1003
,
1010
0000
0000
0000
0101
0000
0000
0000
1000
0000
0100
0000
0010
0001
0000
0000
,
1100
0000
0101
0000
1000
0100
0001
0200
,
0000
0320
0000
0031
0100
0000
0110
0000
,
0101
0000
1100
0000
0001
0100
1000
0200
,
0000
0320
0000
1030
0100
0000
0110
0000
,
0002
0000
0010
0000
1000
0000
0103
0001
,
0020
0000
1000
0000
0100
0000
0031
0010
,
0200
0000
0001
0000
0010
0000
1300
0010
,
0200
0000
1000
0000
0310
0000
0100
0010
,
1010
0000
0011
0000
1000
0010
0001
0020
,
0000
0230
0000
0301
0010
0000
0110
0000
,
0011
0000
1010
0000
0001
0010
1000
0020
,
0000
0230
0000
1300
0010
0000
0110
0000
,
0002
0000
0203
0000
0310
1000
0100
0020
,
0000
0000
0030
0000
0001
0001
1000
1000
,
0010
0100
0010
0100
0001
0100
0001
0100
,
0010
1000
0010
1000
0100
1000
0100
1000
,
0001
0010
0100
1000
0010
0100
0010
1000
,
0100
0010
0001
0100
0010
1000
1001
0000
,
0001
0010
0001
0010
0001
0100
0001
0100
,
0010
1000
0010
1000
0100
1000
0100
1000
,
0001
0010
0100
1000
0010
0100
0010
1000
,
0100
0010
0001
0100
0010
0100
0110
0000
,
1000
0100
1000
0100
0010
0100
0010
0100
,
1000
0001
1000
0001
0010
0001
0010
0001
,
1000
0010
0100
0001
0010
1000
0010
0100
,
1000
0010
0100
0001
0010
0100
0110
0000
,
0101
0100
0010
1010
0000
0100
0010
0011
,
0000
0100
0010
1000
0000
0100
0010
0001
,
0101
1100
1001
0220
,
0000
0000
0000
0000
,
0000
0000
0000
0330
;

//---------------dance-single - ----------------
#NOTES:
     dance-single:
     :
     Medium:
     9:
     0.442,0.500,0.121,0.353,0.000:
0000
0000
0000
0000
,
0000
0000
0000
0000
,
0000
0000
0000
0000
,
0000
0000
0000
0000
,
0001
1000
0000
1000
,
0000
0100
0000
0100
,
0010
0001
1000
0001
,
0101
1100
1001
0000
,
0002
0000
0023
0000
0130
1000
0001
1000
,
0000
1000
0200
0000
0320
0000
0030
0000
,
0002
0000
0203
0000
0310
1000
0001
1000
,
0000
1000
0020
0000
0130
0000
1001
0000
,
2000
0000
3200
0000
0310
0001
1000
0001
,
0000
0001
0020
0000
0230
0000
0300
0000
,
2000
0000
3020
0000
0130
0001
1000
0001
,
0000
0001
0200
0000
0310
0000
1001
0000
,
0020
0000
2030
0000
3100
0010
0001
1000
,
0000
0100
0020
0000
0230
0000
0300
0000
,
0020
0000
0032
0000
0103
0010
1000
0001
,
0000
0100
0020
0000
0130
0000
1001
0000
,
1000
0100
0010
0001
0000
0001
0100
0010
,
0000
0010
1000
0001
0000
0001
1000
0100
,
0020
0001
0001
0031
,
0001
1000
0001
1000
0001
0010
0100
1000
,
0001
1000
0100
0010
,
0200
0000
0300
1000
,
0002
0000
0003
0000
1000
0001
1000
0000
,
0020
0000
0030
1000
,
0200
0000
0300
0000
0010
0001
0010
0000
,
0200
0300
2000
3000
,
0001
0000
1000
0000
0001
0100
0010
0000
,
1000
0000
0001
0000
1000
0100
0010
0100
,
1000
0000
0000
0000
0001
0100
0010
0000
,
0200
0000
0300
0001
,
2000
0000
3000
0000
0001
0010
0100
0000
,
2000
0000
3000
0010
,
0200
0000
0300
0000
0001
1000
0100
0000
,
0020
0030
0002
0003
,
1000
0000
0001
0000
1000
0100
0010
0000
,
0001
0100
0010
1000
,
0001
0000
1000
0000
0010
0100
0110
0000
,
0001
0000
0001
0000
1000
0100
0010
0000
,
0001
1000
0010
0010
,
1000
0000
0001
0000
1000
0010
0100
0000
,
0001
1000
0100
0100
,
0010
0001
0010
0100
,
1000
0010
0001
0100
,
1000
0000
0001
0000
1000
0100
0010
0000
,
0001
0000
0100
0000
0010
0000
0100
0100
,
1000
0000
1000
0000
0001
0100
0010
0000
,
1000
0001
0010
0010
,
0001
0000
1000
0000
0001
0010
0100
0000
,
1000
0001
0100
0100
,
0010
1000
0010
0100
,
0002
0000
2000
3003
,
0001
0000
1000
0000
0001
1000
0100
0000
,
0001
0010
1000
0001
,
1000
0000
0010
0000
0100
0001
0010
0000
,
1000
0100
0001
1000
,
0001
0000
0100
0000
1000
0010
0001
0000
,
1000
0100
0010
0100
,
1000
0000
0010
0000
0001
0100
1000
0000
,
0001
0100
0010
1000
,
0001
0000
0010
0000
1000
0001
0100
0000
,
1000
0001
0100
1000
,
0001
0000
0010
0000
1000
0001
0010
0000
,
1000
0100
0001
1001
,
1000
0001
0000
0101
0000
1000
0000
1100
,
0000
0001
0000
0011
0000
1000
0000
1010
,
0010
0010
0010
0220
,
0000
0000
0000
0000
,
0000
0000
0000
0330
;

//---------------dance-single - ----------------
#NOTES:
     dance-single:
     :
     Easy:
     5:
     0.277,0.291,0.019,0.139,0.000:
0000
0000
0000
0000
,
0000
0000
0000
0000
,
0000
0000
0000
0000
,
0000
0000
0000
0000
,
0001
0001
0000
0001
,
0000
1000
0000
1000
,
0100
0000
0100
0000
,
1000
0001
1001
0000
,
0001
0001
0001
0000
,
1000
0000
1000
0000
,
1000
1000
1000
0000
,
0001
0000
0001
0000
,
0010
0010
0010
0000
,
0100
0000
0100
0000
,
0100
0100
0100
0000
,
0010
0000
0010
0000
,
0001
0100
0001
0000
,
0010
0000
0100
0000
,
1000
0100
1000
0000
,
0010
0000
0100
0000
,
0001
0000
0000
1000
0000
0000
0000
0001
,
0000
0000
0000
1000
0000
0000
0000
0001
,
0000
0100
0000
0100
,
0010
0010
0010
0000
,
1000
0100
1000
0010
,
0200
0300
0000
0001
,
2000
3000
0001
0001
,
0200
0300
0000
0010
,
2000
3000
0001
1000
,
0200
0300
0000
0010
,
0002
0003
1000
0001
,
0100
0000
0010
0100
,
0010
0000
1000
0001
,
0200
0300
0000
0001
,
2000
3000
0100
0010
,
0002
0003
0000
1000
,
0020
0030
0100
0001
,
2000
3000
0002
0003
,
2000
3000
0000
0100
,
0020
0030
0002
0003
,
1000
0001
1000
0001
,
0100
0100
0010
0010
,
1000
0001
0010
0000
,
0001
0001
1000
1000
,
0100
0010
0001
0000
,
1000
0010
0100
0000
,
0001
0010
0100
0000
,
1000
0010
0100
0010
,
0001
0000
0010
0010
,
0010
1000
0001
1000
,
0100
0100
0100
0000
,
0010
0001
1000
0001
,
0100
0100
0100
0000
,
0010
1000
0001
0010
,
0100
0000
1000
0000
,
0001
0100
0001
0001
,
1000
0100
0010
0000
,
1000
0100
1000
1000
,
0001
0100
0010
0000
,
0001
0100
0001
0001
,
1000
0010
0100
0000
,
1000
0100
1000
1000
,
0001
0100
0010
0000
,
1000
0100
0010
0001
,
1000
0001
1000
0000
0001
0000
0000
0000
,
0001
0100
0010
1000
,
0001
1000
0001
0000
1000
0000
0000
0000
,
0001
0000
0000
1000
0000
0000
0000
0100
,
0000
0000
0000
0010
0000
0000
0000
0001
,
0000
0000
0000
1001
;

//---------------dance-single - ----------------
#NOTES:
     dance-single:
     :
     Beginner:
     1:
     0.098,0.130,0.000,0.000,0.000:
0000
0000
0000
0000
,
0000
0000
0000
0000
,
0000
0000
0000
0000
,
0000
0000
0000
0000
,
1000
0000
0000
0000
,
0000
0000
0000
0000
,
0001
0000
0001
0000
,
0100
0000
0000
0000
,
0001
0000
0000
0000
,
0001
0000
0000
0000
,
1000
0000
0000
0000
,
1000
0000
0000
0000
,
0001
0000
0000
0000
,
0001
0000
0000
0000
,
1000
0000
0000
0000
,
1000
0000
0000
0000
,
0001
0000
0001
0000
,
0001
0000
0000
0000
,
1000
0000
1000
0000
,
1000
0000
0000
0000
,
0010
0000
0000
0000
,
0000
0000
0000
0000
,
0010
0000
0000
0000
,
0100
0000
0100
0000
,
0100
0000
0000
0000
,
0001
0000
0000
0000
,
1000
0000
1000
0000
,
1000
0000
0000
0000
,
0001
0000
0000
0000
,
0100
0000
0000
0000
,
0010
0000
0010
0000
,
0010
0000
0000
0000
,
1000
0000
0000
0000
,
0001
0000
0000
0000
,
0100
0000
0100
0000
,
0100
0000
0000
0000
,
0001
0000
0000
0000
,
1000
0000
0000
0000
,
0100
0000
0100
0000
,
0100
0000
0000
0000
,
0010
0000
0000
0000
,
0001
0000
0000
0000
,
0001
0000
0000
0000
,
1000
0000
0000
0000
,
1000
0000
0000
0000
,
0010
0000
0000
0000
,
0010
0000
0000
0000
,
0100
0000
0000
0000
,
0100
0000
0100
0000
,
0100
0000
0000
0000
,
0001
0000
0000
0000
,
1000
0000
0000
0000
,
1000
0000
0000
0000
,
0100
0000
0000
0000
,
0100
0000
0000
0000
,
0010
0000
0000
0000
,
0010
0000
0000
0000
,
0001
0000
0000
0000
,
0001
0000
0000
0000
,
1000
0000
0000
0000
,
1000
0000
0000
0000
,
0010
0000
0010
0000
,
0010
0000
0000
0000
,
0100
0000
0000
0000
,
0100
0000
0000
0000
,
0001
0000
0000
0000
,
0001
0000
0000
0000
,
1000
0000
0000
0000
,
0000
0000
0000
0000
,
0001
0000
0000
0100
;

//---------------dance-double - ----------------
#NOTES:
     dance-double:
     :
     Hard:
     12:
     0.565,0.566,0.325,0.046,0.005:
00000000
00000000
00000000
00000000
,
00000000
00000000
00000000
00000000
,
00000000
00000000
00000000
00000000
,
00000000
00000000
00000000
00000000
,
00020000
00001000
00000000
01000000
,
00000000
00001000
00000000
01000000
,
00032000
00000100
00023000
01030000
,
10000000
00010000
10010000
01100000
,
10000000
01000000
10000000
01000000
00100000
00010000
00001000
01000000
,
00000000
10000000
00010000
00000000
10010000
00000000
01100000
00000000
,
10000000
00100000
10000000
00100000
01000000
00001000
00010000
00100000
,
00000000
01000000
00001000
00000000
00010100
00000000
00001010
00000000
,
00000001
00000100
00000001
00000100
00000010
00001000
00010000
00000100
,
00000000
00000001
00000010
00000000
00000110
00000000
00001001
00000000
,
00000001
00000010
00000001
00000010
00000100
00001000
00010000
00000010
,
00000000
00000100
00001000
00000000
00011000
00000000
01010000
00000000
,
10000000
01000000
00100000
01000000
10000000
01000000
00010000
00001000
,
00000000
00000100
00000010
00000000
00000110
00000000
00001001
00000000
,
00000001
00000100
00000010
00000100
00000001
00000100
00001000
00010000
,
00000000
01000000
00100000
00000000
01100000
00000000
10010000
00000000
,
10000000
01000000
00010000
00011000
00000000
00001000
00000100
00000110
,
00000000
00000010
00010000
00001000
00000000
01000000
00010000
00100000
,
01100000
01000000
01000000
01000000
,
10000000
01000000
00010000
00001000
00000100
00000010
00001000
00000001
,
00000010
00000000
00000100
00000000
00010000
00001000
01000000
00000000
,
00100000
00000000
10000000
00000000
00010000
00100000
01000000
00000000
,
11000000
00000000
01010000
00000000
10000000
01000000
00100000
00000000
,
00001000
00000000
00010000
00000100
00000010
00001000
00000001
00000000
,
00000010
00000000
00000100
00000000
00010000
00001000
01000000
00000000
,
00010000
00000000
00100000
01000000
10000000
00000000
00100000
00000000
,
01000000
00001000
00010000
00000000
00000100
00001000
00000010
00000000
,
00000100
00000000
00000001
00000000
00000010
00000100
00001000
00000001
,
00001001
00000000
00000110
00000000
00000001
00000100
00001000
00000000
,
00010000
00100000
01000000
00010000
,
10000000
00000000
01000000
00100000
00010000
01000000
00100000
00000000
,
01000000
00000000
00010000
00000000
10000000
01000000
00010000
00000000
,
00001000
00000000
00000100
00000000
00000010
00001000
00000100
00000000
,
00010000
00001000
01000000
10000000
,
01000000
00000000
00100000
10000000
01000000
00010000
00001000
00000100
,
00000010
00001000
00000100
00010000
,
00011000
00000000
00000000
00000000
01010000
00000000
00000000
00000000
11000000
00000000
10000000
00000000
00010000
01000000
00000000
00000000
,
00100000
00000000
00100000
00000000
00100000
10000000
01000000
00010000
,
00001000
00000000
00000100
00000000
00000010
00001000
00000100
00000000
,
00000010
00000000
00000010
00000000
00000010
00000001
00000100
00001000
,
00010000
00000000
00010000
00000000
00100000
10000000
00010000
00000000
,
00100000
00000000
01000000
00000000
10000000
00010000
01000000
00001000
,
00010000
00000000
00000100
00000000
00001000
00000010
00000100
00000000
,
00000001
00000000
00000010
00000000
00000100
00001000
00000010
00000000
,
00000100
00000000
00001000
00000000
00010000
00000000
01000000
10000000
,
10010000
00000000
01100000
00000000
00100000
10000000
00010000
01000000
,
00001000
00000000
00010000
00000000
00000100
00000010
00000001
00000000
,
00000100
00000000
00000010
00000000
00001000
00000100
00010000
00001000
,
00100000
00000000
00010000
00000000
01000000
00010000
00100000
00000000
,
01000000
00000000
00010000
00000000
00001000
00000100
00000001
00001000
,
00000100
00000000
00000010
00000000
00000001
00000001
00001000
00001000
,
00000001
00000100
00000001
00000100
00000010
00001000
00000010
00001000
,
00000100
00010000
00000100
00010000
00001000
00100000
00001000
00100000
,
00010000
01000000
00010000
01000000
00100000
10000000
00100000
10000000
,
00010000
00100000
01000000
10000000
01000000
00100000
10010000
00000000
,
10000000
01000000
10000000
01000000
00100000
00010000
00100000
00010000
,
01000000
00001000
01000000
00001000
00010000
00000010
00010000
00000010
,
00001000
00000100
00001000
00000100
00000010
00000001
00000010
00000001
,
00001000
00000010
00000100
00000001
00000100
00000010
00001001
00000000
,
00000001
00000010
00000001
00000010
00000100
00001000
00000100
00001000
,
00000010
00010000
00000010
00010000
00001000
01000000
00001000
01000000
,
00010000
00100000
00010000
00100000
01000000
10000000
01000000
10000000
,
00010000
01000000
00100000
10000000
00100000
01000000
10010000
00000000
,
10000000
01000000
00010000
00011000
00000000
00001000
00000100
00000110
,
00000000
00000010
00010000
01000000
00000000
10000000
00100000
00010000
,
00011000
01010000
00001100
00022000
,
00000000
00000000
00000000
00000000
,
00000000
00000000
00000000
00033000
;

//---------------dance-double - ----------------
#NOTES:
     dance-double:
     :
     Medium:
     9:
     0.407,0.466,0.037,0.111,0.000: // measure 1
00000000
00000000
00000000
00000000
,  // measure 2
00000000
00000000
00000000
00000000
,  // measure 3
00000000
00000000
00000000
00000000
,  // measure 4
00000000
00000000
00000000
00000000
,  // measure 5
00001000
01000000
00000000
01000000
,  // measure 6
00000000
00100000
00000000
00100000
,  // measure 7
10000000
00010000
00100000
01000000
,  // measure 8
10000000
00010000
10010000
00000000
,  // measure 9
10000000
00000000
01000000
00000000
00010000
00001000
00010000
00000000
,  // measure 10
00001000
00000100
00000001
00001000
,  // measure 11
00000001
00000000
00000100
00000000
00001000
00010000
00001000
00000000
,  // measure 12
00010000
01000000
20000000
30000000
,  // measure 13
10000000
00000000
00100000
00000000
00010000
00001000
00010000
00000000
,  // measure 14
00001000
00000010
00000001
00001000
,  // measure 15
00000001
00000000
00000010
00000000
00001000
00010000
00001000
00000000
,  // measure 16
00010000
00100000
20000000
30000000
,  // measure 17
10000000
00000000
01000000
00000000
00010000
00001000
00010000
00000000
,  // measure 18
00001000
00000010
00000001
00001000
,  // measure 19
00000001
00000000
00000100
00000000
00001000
00010000
00001000
00000000
,  // measure 20
00010000
00100000
20000000
30000000
,  // measure 21
00010000
01000000
00000000
00001000
00000000
00010000
00000100
00001000
,  // measure 22
00000000
00000100
00000010
00000001
00000000
00000100
00000010
00010000
,  // measure 23
00002000
01000000
01000000
01003000
,  // measure 24
00001000
01000000
00010000
00100000
00001000
01000000
00010000
00100000
,  // measure 25
00001000
00000000
00000000
00000000
01000000
00100000
10000000
00000000
,  // measure 26
00010000
01000000
00100000
00100000
,  // measure 27
01000000
00000000
00010000
00000000
00100000
00001000
00100000
00000000
,  // measure 28
00001000
00010000
00000100
00000100
,  // measure 29
00001000
00000000
00000010
00000000
00000100
00000001
00001000
00000000
,  // measure 30
00000100
00010000
00011000
00000000
,  // measure 31
00001000
00000000
01000000
00000000
00010000
00100000
01000000
00000000
,  // measure 32
10000000
00000000
10000000
00000000
00010000
10000000
00010000
00100000
,  // measure 33
01000000
00000000
00000000
00000000
10000000
01000000
00100000
00000000
,  // measure 34
00010000
01000000
00001000
00011000
,  // measure 35
00010000
00000000
00000000
00000000
00000100
00001000
00000010
00000000
,  // measure 36
00000100
00000001
00000010
00000100
,  // measure 37
00000100
00000000
00010000
00000000
00001000
01000000
00010000
00000000
,  // measure 38
00100000
01000000
10000000
00010000
,  // measure 39
01000000
00000000
00100000
10000000
00010000
10000000
00100000
00000000
,  // measure 40
01000000
00010000
00100000
00000000
,  // measure 41
00001000
00000000
00001000
00000000
00010000
00000100
00001000
00000000
,  // measure 42
00000010
00000000
00000010
00000000
00000100
00000001
00001000
00000000
,  // measure 43
00000010
00000100
00010000
00001000
,  // measure 44
00100000
00000000
00100000
00000000
00010000
01000000
00100000
00000000
,  // measure 45
10000000
01000000
00100000
00000000
,  // measure 46
00010000
01000000
00010000
10000000
,  // measure 47
01000000
00010000
00001000
00000100
,  // measure 48
00000001
00001000
00000100
00000001
,  // measure 49
00000100
00001000
00000001
00000100
00000010
00001000
00000100
00000010
,  // measure 50
00000001
00000000
00000001
00000000
00001000
00000100
00010000
00000000
,  // measure 51
00001000
01000000
00010000
00010000
,  // measure 52
10000000
00000000
10000000
00000000
01000000
00100000
00010000
00000000
,  // measure 53
01000000
00001000
00010000
00000100
,  // measure 54
00001000
00000000
00000010
00000000
00000100
00000001
00001000
00000000
,  // measure 55
00000200
00000000
00000320
00000000
,  // measure 56
00000031
00000000
00000100
00000000
00001000
00010000
00001000
00000000
,  // measure 57
00010000
01000000
10000000
00010000
,  // measure 58
10000000
00000000
01000000
00000000
00010000
00001000
00010000
00000000
,  // measure 59
00001000
00000100
00000002
00000003
,  // measure 60
00000001
00000000
00000010
00000000
00001000
00010000
00001000
00000000
,  // measure 61
00010000
00100000
10000000
00010000
,  // measure 62
10000000
00000000
00100000
00000000
00010000
00001000
00010000
00000000
,  // measure 63
00001000
00000010
00000002
00000003
,  // measure 64
00000001
00000000
00000100
00000000
00001000
00010000
00001000
00000000
,  // measure 65
00010000
00100000
10000000
00010000
,  // measure 66
10000000
00000000
01000000
00000000
00010000
00001000
00010000
00000000
,  // measure 67
00001000
00000010
00000002
00000003
,  // measure 68
00001000
00000100
00000000
00010000
00000000
00001000
01000000
00010000
,  // measure 69
00000000
01000000
00100000
10000000
00000000
01000000
00100000
00001000
,  // measure 70
00020000
00000100
00030100
00022000
,  // measure 71
00000000
00000000
00000000
00000000
,  // measure 72
00000000
00000000
00000000
00033000
;

//---------------dance-double - ----------------
#NOTES:
     dance-double:
     :
     Easy:
     6:
     0.279,0.333,0.019,0.037,0.000: // measure 1
00000000
00000000
00000000
00000000
,  // measure 2
00000000
00000000
00000000
00000000
,  // measure 3
00000000
00000000
00000000
00000000
,  // measure 4
00000000
00000000
00000000
00000000
,  // measure 5
00000001
00000000
00000100
00000000
,  // measure 6
00000010
00000000
00010000
00000000
,  // measure 7
00001000
00000000
01000000
00000000
,  // measure 8
00100000
00100000
00100000
00000000
,  // measure 9
10000000
00010000
10000000
00010000
,  // measure 10
01000000
00001000
00010000
00000100
,  // measure 11
00001000
00000010
00000100
00000001
,  // measure 12
00000100
00000001
00000010
00000000
,  // measure 13
00000001
00000100
00000010
00010000
,  // measure 14
00001000
01000000
00010000
00100000
,  // measure 15
00010000
10000000
01000000
00010000
,  // measure 16
00001000
00000100
00000001
00000000
,  // measure 17
00001000
00000100
00001000
00000100
,  // measure 18
00000010
00000001
00000100
00000001
,  // measure 19
00001000
00000100
00010000
00001000
,  // measure 20
00100000
00010000
01000000
00000000
,  // measure 21
00100000
00000000
00000000
10000000
00000000
00000000
00000000
00010000
,  // measure 22
00000000
00000000
00000000
01000000
00000000
00000000
00000000
00002000
,  // measure 23
00000000
00000000
00000000
00003000
,  // measure 24
00010000
00000000
00010000
00000000
00010000
00001000
00010000
00000000
,  // measure 25
00001000
00000000
00010000
00000100
,  // measure 26
00001000
00000000
00000000
00000010
,  // measure 27
00000100
00000000
00000001
00001000
,  // measure 28
00000100
00000000
00000000
00010000
,  // measure 29
00001000
00000000
01000000
00010000
,  // measure 30
00100000
00000000
00000000
01000000
,  // measure 31
10000000
00000000
00010000
01000000
,  // measure 32
00100000
00000000
00000000
00000000
10000000
00010000
10000000
00000000
,  // measure 33
00010000
00000000
10000000
01000000
,  // measure 34
00100000
00000000
00000000
00001000
,  // measure 35
00010000
00000000
00000100
00001000
,  // measure 36
00000010
00000000
00000000
00000100
,  // measure 37
00000001
00000000
00001000
00000100
,  // measure 38
00010000
00000000
00001000
00000000
,  // measure 39
01000000
00000000
00010000
00100000
,  // measure 40
01000000
00000000
10000000
00000000
,  // measure 41
01000000
00010000
00001000
00011000
,  // measure 42
00010000
00010000
00000100
00000100
,  // measure 43
00001000
00000010
00000100
00000000
,  // measure 44
00000001
00000001
00001000
00001000
,  // measure 45
00000100
00010000
00001000
00000000
,  // measure 46
01000000
00000000
00010000
00000000
,  // measure 47
00100000
01000000
10000000
00000000
,  // measure 48
00010000
00000000
01000000
00000000
,  // measure 49
00001000
00010000
00000100
00001000
,  // measure 50
00000010
00000010
00000010
00000000
,  // measure 51
00000100
00000001
00001000
00000000
,  // measure 52
00000100
00000100
00000100
00000000
,  // measure 53
00010000
00001000
00100000
00000000
,  // measure 54
00001000
00010000
00000100
00001000
,  // measure 55
00000010
00000000
00000100
00000000
,  // measure 56
00000001
00001000
00000001
00001000
,  // measure 57
00000100
00010000
00001000
01000000
,  // measure 58
00010000
00100000
01000000
10000000
,  // measure 59
01000000
10000000
00100000
00000000
,  // measure 60
10000000
01000000
00100000
00001000
,  // measure 61
00010000
00000100
00001000
00000010
,  // measure 62
00001000
00000001
00000100
00001000
,  // measure 63
00010000
01000000
10000000
00000000
,  // measure 64
00010000
01000000
00010000
01000000
,  // measure 65
00100000
10000000
01000000
10000000
,  // measure 66
00010000
01000000
00001000
00010000
,  // measure 67
00000010
00001000
00000100
00000000
,  // measure 68
00000010
00000000
00000000
00000001
00000000
00000000
00000000
00001000
,  // measure 69
00000000
00000000
00000000
00000100
00000000
00000000
00000000
00020000
,  // measure 70
00000000
00000000
00030000
00022000
,  // measure 71
00000000
00000000
00000000
00000000
,  // measure 72
00000000
00000000
00000000
00033000
;
