#TITLE:Following Flow;
#SUBTITLE:;
#ARTIST:猫叉Master;
#TITLETRANSLIT:;
#SUBTITLETRANSLIT:;
#ARTISTTRANSLIT:Nekomata Master;
#GENRE:;
#CREDIT:Silverhawke;
#MENUCOLOR:;
#METERTYPE:DDR;
#BANNER:Following Flow.png;
#BACKGROUND:Following Flow-bg.png;
#LYRICSPATH:;
#CDTITLE:cdtitle.png;
#MUSIC:Following Flow.mp3;
#OFFSET:-0.025;
#SAMPLESTART:26.071;
#SAMPLELENGTH:15.000;
#SELECTABLE:YES;
#LISTSORT:;
#BPMS:0.000=175.000;
#STOPS:;
#BGCHANGES:;
#ATTACKS:;

//---------------dance-single - ----------------
#NOTES:
     dance-single:
     :
     Hard:
     12:
     0.567,0.609,0.360,0.536,0.126:
0000
0000
0000
0000
,
0000
0000
0000
0000
,
0000
0000
0000
0000
,
0000
0000
0000
0000
,
0000
0000
0000
0000
,
0000
0000
0000
0000
,
0000
0000
0000
0000
,
1100
1000
1000
0001
,
0100
0010
0100
0000
0001
0000
0001
0000
,
0001
0000
1000
0000
0100
0010
0100
0000
,
1000
0001
1000
0001
,
0100
0010
0100
0000
0001
0100
0010
0000
,
1000
0100
0001
0010
,
1000
0000
0000
0010
0000
0000
0100
0000
,
0000
0001
0000
0000
0010
0000
0000
0100
,
0000
0000
1000
0000
0000
0001
0000
0000
,
0200
0000
0000
0320
0000
0000
2030
0000
,
0000
3002
0000
0000
0023
0000
0000
0230
,
0000
0000
1300
0001
0100
1000
0100
0001
,
1000
0000
0000
0001
0000
0000
0000
0001
0010
0100
0000
0000
,
1000
0010
0200
2300
,
3200
0302
0023
0230
,
1300
0000
0000
0101
0000
0000
0000
1000
0010
0100
0000
0000
,
0001
1000
0100
0011
,
0100
1000
0101
1100
,
1001
0000
0000
0100
0000
0000
0000
0010
1000
0001
0000
0000
,
0010
0100
2000
3020
,
0032
0000
0000
0023
0000
0000
2030
0000
0000
3000
0001
0010
,
0100
0000
1000
0001
1000
0000
0010
0000
,
0100
0000
0001
0000
1000
0000
0100
0010
,
0100
1000
0101
1100
,
1002
0000
0000
0000
0000
0000
0003
1000
0100
0010
0000
0000
,
0002
0103
0110
1010
,
1001
0011
0110
1100
,
2001
0000
0000
0000
0000
0000
3000
0100
0010
0002
0000
0000
,
0103
0000
1000
0000
0200
0000
0310
1000
,
0010
0200
0302
0013
,
2001
0000
0000
0000
0000
0000
3000
0001
0100
0010
0000
0000
,
2000
3100
0110
0011
,
1001
0000
0000
1010
0000
0000
0110
0000
0000
0000
0010
1000
,
0002
0000
0103
0010
0100
0000
0002
0000
,
0013
0000
0100
0000
1000
0000
0010
0100
,
0010
0000
2100
0000
3002
0000
0013
0010
,
0110
0000
0000
1100
0000
0000
0001
0100
,
0100
0010
1000
1000
0001
0000
0011
0000
,
0010
0100
1000
0000
0001
1000
0001
0000
,
1010
0000
0000
0110
0000
0000
0100
0001
,
0001
1000
0100
0100
0010
0000
0011
0000
,
0001
1000
0010
0010
0100
0010
0010
1000
,
1001
0000
0000
0011
0000
0000
0010
0100
,
0100
1000
0001
0001
0200
0000
0000
0000
,
0310
1000
0001
0000
0000
0010
0000
0000
,
0200
0000
0000
0000
1300
0010
0100
0000
,
0000
0001
0000
0000
2000
0000
3020
0000
,
0130
0002
0023
0130
,
0000
0000
0000
0000
,
0020
0032
1003
0100
,
1100
0001
0100
0101
,
1000
0001
1001
0220
,
0000
0000
0000
0000
0000
0000
0330
0000
1000
0000
0100
0000
0020
0000
0000
0000
0000
0000
0031
0000
0000
0100
0000
0000
,
0010
1000
0001
0010
1000
0020
0031
0020
,
0130
0000
1000
0000
0001
0100
0020
0000
,
1030
0000
0000
0000
0001
0010
0200
0000
0000
1300
0000
0000
,
1100
0000
0000
0000
0002
0000
0000
0000
0103
0000
0000
0000
0101
0000
1000
0001
,
2000
0000
3100
0000
0010
0001
0200
0000
,
0310
0000
0000
0000
0100
0001
0020
0000
0000
0100
0000
0000
,
0130
1000
0001
0001
,
0100
0010
0100
0001
0010
0000
0100
0010
,
0200
0320
0031
0100
,
0101
1000
0100
1100
,
0001
1000
1001
0220
,
0000
0000
0000
0000
0000
0000
0330
0000
0001
0000
0100
0000
0020
0000
0000
0000
0000
0000
1030
0000
0000
0100
0000
0000
,
0010
0001
1000
0010
0001
0020
1030
0020
,
0130
0000
0001
0000
1000
0100
0020
0000
,
0031
0000
0000
0000
1000
0010
0200
0000
0000
0301
0000
0000
,
0101
0000
0000
0000
2000
0000
0000
0000
3100
0000
0000
0000
1100
0000
0001
1000
,
0002
0000
0103
0000
0010
1000
0200
0000
,
0310
0000
0000
0000
0100
1000
0020
0000
0000
0100
0000
0000
,
0130
0001
1000
1000
,
0100
0010
0100
1000
0010
0010
0100
0010
,
0100
0001
0010
0010
0001
0100
0001
0100
,
0010
0100
0010
1000
0010
1000
0100
1000
,
0100
0010
0100
0010
0001
0010
0001
1000
,
0001
1000
0010
2000
0002
0000
0000
0000
,
0000
0000
0000
0000
,
0000
0000
3003
0000
;

//---------------dance-single - ----------------
#NOTES:
     dance-single:
     :
     Medium:
     8:
     0.335,0.358,0.101,0.008,0.000:
0000
0000
0000
0000
,
0000
0000
0000
0000
,
0000
0000
0000
0000
,
0000
0000
0000
0000
,
0000
0000
0000
0000
,
0000
0000
0000
0000
,
0000
0000
0000
0000
,
0001
0100
0100
0001
,
1000
0001
1000
0100
,
0100
1000
0001
1000
,
0001
0010
0010
0100
,
1000
0100
1000
0010
,
0010
0100
0001
0100
,
0010
0000
0000
0100
0000
0000
0010
0000
,
0000
1000
0000
0000
0001
0000
0000
0010
,
0000
0000
0001
0000
0000
0100
0000
0000
,
0010
0000
0000
1000
0000
0000
0100
0000
,
0000
0010
0000
0000
0001
0000
0000
1000
,
0000
0001
0100
0010
,
1001
0000
0100
0100
,
0010
1000
0100
0100
,
0010
0001
1000
0001
,
0100
1001
0000
0100
,
0001
1000
0100
0000
,
0010
0001
0100
0010
,
0100
0000
0001
1000
,
0100
0010
0001
1000
,
0001
0010
0100
0000
,
1000
0001
0001
1000
,
0100
0010
0001
1000
,
1000
0001
0100
0010
,
1000
0000
0100
0010
,
0001
0010
0100
1000
,
0001
0100
0010
1000
,
0001
1001
0000
1000
,
0100
0010
0001
1001
,
0000
1000
0010
0100
,
0001
0000
0100
0010
,
1000
0100
0010
0100
,
1000
0001
0100
0000
,
0010
0100
0100
0001
,
1000
1000
0100
0010
,
0001
0010
0100
1000
,
0001
0000
0000
0100
0000
0000
0010
0000
,
0000
1000
0000
0000
1001
0000
0100
0000
,
0100
0000
1001
0000
0000
0100
0000
0000
,
0001
0000
0000
0010
0000
0000
0100
0000
,
0000
1000
0000
0000
1001
0000
0010
0000
,
0010
1001
0100
0100
,
0001
0000
0000
0100
0000
0000
0010
0000
,
0000
1000
0000
0000
1100
0000
0010
0000
,
0001
0101
0100
0010
,
1000
0000
0001
0100
,
0000
0010
1000
1000
,
0001
0000
0100
0000
0010
0100
0010
0100
,
0000
0000
0000
0000
,
0001
0010
0100
1000
,
0100
0010
0001
1000
,
0010
0100
0001
1001
,
0000
1000
0001
0000
,
0100
0010
0100
0001
,
1000
0100
0010
0001
,
0010
0100
1000
0000
,
0001
0100
0000
0010
,
1000
0001
1000
0100
,
0010
0001
0100
0010
,
0010
0100
0001
0001
,
1000
0100
0010
0001
,
0100
0010
1000
0100
,
1000
0001
0100
0001
,
1000
0010
0100
1001
,
0000
0001
0100
0000
,
0010
1000
0100
0001
,
0100
1000
0001
0100
,
0010
1000
0100
0000
,
0010
0001
0000
0100
,
0010
1000
0100
0001
,
1000
0000
0010
0000
0001
0000
0001
0100
,
0000
0000
1000
0000
1000
0100
0000
0000
,
0001
0000
0001
0010
0000
0000
1000
0000
,
1000
0010
0000
0000
0001
0000
0000
0010
,
0000
0000
0100
0000
0000
1000
0000
0000
,
0001
0000
0000
0100
0000
0000
0010
0000
,
0000
1000
0000
0000
0002
0000
0000
0000
,
0000
0000
0000
0000
,
0000
0000
0003
0000
;

//---------------dance-single - ----------------
#NOTES:
     dance-single:
     :
     Easy:
     5:
     0.223,0.245,0.042,0.017,0.000: // measure 1
0000
0000
0000
0000
,  // measure 2
0000
0000
0000
0000
,  // measure 3
0000
0000
0000
0000
,  // measure 4
0000
0000
0000
0000
,  // measure 5
0000
0000
0000
0000
,  // measure 6
0000
0000
0000
0000
,  // measure 7
0000
0000
0000
0000
,  // measure 8
1000
0000
0000
1000
0000
0000
0001
0000
,  // measure 9
0000
0001
0000
0000
0100
0000
0000
0100
,  // measure 10
0000
0000
0010
0000
0000
0010
0000
0000
,  // measure 11
0100
0000
0000
0100
0000
0000
0001
0000
,  // measure 12
0000
0001
0000
0000
1000
0000
1000
0000
,  // measure 13
0000
0001
0010
0001
,  // measure 14
0010
0000
0000
0100
,  // measure 15
0000
0000
1000
0000
,  // measure 16
0000
0001
0000
0000
,  // measure 17
0100
0000
0000
0010
,  // measure 18
0000
0000
1000
0000
,  // measure 19
0000
0100
0100
0000
,  // measure 20
0010
0000
0000
0001
,  // measure 21
0000
0000
0100
0010
,  // measure 22
0010
0100
0001
0001
,  // measure 23
0100
0000
0000
0010
,  // measure 24
0000
0000
1000
0001
,  // measure 25
0000
0100
0010
0000
,  // measure 26
1000
0100
0000
0010
,  // measure 27
0001
0010
0001
0000
,  // measure 28
0001
1000
0000
0000
,  // measure 29
0010
0000
0000
0100
,  // measure 30
0000
0000
0001
1000
,  // measure 31
0000
0100
0100
0100
,  // measure 32
0010
0000
0001
1000
,  // measure 33
0000
0001
0100
0010
,  // measure 34
1000
0100
0010
0000
,  // measure 35
0010
0000
0001
0100
,  // measure 36
0000
0001
0010
0000
,  // measure 37
0000
0100
1000
0001
,  // measure 38
1000
0000
0010
0100
,  // measure 39
0000
0001
0100
0010
,  // measure 40
0100
0001
1000
0000
,  // measure 41
0100
0000
0000
0010
,  // measure 42
0000
0000
0001
0100
,  // measure 43
0001
1000
0000
1000
,  // measure 44
1000
0000
0000
0001
0000
0000
1000
0000
,  // measure 45
0000
0001
0000
0000
1000
0000
0000
0000
,  // measure 46
0000
1001
0000
0000
,  // measure 47
0010
0000
0000
0100
0000
0000
0010
0000
,  // measure 48
0000
0100
0000
0000
0010
0000
0000
0000
,  // measure 49
0000
0110
0000
0000
,  // measure 50
1000
0000
0000
0100
0000
0000
0010
0000
,  // measure 51
0000
0001
0000
0000
1000
0000
0000
0000
,  // measure 52
0000
1001
0000
0000
,  // measure 53
0110
0000
0000
1000
,  // measure 54
0000
0000
0100
0010
,  // measure 55
0010
0001
0010
0010
,  // measure 56
0000
0000
0000
0000
,  // measure 57
0100
1000
0100
0000
,  // measure 58
0010
0001
0000
0001
,  // measure 59
0100
0000
0010
1000
,  // measure 60
0000
1000
0100
0000
,  // measure 61
0010
0001
0000
1000
,  // measure 62
0100
0000
0010
0001
,  // measure 63
0000
0001
0100
0000
,  // measure 64
0000
0010
0000
1000
,  // measure 65
0100
0000
0010
0001
,  // measure 66
0000
1000
0001
0000
,  // measure 67
0000
0100
0000
0000
,  // measure 68
0010
1000
1000
0010
,  // measure 69
0100
0001
1000
0000
,  // measure 70
0100
0010
0000
0001
,  // measure 71
0100
0000
0010
1000
,  // measure 72
0000
1000
0100
0000
,  // measure 73
0010
0001
0000
0001
,  // measure 74
1000
0000
0010
0100
,  // measure 75
0000
0100
0001
0000
,  // measure 76
0000
1000
0000
0001
,  // measure 77
0100
0000
0100
0010
,  // measure 78
0000
0000
0010
0000
1000
0000
0000
0001
,  // measure 79
0000
0000
0100
0000
0000
0010
0000
0000
,  // measure 80
1000
0000
0000
0100
0000
0000
0010
0000
,  // measure 81
0000
0001
0000
0000
2002
0000
0000
0000
,  // measure 82
0000
0000
0000
0000
,  // measure 83
0000
0000
0000
0000
,  // measure 84
0000
0000
3003
0000
;

//---------------dance-double - ----------------
#NOTES:
     dance-double:
     :
     Hard:
     13:
     0.572,0.645,0.176,0.176,0.172:
00000000
00000000
00000000
00000000
,
00000000
00000000
00000000
00000000
,
00000000
00000000
00000000
00000000
,
00000000
00000000
00000000
00000000
,
00000000
00000000
00000000
00000000
,
00000000
00000000
00000000
00000000
,
00000000
00000000
00000000
00000000
,
10000000
01000000
01000000
00100000
,
00001000
00010000
00001000
00000000
00000100
00000000
00000010
00000000
,
00000010
00000000
00010000
00000000
00001000
01000000
00001000
00000000
,
00100000
00010000
00001000
00000100
,
00000010
00000001
00000010
00000000
00000100
00001000
00000001
00000000
,
00000100
00000000
00000010
00000000
00010000
00001000
00001000
00001000
,
01000000
00000000
01000000
00100000
00000000
00100000
10000000
00000000
,
10000000
00010000
00000000
00010000
00100000
00000000
00100000
00001000
,
00000000
00001000
00000100
00000000
00000100
00000010
00000000
00000010
,
00010000
00000000
00010000
00001000
00000000
00001000
01000000
00000000
,
01000000
00100000
00000000
00100000
10000000
01000000
10000000
00010000
,
01000000
00000000
00010000
00000000
00100000
00000000
00001000
00000000
00100000
00000000
00001000
00010000
00001000
00010000
00001000
00010000
,
00002000
00000000
00000000
01003000
00000000
00000000
00000000
00010000
00100000
01000000
00000000
00000000
,
10000000
00000000
00010000
00000000
01000000
00001000
00010000
00000000
,
00000100
00000000
00010000
00000010
00001000
00000000
00000100
00000000
,
00000010
00000000
00000000
00000011
00000000
00000000
00000000
00000001
00000100
00000010
00000000
00000000
,
00010000
00001000
00100000
00110000
,
10000000
00010000
01000000
00001000
,
00020000
00000000
00000000
00030100
00000000
00000000
00000000
00001000
00000100
00000010
00000000
00000000
,
00000001
00000000
00000100
00000000
00000010
00010000
00001000
00000000
,
01000000
00000000
00000000
00000000
00000000
00000000
00010000
00000000
00000000
00100000
00000000
00000000
01000000
00000000
00000000
00000000
00000000
00000000
00000000
00000000
10000000
00000000
01000000
00000000
,
00100000
00000000
00001000
00010000
00001000
00000000
00000100
00000000
,
00000010
00000000
00001010
00000000
00001000
00000000
00000001
00000010
,
00000100
00010000
00010100
01001000
,
00011000
00000000
00000000
00000000
00000000
00000000
00001000
00000000
00000000
01000000
00000000
00000000
00000000
00000000
00010000
00000000
00100000
00000000
01000000
00000000
00000000
00000000
00000000
00000000
,
10000000
01000000
00100000
00000000
00001000
00010000
00000100
00001000
,
00000010
00000000
00000100
00000001
00000010
00000100
00010000
00000000
,
00001000
00000000
00000000
00000000
00000000
00000000
01000000
00000000
00000000
00010000
00000000
00000000
00000000
00000000
10000000
00000000
01000000
00000000
00100000
00000000
00000000
00000000
00000000
00000000
,
00010000
00000000
01010000
00000000
01000000
00000000
00001000
00010000
,
00000100
00000000
00001000
00000000
00000001
00000100
00001000
00000100
,
00000001
00000000
00000000
00000000
00000000
00000000
00001000
00000000
00000000
00000100
00000000
00000000
00000000
00000000
00010000
00000000
00001000
00000000
00100000
00000000
00000000
00000000
00000000
00000000
,
00010000
01000000
00100000
00000000
10000000
01000000
00010000
00001000
,
00000100
00000000
00000000
00000000
00000000
00000000
00000001
00000000
00000000
00000100
00000000
00000000
00001000
00000000
00000000
00010000
00000000
00000000
00000000
00000000
01000000
00000000
10000000
00000000
,
00010000
00000000
10000000
01000000
00100000
00000000
00001000
00000000
,
00010000
00000000
00010010
00000000
00000010
00000000
00000100
00000001
,
00001000
00000001
00000200
00000000
00002300
00000000
00013000
00010000
,
00011000
00000000
00000000
01001000
00000000
00000000
00100000
10000000
,
10000000
00100000
01000000
01000000
01001000
00000000
00011000
00000000
,
00010100
00000000
00001100
00000000
00001000
00000001
00000100
00000000
,
00001010
00000000
00000000
00010010
00000000
00000000
00010000
00001000
,
00001000
00000000
01000000
00000000
00001000
00010000
00001000
00010000
00001000
00000000
00000000
00000000
00010000
00000000
01000000
00000000
,
10000000
00000000
00100000
00100000
01000000
00010000
00010000
00100000
,
00101000
00000000
00000000
00011000
00000000
00000000
00010010
00000000
,
00000000
00000110
00000000
00000000
00000101
00000000
00000000
00000000
,
00000001
00001000
00000200
00000000
00000000
00020300
00000000
00000000
,
00032000
00000000
00000000
00000000
01003000
00100000
20000000
00000000
,
00000000
30020000
00000000
00000000
00130000
00000000
00001000
00000000
,
00001000
00000000
00000000
00000000
00010000
00000000
00010000
00000000
00000100
00000000
00000100
00000000
00001000
00000010
00001000
00000010
,
00000000
00000000
00000000
00000000
,
20000000
00000000
32000000
00000000
03100000
00000000
00001000
00010000
,
00000100
00000000
00001000
00000000
00000010
00000100
00001000
00000000
,
00010000
00000000
00100000
01000000
00001000
01000000
00010000
00000000
,
00200000
00000000
00000000
00000000
00000000
00000000
00300000
00000000
00001000
00000000
00010000
00000000
00000100
00000000
00000000
00000000
00000000
00000000
00000010
00000000
00000000
00000001
00000000
00000000
,
00000100
00000000
00001000
00000000
00000100
00000000
00000001
00000000
00000100
00000000
00000010
00001000
00000010
00000000
00000100
00000001
,
00000100
00000000
00002000
00000000
00013000
01000000
00200000
00000000
,
00320000
00000000
00000000
00000000
00000000
00000000
00030000
00000000
10000000
00000000
01000000
00000000
00010000
00000000
00000000
00000000
00000000
00000000
00001000
00000000
00000000
00000100
00000000
00000000
,
00000010
00000000
00000000
00000000
00010000
00000000
00000000
00000000
00001000
00000000
01000000
00000000
00100000
00000000
10000000
01000000
,
10000000
00000000
01000000
00100000
00001000
00100000
01000000
00000000
,
10000000
00000000
00000000
00000000
00000000
00000000
00000000
00000000
00010000
00000000
01000000
00000000
00001000
00000000
00000000
00000000
00000000
00000000
00010000
00000000
00000000
00000100
00000000
00000000
,
00010000
00000000
00000010
00000000
00000100
00000001
00000100
00000000
,
00000001
00000010
00001000
00010000
01000000
00000000
10000000
00100000
,
00010000
00001000
00000200
00000000
00000310
00000000
00010000
00001000
,
01000000
00000000
00010000
00000000
00100000
01000000
00010000
00000000
,
00001000
00000000
00000010
00000100
00010000
00000100
00001000
00000000
,
00000020
00000000
00000000
00000000
00000000
00000000
00000030
00000000
00010000
00000000
00001000
00000000
01000000
00000000
00000000
00000000
00000000
00000000
00100000
00000000
00000000
10000000
00000000
00000000
,
01000000
00000000
00010000
00000000
01000000
00000000
10000000
00000000
01000000
00000000
00100000
00010000
00100000
00000000
01000000
10000000
,
01000000
00000000
00020000
00000000
00031000
00000100
00000020
00000000
,
00002030
00000000
00000000
00000000
00000000
00000000
00003000
00000000
00000001
00000000
00000100
00000000
00001000
00000000
00000000
00000000
00000000
00000000
00010000
00000000
00000000
01000000
00000000
00000000
,
00100000
00000000
00000000
00000000
00001000
00000000
00000000
00000000
00010000
00000000
00000100
00000000
00000010
00000000
00000001
00000100
,
00000001
00000000
00000100
00000010
00010000
00000010
00000100
00000000
,
00000001
00000000
00000000
00000000
00000000
00000000
00000000
00000000
00001000
00000000
00000100
00000000
00010000
00000000
00000000
00000000
00000000
00000000
00001000
00000000
00000000
01000000
00000000
00000000
,
00001000
00000000
00100000
00000000
01000000
10000000
01000000
00000000
,
10000000
00100000
00010000
00001000
00000100
00000000
00000001
00000010
,
00001000
00010000
01000000
00000000
10000000
00100000
10000000
00010000
,
01000000
00010000
00100000
00001000
00100000
00001000
00010000
00001000
,
00010000
00000100
00010000
00000010
00001000
00000010
00000100
00000001
,
00000100
00000010
00001000
00000100
00020000
00000000
00000000
00000000
,
00000000
00000000
00000000
00000000
,
00000000
00000000
00030000
00000000
;

//---------------dance-double - ----------------
#NOTES:
     dance-double:
     :
     Medium:
     9:
     0.393,0.430,0.059,0.025,0.017:
00000000
00000000
00000000
00000000
,
00000000
00000000
00000000
00000000
,
00000000
00000000
00000000
00000000
,
00000000
00000000
00000000
00000000
,
00000000
00000000
00000000
00000000
,
00000000
00000000
00000000
00000000
,
00000000
00000000
00000000
00000000
,
10000000
00010000
00010000
01000000
,
00000000
00001000
00000000
00000000
00010000
00000000
00000100
00000000
,
00000100
00000000
00001000
00000000
00000000
00000010
00000000
00000000
,
00000100
00000001
00000001
00000010
,
00000000
00000100
00000000
00000000
00010000
00000000
00001000
00000000
,
00001000
00000000
01000000
00000000
00010000
00100000
01000000
10000000
,
00010000
00000000
00000000
01000000
00000000
00000000
00001000
00000000
,
00000000
00010000
00000000
00000000
00000100
00000000
00000000
00001000
,
00000000
00000000
00000010
00000000
00000000
00000100
00000000
00000000
,
00000001
00000000
00000001
00000010
00000000
00000010
00000100
00000000
,
00000100
00010000
00000000
00010000
00001000
00000000
00001000
00100000
,
00000000
00100000
01000000
00000000
01000000
10000000
00010000
00000000
,
10000000
01000000
01000000
00100000
,
00001000
00000000
00001000
00000000
00010000
00000100
00000010
00000000
,
00000001
00000100
00000010
00001000
,
00000001
00000100
00000010
00010000
,
00001000
01000000
00100000
10000000
,
01000000
00000000
00100000
00000000
00001000
00010000
00000100
00000000
,
00000010
00000001
00000001
00000100
,
00000010
00000000
00000010
00000000
00010000
00001000
01000000
00000000
,
00010000
00100000
01000000
10000000
,
00010000
01000000
00001000
00010000
,
00000100
00001000
00000100
00000000
00001000
00000000
00000010
00000000
,
00000100
00000001
00001001
00001001
,
00000110
00000010
00010000
00001000
,
01000000
00000000
00010000
00000000
00100000
01000000
10000000
00000000
,
00010000
00000000
01000000
00001000
00010000
00000000
00000100
00000000
,
00001000
00000010
00000100
00000001
,
00000100
00001000
00010000
01000000
,
10000000
00000000
00010000
01000000
00010000
00000000
00100000
00000000
,
00001000
00010000
00010000
00000100
,
00001000
00000000
00001000
00000000
00000010
00000100
00000001
00000000
,
00000010
00000000
00001000
00010000
01000000
00000000
10000000
00000000
,
00010000
00000000
01000000
00100000
01000000
00000000
00010000
00000000
,
10000000
10000000
01000000
00100000
,
00100000
00001000
00010000
00000100
,
00010100
00000000
00000000
00010000
00000000
00000000
00001000
01000000
,
00001000
01000000
00010000
00010000
,
00010000
00000000
00110000
00000000
00000000
11000000
00000000
00000000
,
10010000
00000000
00000000
10000000
00000000
00000000
01000000
00100000
,
01000000
00010000
00001000
00000100
,
00000001
00000000
00001000
00000100
00000000
00001000
00000100
00000000
,
00000010
00000000
00000000
00000001
00000000
00000000
00000100
00000000
,
00000000
00001000
00000000
00000000
00010000
00000000
00000000
00000000
,
01000000
00000000
10000000
00000000
00000000
00010000
00000000
00000000
,
01000000
00000000
00001000
00010000
,
00000000
00000010
00000000
00000000
00000100
00000000
00000001
00000000
,
00000001
00000000
00001000
00000100
00000010
00000000
00000001
00000000
,
00000000
00000000
00000000
00000000
,
00000001
00000100
00000010
00010000
,
00001000
01000000
00100000
10000000
,
01000000
00010000
00001000
00000200
,
00000300
00000000
00000000
00000000
00000001
00001000
00000001
00000000
00000000
00000000
00000000
00000000
,
00001000
00000000
00010000
00000000
00100000
00000000
00010000
10000000
,
00010000
00000000
01000000
00000000
00001000
00010000
00000100
00000000
,
00001000
00000000
00000000
00000001
00000100
00000000
00000010
00000000
,
00010000
00000000
00010000
00000000
00001000
00000000
01000000
00010000
,
10000000
01000000
01000000
00100000
,
00001000
00000000
00001000
00010000
00000100
00000000
00000010
00000000
,
00000010
00000001
00001000
00001000
,
00000001
00000100
00001000
00010000
,
01000000
10000000
00010000
00000000
00100000
00000000
00001000
00000000
,
00010000
00000100
00000010
00000001
,
00000100
00001000
00010000
02000000
,
03000000
00000000
00000000
00000000
10000000
00010000
10000000
00000000
00000000
00000000
00000000
00000000
,
00010000
00000000
00001000
00000000
00000010
00000000
00001000
00000001
,
00001000
00000000
00000100
00000000
00010000
00001000
01000000
00000000
,
00010000
00000000
00000000
10000000
01000000
00000000
00100000
00000000
,
00001000
00000000
00001000
00000000
00010000
00000000
00000100
00001000
,
00000001
00000100
00000100
00000010
,
00010000
00000000
00010000
00001000
01000000
00000000
00100000
00000000
,
00100000
10000000
00010000
00010000
,
10000000
01000000
00010000
00001000
,
00000100
00000000
00000001
00000000
00000010
00000000
00000010
00000100
,
00000000
00000100
00010000
00000000
00010000
00001000
00000000
00001000
,
01000000
00000000
01000000
00100000
00000000
00100000
10000000
00000000
,
10000000
01000000
00000000
01000000
00200000
00000000
00000000
00000000
,
00000000
00000000
00000000
00000000
,
00000000
00000000
00300000
00000000
;

//---------------dance-double - ----------------
#NOTES:
     dance-double:
     :
     Easy:
     5:
     0.259,0.287,0.000,0.008,0.000:
00000000
00000000
00000000
00000000
,
00000000
00000000
00000000
00000000
,
00000000
00000000
00000000
00000000
,
00000000
00000000
00000000
00000000
,
00000000
00000000
00000000
00000000
,
00000000
00000000
00000000
00000000
,
00000000
00000000
00000000
00000000
,
00001000
00010000
00000000
00001000
,
01000000
00000000
00010000
10000000
,
00000000
00010000
00100000
00000000
,
01000000
10000000
00000000
00010000
,
01000000
00000000
00001000
00010000
,
00000000
00000100
00001000
00000000
,
00000001
00000000
00000000
00000100
00000000
00000000
00000010
00000000
,
00000000
00001000
00000000
00000000
00000100
00000000
00000000
00010000
,
00000000
00000000
00001000
00000000
00000000
01000000
00000000
00000000
,
00010000
00000000
00000000
00100000
00000000
00000000
01000000
00000000
,
00000000
10000000
00000000
00000000
01000000
00000000
00000000
00100000
,
00000000
00010000
00010000
00010000
,
10000000
00000000
00010000
01000000
,
00000000
01000000
00001000
00000000
,
00001000
00010000
00000100
00001000
,
00000010
00000000
00000100
00000001
,
00000000
00001000
00000100
00000000
,
00010000
00001000
00000000
01000000
,
00010000
00000000
00010000
01000000
,
00000000
01000000
00001000
00010000
,
00000100
00001000
00000000
00000010
,
00000100
00000000
00000001
00000100
,
00000000
00001000
00010000
00000000
,
01000000
10000000
00010000
00010000
,
10000000
00000000
01000000
00100000
,
00000000
00001000
00010000
00000100
,
00001000
00000010
00000000
00000100
,
00000001
00000000
00001000
00000100
,
00000000
00010000
00001000
00000000
,
01000000
00010000
00100000
01000000
,
10000000
00000000
01000000
00100000
,
00000000
00001000
00010000
00000000
,
00000100
00000010
00000001
00000000
,
00000100
00000000
00000010
00001000
,
00000000
00000100
00010000
00000000
,
00001000
01000000
00010000
00100000
,
01000000
00000000
00000000
01000000
00000000
00000000
00100000
00000000
,
00000000
00100000
00000000
00000000
00001000
00000000
00010000
00000000
,
00001000
00010000
00000100
00000000
,
00000010
00000000
00000000
00000010
00000000
00000000
00000100
00000000
,
00000000
00000100
00000000
00000000
00001000
00000000
00000001
00000000
,
00001000
00000001
00000100
00000100
,
00000010
00000000
00000000
00010000
00000000
00000000
00000100
00000000
,
00000000
00010000
00000000
00000000
00001000
00000000
00000000
01000000
,
00000000
00000000
00001000
00000000
00000000
00100000
00000000
00000000
,
01000000
00000000
10000000
00010000
,
00000000
01000000
00001000
00010000
,
00000000
00000100
00001000
00000010
,
00000000
00000000
00000000
00000000
,
00000100
00000001
00001000
00000000
,
00000100
00010000
00000000
00001000
,
01000000
00000000
00010000
10000000
,
00000000
01000000
00100000
00000000
,
00001000
00010000
00000000
00000100
,
00000010
00000000
00000001
00000100
,
00000000
00000000
00000010
00000000
,
00010000
00001000
00000000
01000000
,
00010000
00000000
00100000
01000000
,
00000000
10000000
01000000
00000000
,
00100000
00001000
00010000
00000100
,
00010000
00000000
00001000
00100000
,
01000000
10000000
00010000
00000000
,
01000000
00001000
00000000
00010000
,
00000100
00000000
00001000
00000001
,
00000000
00000100
00000010
00000000
,
00010000
00001000
00000000
01000000
,
00100000
00000000
10000000
01000000
,
00000000
00000000
00100000
00000000
,
00001000
00010000
00000000
00000100
,
00001000
00000000
00000010
00000100
,
00000000
00000001
00000100
00000000
,
00000010
00010000
00001000
01000000
,
00001000
00000000
00010000
00000100
,
00000000
00000000
00001000
00000000
00000010
00000000
00000000
00000010
,
00000000
00000000
00000100
00000000
00000000
00000100
00000000
00000000
,
00001000
00000000
00000000
00001000
00000000
00000000
00010000
00000000
,
00000000
00010000
00000000
00000000
02000000
00000000
00000000
00000000
,
00000000
00000000
00000000
00000000
,
00000000
00000000
03000000
00000000
;

//---------------dance-single - ----------------
#NOTES:
     dance-single:
     :
     Beginner:
     1:
     0.117,0.140,0.000,0.017,0.000: // measure 1
0000
0000
0000
0000
,  // measure 2
0000
0000
0000
0000
,  // measure 3
0000
0000
0000
0000
,  // measure 4
0000
0000
0000
0000
,  // measure 5
0000
0000
0000
0000
,  // measure 6
0000
0000
0000
0000
,  // measure 7
0000
0000
0000
0000
,  // measure 8
1000
0000
0000
0001
,  // measure 9
0000
0000
1000
0000
,  // measure 10
0000
0001
0000
0000
,  // measure 11
0100
0000
0000
0010
,  // measure 12
0000
0000
0100
0000
,  // measure 13
0000
0001
0000
0000
,  // measure 14
2000
0000
0000
0000
,  // measure 15
0000
0000
0000
0000
,  // measure 16
0000
0000
0000
0000
,  // measure 17
3000
0000
0000
0000
,  // measure 18
0000
0000
0000
0000
,  // measure 19
0000
0000
0000
0000
,  // measure 20
0001
0000
0000
0100
,  // measure 21
0000
0000
0010
0000
,  // measure 22
0000
1000
0000
0000
,  // measure 23
0100
0000
0000
0010
,  // measure 24
0000
0000
0001
0000
,  // measure 25
0000
1000
0000
0000
,  // measure 26
0010
0000
0000
0100
,  // measure 27
0000
0000
0001
0000
,  // measure 28
0000
1000
0000
0000
,  // measure 29
0100
0000
0000
0010
,  // measure 30
0000
0000
0100
0000
,  // measure 31
0000
1000
0000
0000
,  // measure 32
0001
0000
0000
0100
,  // measure 33
0000
0000
0010
0000
,  // measure 34
0000
0100
0000
0000
,  // measure 35
0001
0000
0000
1000
,  // measure 36
0000
0000
0100
0000
,  // measure 37
0000
0010
0000
0000
,  // measure 38
0001
0000
0000
0010
,  // measure 39
0000
0000
0100
0000
,  // measure 40
0000
1000
0000
0000
,  // measure 41
0001
0000
0000
0100
,  // measure 42
0000
0000
0010
0000
,  // measure 43
0000
0100
0000
0000
,  // measure 44
0001
0000
0000
1000
,  // measure 45
0000
1000
0000
0000
1000
0000
0000
0000
,  // measure 46
0000
0001
0000
0000
,  // measure 47
0100
0000
0000
0010
,  // measure 48
0000
0010
0000
0000
0010
0000
0000
0000
,  // measure 49
0000
0100
0000
0000
,  // measure 50
0001
0000
0000
0100
,  // measure 51
0000
0000
0010
0000
,  // measure 52
0000
1000
0000
0000
,  // measure 53
0001
0000
0000
1000
,  // measure 54
0000
0000
0100
0000
,  // measure 55
0000
0010
0000
0000
,  // measure 56
0001
0000
0000
0000
,  // measure 57
0000
0000
1000
0000
,  // measure 58
0000
0100
0000
0000
,  // measure 59
0010
0000
0000
0001
,  // measure 60
0000
0000
0010
0000
,  // measure 61
0000
0100
0000
0000
,  // measure 62
1000
0000
0000
0001
,  // measure 63
0000
0000
0100
0000
,  // measure 64
0000
0010
0000
0000
,  // measure 65
0100
0000
0000
0001
,  // measure 66
0000
0000
1000
0000
,  // measure 67
0000
0100
0000
0000
,  // measure 68
0010
0000
0000
0010
0000
0000
0010
0000
,  // measure 69
0000
0000
0001
0000
,  // measure 70
0000
0100
0000
0000
,  // measure 71
0010
0000
0000
1000
,  // measure 72
0000
0000
0001
0000
,  // measure 73
0000
0010
0000
0000
,  // measure 74
0100
0000
0000
1000
,  // measure 75
0000
0000
0001
0000
,  // measure 76
0000
0100
0000
0000
,  // measure 77
0010
0000
0000
1000
,  // measure 78
0000
0000
0000
0000
0001
0000
0000
0001
,  // measure 79
0000
0001
0000
0000
,  // measure 80
1000
0000
0000
1000
0000
0000
1000
0000
,  // measure 81
0000
0000
0200
0000
,  // measure 82
0000
0000
0000
0000
,  // measure 83
0000
0000
0000
0000
,  // measure 84
0000
0000
0300
0000
;
