#TITLE:Element of SPADA;
#SUBTITLE:;
#ARTIST:猫叉Master feat. 霜月はるか;
#TITLETRANSLIT:;
#SUBTITLETRANSLIT:;
#ARTISTTRANSLIT:Nekomata Master feat. Haruka Shimotsuki;
#GENRE:;
#CREDIT:Silverhawke;
#MENUCOLOR:;
#METERTYPE:DDR;
#BANNER:Element of SPADA.png;
#BACKGROUND:Element of SPADA-bg.png;
#LYRICSPATH:;
#CDTITLE:cdtitle.png;
#MUSIC:Element of SPADA.mp3;
#OFFSET:-0.028;
#SAMPLESTART:81.182;
#SAMPLELENGTH:15.000;
#SELECTABLE:YES;
#LISTSORT:;
#DISPLAYBPM:170.000;
#BPMS:0.000=170.000,346.000=156.923,347.000=127.500,348.000=105.435,349.000=93.793,350.000=66.353;
#STOPS:;
#BGCHANGES:4.000=Element of SPADA.avi=1.000=1=0=0,
99999=-nosongbg-=1.000=0=0=0 // don't automatically add -songbackground-
;
#ATTACKS:;

//---------------dance-single - ----------------
#NOTES:
     dance-single:
     :
     Hard:
     11:
     0.519,0.540,0.115,0.308,0.000:
0000
0000
0000
0000
,
0000
0000
0000
0000
,
0000
0000
0000
0000
,
0000
0000
0000
0000
,
0001
0100
0100
0010
,
1000
1000
0100
0010
,
0010
0100
1000
0001
,
0100
0010
0010
1000
,
0100
0100
0010
0001
,
0001
1000
0010
0200
,
0301
0000
1000
0100
0010
0100
1000
0000
,
0001
0100
0010
0100
0001
0000
1000
0010
,
0100
0010
1000
0000
0001
0010
0100
1000
,
0001
0000
0100
0010
1000
0010
0100
0000
,
0001
0010
0100
0010
0001
0000
1000
0010
,
0100
0001
0010
0100
1000
0001
2000
0000
,
3001
0000
0100
0010
1000
0001
0100
0000
,
0001
0010
0100
1000
0001
0000
0100
0010
,
1000
0100
0010
0000
0100
1000
0001
0100
,
0010
0000
0100
0001
1000
0100
0020
0000
,
0031
2000
0000
3100
0010
0000
0001
0100
,
0010
1000
2002
0000
0000
0000
3003
0000
,
0001
0100
0100
0020
,
0030
1000
0200
0300
,
0010
0002
0003
1000
,
0002
0003
0100
0020
,
0030
1000
0002
0003
,
0010
0000
0100
0000
1000
0100
0010
0000
,
0001
0100
0100
0010
,
1000
0100
0010
0001
,
0001
1000
0100
0010
,
0001
0100
0100
0010
,
1000
0000
0001
0000
0101
0000
0000
0010
,
1000
2100
0001
3001
,
0010
0000
0100
1000
0100
0000
0010
0000
,
0001
0100
0001
0000
1000
0000
0010
0100
,
0010
0000
1000
0001
0010
0100
1000
0000
,
0001
0000
0100
0010
0100
0000
0001
0000
,
1000
0100
1000
0000
0100
0000
0010
0001
,
0100
0120
1000
0031
,
0010
0000
1000
0001
1000
0000
0100
0000
,
0010
0001
0010
0000
0100
0000
1000
0001
,
1000
0000
0010
0100
0001
1000
0100
0000
,
0010
0000
0001
0100
0010
0000
1000
0000
,
0100
0010
0001
0000
0001
1000
0100
0010
,
0001
2002
0000
3003
,
0002
0010
1003
2000
,
0100
0000
3001
0000
1000
0000
0100
0001
,
0100
0000
1000
0000
0001
0000
1000
0010
,
0001
0010
1000
0000
0001
0000
0010
0000
,
0100
1000
0001
0000
0100
0000
0010
1000
,
0100
0000
0010
0000
0001
0000
0100
1000
,
0100
0001
0100
0000
0010
0000
1000
0000
,
0001
0010
0100
0000
0001
0000
0100
1000
,
0001
0000
0100
0000
1000
0100
0010
0000
,
1000
0100
0010
0100
1000
0000
0001
0100
,
0010
0100
0001
0000
2000
0000
3100
0010
,
0001
0100
0110
0000
0020
0000
2030
0000
,
3001
0010
0011
1000
,
0010
1010
0001
0100
,
0101
0000
1000
0000
0100
0000
1100
0100
,
0010
0100
2000
0000
0010
0000
3001
0000
,
0200
0000
0320
0000
1030
0001
0200
0000
,
0010
1300
0200
0302
,
2003
0000
3100
0010
0100
0000
1000
0000
,
0010
0100
0010
1000
0001
0000
0100
0010
,
0001
0000
0010
0000
1000
0100
0010
0000
,
0002
0010
0103
2000
,
0100
0000
3010
0000
1000
0100
0010
0001
,
0100
0010
0100
0001
0010
0100
2000
0000
,
3001
0100
1010
1000
,
0100
0011
0001
0010
,
1100
0000
1000
0000
0010
0000
0101
0001
,
0010
0100
2000
0000
0010
0000
3001
0000
,
0200
0000
0320
0000
1030
0100
0020
0000
,
0001
0000
1030
0000
0010
0001
1000
0000
,
1001
0000
0100
0010
1000
0000
0200
0000
,
0310
0001
1000
0001
0100
0000
0010
1000
,
0200
0000
0310
0000
0001
1000
0001
0100
,
0010
1000
0010
0000
0100
0000
0001
0000
,
0010
0100
1000
0000
0010
0000
0100
0001
,
0010
0000
0100
0000
1000
0001
0100
0010
,
2000
0000
3100
0020
,
0000
0031
2000
3010
,
0100
0000
0001
0000
1000
0000
0100
0010
,
0001
0010
0100
0000
1000
0000
0001
0000
,
0100
0100
0010
1000
,
0001
0010
0100
1000
;

//---------------dance-single - ----------------
#NOTES:
     dance-single:
     :
     Medium:
     8:
     0.341,0.439,0.038,0.162,0.000:
0000
0000
0000
0000
,
0000
0000
0000
0000
,
0000
0000
0000
0000
,
0000
0000
0000
0000
,
0000
1000
0100
0000
,
0010
0001
0000
0001
,
0100
0000
0010
1000
,
0000
1000
0001
0000
,
0100
0001
0000
0001
,
1000
0000
0100
1000
,
0001
0100
0100
0001
,
1000
1000
0100
0010
,
0001
0010
0100
1000
,
0001
0000
1000
0100
,
0000
1000
0001
0000
,
0100
0020
0000
1030
,
0100
0010
0010
0001
,
0010
0010
0100
1000
,
0001
0100
0010
1000
,
0001
0000
1000
0100
,
0000
0010
0000
0000
0001
0000
1000
0000
,
0010
0110
0000
0000
,
1001
1000
0001
0100
,
0000
0100
0010
0000
,
0010
1000
0000
1000
,
0100
0000
0100
0010
,
0000
0010
0001
0000
,
0001
0100
0000
0010
,
1000
0100
0010
0001
,
0000
0100
0010
0000
,
0100
0001
0000
1000
,
0100
0000
0010
0001
,
0100
0000
0010
0000
1000
0000
0000
0010
,
0100
0001
0001
0001
,
1000
0100
0010
0001
,
0010
0100
1000
0010
,
0100
0001
0100
0010
,
1000
0001
0010
0100
,
1000
0010
0100
0001
,
1000
2002
0000
3003
,
0001
0100
0010
1000
,
0100
0010
0001
0010
,
0100
1000
0010
0100
,
0001
1000
0100
0010
,
0000
0100
1000
0001
,
0100
0110
0000
0000
,
1001
0001
0001
1000
,
1000
1000
0100
0100
,
0100
0010
0001
0010
,
0100
0100
0100
1000
,
1000
1000
0010
0010
,
0010
0100
0001
1000
,
0100
0100
0100
0010
,
0010
0010
0001
1000
,
0010
0100
0001
0010
,
0100
1000
0001
0100
,
0010
0000
1000
0000
0002
0000
0003
1000
,
0100
1000
0001
0000
0200
0000
0320
0000
,
1030
0100
0100
0010
,
0100
0100
1000
0100
,
0001
0100
1000
0001
,
0100
0010
0200
0000
0000
0000
0300
0000
,
0001
0000
1000
0000
0100
0010
0200
0000
,
0000
0300
1000
0001
,
0200
0000
0300
0020
,
0000
0000
0030
0100
0010
0000
1000
0000
,
1000
0001
0010
0100
,
1000
0001
0100
0010
,
0100
0000
0001
0000
1000
0000
0000
0100
,
0000
1000
0200
0320
,
0031
0100
0100
0010
,
0100
0100
0001
0100
,
1000
0100
0001
1000
,
0100
0010
0200
0000
0000
0000
0300
0000
,
1000
0000
0001
0000
0100
0010
0200
0000
,
0000
0300
0001
1000
,
0200
0000
0300
0020
,
0000
0000
0030
0100
0010
0000
0001
0000
,
0001
1000
0010
0100
,
0001
1000
0100
0010
,
0100
0000
1000
0000
0001
0000
0000
0100
,
0000
0000
0001
0000
0000
1000
0000
0000
,
0200
0000
0300
0020
,
0000
0030
0002
1000
,
0003
2000
0010
3000
,
0020
0100
0030
0100
,
0001
0000
0001
0010
,
0100
1000
0010
0100
;

//---------------dance-single - ----------------
#NOTES:
     dance-single:
     :
     Easy:
     4:
     0.199,0.236,0.015,0.000,0.000:
0000
0000
0000
0000
,
0000
0000
0000
0000
,
0000
0000
0000
0000
,
0000
0000
0000
0000
,
0001
0000
0000
0100
,
0000
0000
1000
0000
,
0000
0010
0000
0000
,
1000
0000
0000
0100
,
0000
0000
0001
0000
,
0000
0010
0000
0000
,
0100
0000
0100
1000
,
0000
1000
0001
0000
,
0001
0100
0000
0100
,
0010
0000
0010
1000
,
0000
1000
0001
0000
,
0001
0010
0000
0000
,
0001
0000
0001
0100
,
0000
0100
0010
0000
,
0010
1000
0000
1000
,
0100
0000
0100
0010
,
0000
0010
0001
0000
,
0000
1001
0000
0000
,
0100
0000
0000
0010
,
0000
0000
1000
0000
,
0000
0001
0000
0000
,
0010
0000
0000
0100
,
0000
0000
0010
0000
,
0001
1000
0000
0000
,
0001
0000
0000
0100
,
0000
0000
0010
0000
,
0000
1000
0000
0000
,
0100
0000
0000
0010
,
0000
0000
0000
0000
0100
0000
0000
1000
,
0000
0001
1000
0001
,
0100
0000
0000
0001
,
0000
0000
0000
0000
1000
0000
0000
0100
,
0000
0000
0010
0000
0000
0001
0000
0000
,
1000
0000
0000
0001
,
0000
0000
0000
0000
0100
0000
0000
0010
,
0000
1000
0001
0100
,
0001
0000
0000
0100
,
0000
0000
0000
0000
0010
0000
0000
1000
,
0000
0000
0001
0000
0000
1000
0000
0000
,
0100
0000
0000
0010
,
0000
0000
0000
0000
0001
0000
0000
0100
,
0000
0010
0000
0000
,
1000
0000
0000
0100
0000
0000
1000
0000
,
0000
0001
0000
0000
1000
0000
0000
0010
,
0000
1000
0100
0010
,
0001
0000
0000
0100
0000
0000
0001
0000
,
0000
1000
0000
0000
0001
0000
0000
0010
,
0000
0001
0100
0010
,
1000
0000
0000
0100
0000
0000
1000
0000
,
0000
0010
0000
0000
1000
0000
0000
0001
,
0000
1000
0100
0010
,
0001
0000
0000
0100
0000
0000
0001
0000
,
0000
0010
0000
0000
0001
0000
0000
0100
,
0000
0110
0000
0000
,
1000
0000
0000
0001
,
0000
0000
0100
0000
,
0100
0010
0000
0100
,
0001
0100
0000
0000
,
0001
1000
0001
1000
,
0000
0000
0001
0100
,
0001
0000
0000
1000
,
0000
0000
0100
0000
,
0000
0010
0001
0010
,
0100
0000
0000
1000
,
0000
0000
0000
0000
0001
0000
0000
0100
,
0000
0000
0010
0000
0000
1000
0000
0000
,
0001
0000
0000
1000
,
0000
0000
0100
0000
,
0100
1000
0000
0001
,
1000
0001
0000
0000
,
0100
0010
0100
0010
,
0000
0000
1000
0100
,
0010
0000
0000
0001
,
0000
1000
0010
0000
,
0100
0001
0000
1000
,
0100
0010
0000
0001
,
0000
0000
0000
0000
0100
0000
0000
0010
,
0000
0000
1000
0000
0000
0001
0000
0000
,
0010
0000
0000
0100
,
0000
0000
1000
0000
,
0000
0001
0000
0000
,
0100
0000
0000
0010
,
0000
0000
1000
0000
,
1000
0001
0000
0001
;

//---------------dance-single - ----------------
#NOTES:
     dance-single:
     :
     Beginner:
     1:
     0.076,0.100,0.000,0.000,0.000:
0000
0000
0000
0000
,
0000
0000
0000
0000
,
0000
0000
0000
0000
,
0000
0000
0000
0000
,
0010
0000
0000
0000
,
0000
0000
0010
0000
,
0000
0000
0000
0000
,
0100
0000
0000
0000
,
0000
0000
0100
0000
,
0000
0000
0000
0000
,
1000
0000
0000
0000
,
0000
0000
1000
0000
,
0000
0000
0000
0000
,
0001
0000
0000
0000
,
0000
0000
0001
0000
,
0000
0000
0000
0000
,
0100
0000
0000
0000
,
0000
0000
0010
0000
,
0000
0000
0000
0000
,
1000
0000
0000
0000
,
0000
0000
0100
0000
,
0000
0000
0000
0000
,
0010
0000
0000
0000
,
0000
0000
0000
0000
,
0000
0000
0000
0000
,
0001
0000
0000
0000
,
0000
0000
0000
0000
,
0000
0000
0000
0000
,
1000
0000
0000
0000
,
0000
0000
0010
0000
,
0000
0000
0000
0000
,
0100
0000
0000
0000
,
0000
0000
0001
0000
,
0000
0000
0000
0000
,
0010
0000
0000
0010
,
0000
0000
0010
0000
,
0000
0000
0000
0000
,
0100
0000
0000
0100
,
0000
0000
0100
0000
,
0000
0000
0000
0000
,
1000
0000
0000
1000
,
0000
0000
1000
0000
,
0000
0000
0000
0000
,
0001
0000
0000
0001
,
0000
0000
0001
0000
,
0000
0000
0000
0000
,
0100
0000
0000
0000
,
0000
0000
0010
0000
,
0000
0010
0000
0000
,
0010
0000
0000
0000
,
0000
0000
1000
0000
,
0000
1000
0000
0000
,
1000
0000
0000
0000
,
0000
0000
0100
0000
,
0000
0100
0000
0000
,
0100
0000
0000
0000
,
0000
0000
0010
0000
,
0000
0000
0000
0000
,
0001
0000
0000
0001
,
0000
0000
1000
0000
,
0000
1000
0000
0000
,
0100
0000
0000
0000
,
0000
0000
0010
0000
,
0000
0000
0000
0000
,
0001
0000
0000
0001
,
0000
0000
1000
0000
,
0000
1000
0000
0000
,
0010
0000
0000
0000
,
0000
0000
0100
0000
,
0000
0000
0000
0000
,
0010
0000
0000
0010
,
0000
0000
0100
0000
,
0000
0100
0000
0000
,
0001
0000
0000
0000
,
0000
0000
1000
0000
,
0000
0000
0000
0000
,
0100
0000
0000
0100
,
0000
0000
0010
0000
,
0000
0010
0000
0000
,
0001
0000
0000
0000
,
0000
0000
1000
0000
,
0000
0000
0000
0000
,
0010
0000
0000
0000
,
0000
0000
0100
0000
,
0000
0000
0000
0000
,
0001
0000
0000
0000
,
0000
0000
1000
0000
;

//---------------dance-double - ----------------
#NOTES:
     dance-double:
     :
     Hard:
     11:
     0.502,0.506,0.038,0.339,0.004:
00000000
00000000
00000000
00000000
,
00000000
00000000
00000000
00000000
,
00000000
00000000
00000000
00000000
,
00000000
00000000
00000000
00000000
,
00000001
00000100
00000100
00000010
,
00010000
00010000
00001000
00100000
,
00100000
01000000
00010000
01000000
,
10000000
00100000
00100000
01000000
,
00001000
00001000
00010000
00000100
,
00000100
00000010
00001000
00000010
,
00000001
00000000
00000100
00000010
00000100
00000000
00001000
00000000
,
00010000
00100000
00010000
00000000
00001000
00000000
00100000
01000000
,
00100000
00000000
01000000
00000000
10000000
00010000
10000000
00000000
,
00100000
00000000
01000000
00010000
01000000
00000000
00001000
00000000
,
00010000
00000100
00010000
00000000
00000010
00000000
00000100
00000001
,
00000100
00000000
00001000
00010000
01000000
00100000
00010000
00000000
,
10010000
00000000
10000000
01000000
10000000
00000000
00100000
00000000
,
01000000
00001000
01000000
00000000
00010000
00000000
00100000
00001000
,
00100000
00010000
00001000
00000100
,
00000010
00000000
00000001
00001000
00000001
00000000
00000100
00000000
,
00001000
00010000
00000000
00100000
10000000
00000000
00010000
00100000
,
01000000
20020000
00000000
30030000
,
10000000
01000000
00100000
00002000
,
00010000
00013000
02000000
00100000
,
03100000
00002000
00010000
00013000
,
00000200
00000010
00000310
00000001
,
00000100
00000010
00010000
00001000
,
00100000
01000000
00010000
00000100
,
00000020
00000001
00000130
00020000
,
00001000
00130000
20000000
01000000
,
30010000
00200000
00010000
00301000
,
00020000
00000010
00030100
00002000
,
00000100
00000000
00003001
00000000
00000010
00000000
00000000
00000100
,
00001000
00000001
00001000
00010000
,
10000000
00000000
01000000
00100000
01000000
00000000
10000000
00000000
,
00010000
01000000
00100000
00000000
00010000
00000000
00001000
00010000
,
00000100
00000000
00000010
00000000
00000001
00001000
00000100
00000000
,
00000010
00000000
00000100
00001000
00000100
00000000
00010000
00000000
,
00001000
01000000
00100000
00000000
10000000
00000000
00010000
00100000
,
01000000
00020000
02030000
23000000
,
30010000
00000000
01000000
00001000
00010000
00000000
00000100
00000000
,
00000010
00000100
00001000
00000000
00000001
00000000
00000100
00001000
,
00010000
00000000
00001000
00000000
00100000
01000000
10000000
00000000
,
01000000
00000000
00010000
00001000
00010000
00000100
00001000
00000000
,
00000010
00000100
00000001
00000000
00001001
00000000
00001000
00000100
,
00010000
00022000
00000000
00033000
,
00020000
00001000
01000000
00001000
,
00100000
00000000
00031000
00000000
00010000
00000000
01000000
10000000
,
00100000
00000000
01000000
00000000
00010000
00000000
10000000
01000000
,
10000000
00010000
02000000
00000000
00100000
00000000
10000000
00000000
,
00010000
00000000
00001000
00000000
03100000
00000000
10000000
01000000
,
00100000
00000000
00001000
00000000
00010000
00000100
00000010
00001000
,
00000001
00000100
00002000
00000000
00000010
00000000
00010000
00000000
,
00100000
00023000
02030000
00100000
,
03020000
20030000
32000000
03020000
,
00032000
00003100
00000010
00001000
,
00000001
00000000
00000000
00000000
00000100
00000000
00000000
00000000
00000120
00000000
00000000
00000000
00000000
00000000
00010030
00001000
,
00010000
00001000
01000000
00000000
00200000
00000000
20300000
00000000
,
30010000
00000000
00100000
01000000
10000000
00000000
00010000
00000000
,
01000000
00001000
00010000
00000000
00000100
00000000
00001000
00000010
,
00000100
00000000
00001000
00000000
00010000
00000000
01000000
10000000
,
00010000
01000000
00200000
00000000
10000000
00000000
00310000
00000000
,
00002000
00000000
00003200
00000000
00000310
00001000
00000002
00000000
,
00000010
00001003
00020000
20030000
,
32000000
00000000
03100000
00010000
10000000
00000000
01000000
00000000
,
00100000
00001000
00010000
00001000
00000100
00000000
00000010
00001000
,
00000001
00000000
00000010
00000000
00000100
00010000
00001000
00000000
,
00000100
00000010
00010000
00001000
00100000
01000000
00010000
00000000
,
01000000
00000000
10000000
00000000
00100000
00010000
00001000
00000100
,
00000001
00000100
00001000
00010000
00000100
00000010
00000001
00000000
,
00001000
00000000
00000010
00000100
00000001
00000000
00001000
00000000
,
00000100
00010000
00001000
00000000
01000000
00000000
00010000
00100000
,
01000000
00000000
00010000
00000000
00001000
00000000
00000100
00000001
,
00001000
00000100
00000020
00000000
00000001
00000000
00001030
00000000
,
00020000
00000000
02030000
00000000
03100000
00010000
20000000
00000000
,
00100000
30010000
00002000
00003002
,
00000203
00000000
00000310
00001000
00000001
00000000
00000100
00000000
,
00000010
00010000
00001000
00010000
01000000
00000000
00100000
00010000
,
10000000
00000000
00100000
00000000
01000000
00001000
00010000
00000000
,
01000000
00100000
00001000
00010000
00000010
00000100
00001000
00000000
,
00000100
00000000
00000001
00000000
00000010
00001000
00010000
01000000
,
10000000
01000000
00010000
00000000
00001000
00000100
00000001
00001000
,
00000100
00000000
00000000
00010000
,
00000000
00000000
00000000
00001000
01000000
00000000
00100000
00000000
,
10000000
00000000
01000000
00000000
00010000
00000000
00001000
00000010
,
00000001
00000010
00000100
00000000
00001000
00000000
00010000
00000000
,
00100000
01000000
10000000
01000000
,
00010000
00001000
00000100
00000001
;

//---------------dance-double - ----------------
#NOTES:
     dance-double:
     :
     Medium:
     8:
     0.336,0.405,0.023,0.023,0.000: // measure 1
00000000
00000000
00000000
00000000
,  // measure 2
00000000
00000000
00000000
00000000
,  // measure 3
00000000
00000000
00000000
00000000
,  // measure 4
00000000
00000000
00000000
00000000
,  // measure 5
00001000
00000000
01000000
00010000
,  // measure 6
00000000
10000000
01000000
00000000
,  // measure 7
00100000
00001000
00010000
00001000
,  // measure 8
00000100
00000000
00000010
00001000
,  // measure 9
00000000
00000001
00000010
00000000
,  // measure 10
00000100
00010000
00001000
00010000
,  // measure 11
01000000
00100000
00010000
10000000
,  // measure 12
01000000
00100000
00001000
00010000
,  // measure 13
00001000
00000100
00000010
00001000
,  // measure 14
00000001
00000010
00000100
00000001
,  // measure 15
00000100
00001000
00000010
00000100
,  // measure 16
00001000
00011000
00000000
00000000
,  // measure 17
00010000
01000000
00100000
00010000
,  // measure 18
01000000
00100000
00010000
00100000
,  // measure 19
01000000
00001000
00010000
00001000
,  // measure 20
00000100
00000010
00001000
00000100
,  // measure 21
00000000
00000010
00000000
00000000
00000001
00000000
00000100
00000000
,  // measure 22
00000010
00000110
00000000
00000000
,  // measure 23
00000100
00000000
00000100
00001000
,  // measure 24
00000000
00001000
00010000
00000000
,  // measure 25
00010000
00100000
00000000
00100000
,  // measure 26
01000000
00000000
01000000
00001000
,  // measure 27
00000000
00001000
00000100
00000000
,  // measure 28
00000100
00000010
00010000
00001000
,  // measure 29
00100000
01000000
10000000
00100000
,  // measure 30
00000000
01000000
00010000
00000000
,  // measure 31
00010000
00100000
00001000
00001000
,  // measure 32
00000100
00000010
00001000
00000001
,  // measure 33
00000010
00000000
00000100
00000000
00001000
00000000
00000000
00000010
,  // measure 34
00000100
00001000
00010000
00100000
,  // measure 35
01000000
00010000
00010000
10000000
,  // measure 36
01000000
00100000
00001000
00010000
,  // measure 37
00010000
00001000
00000100
00000010
,  // measure 38
00001000
00000100
00000100
00000010
,  // measure 39
00000001
00001000
00000100
00010000
,  // measure 40
00010000
02000000
03200000
00320000
,  // measure 41
10030000
00100000
00100000
01000000
,  // measure 42
00010000
00100000
00001000
00010000
,  // measure 43
00010000
00001000
00000100
00000010
,  // measure 44
00001000
00000001
00000001
00000010
,  // measure 45
00000000
00000000
00000100
00000000
00010000
00000000
00000000
00001000
,  // measure 46
00000000
00011000
00000000
00000000
,  // measure 47
00010000
01000000
00100000
00010000
,  // measure 48
00000000
10000000
00100000
01000000
,  // measure 49
00010000
00100000
00001000
00010000
,  // measure 50
00001000
00000100
00000010
00001000
,  // measure 51
00000000
00000001
00000010
00000001
,  // measure 52
00000100
00001000
00010000
00001000
,  // measure 53
00010000
01000000
10000000
00010000
,  // measure 54
00000000
01000000
00100000
10000000
,  // measure 55
00100000
01000000
00001000
00010000
,  // measure 56
00000100
00000010
00000001
00000100
,  // measure 57
00000010
00000000
00001000
00000000
00000100
00000000
00000000
00010000
,  // measure 58
00001000
01000000
00010000
00000000
00100000
00000000
00010000
00000000
,  // measure 59
01000000
00010000
00010000
10000000
,  // measure 60
01000000
00100000
00010000
00100000
,  // measure 61
01000000
10000000
01000000
00010000
,  // measure 62
00001000
00010000
00001000
00000000
00000000
00000000
00000100
00000000
,  // measure 63
00000010
00000000
00001000
00000000
00000001
00001000
00000001
00000000
,  // measure 64
00000000
00000010
00000100
00010000
,  // measure 65
00001000
00100000
00001000
00010000
,  // measure 66
00000100
00001000
00000010
00000100
,  // measure 67
00000001
00001000
00000100
00010000
,  // measure 68
00001000
00010000
00000100
00000010
,  // measure 69
00000001
00000000
00000100
00000000
00000010
00010000
00000010
00000000
,  // measure 70
00000100
00000001
00000010
00000010
,  // measure 71
00000100
00001000
00001000
00000001
,  // measure 72
00000100
00000010
00001000
00000010
,  // measure 73
00000100
00000001
00000100
00001000
,  // measure 74
00010000
00001000
00010000
00000000
00000000
00000000
01000000
00000000
,  // measure 75
00100000
00000000
00010000
00000000
10000000
00010000
10000000
00000000
,  // measure 76
00000000
00100000
01000000
00001000
,  // measure 77
00010000
00000010
00010000
00001000
,  // measure 78
01000000
00010000
00100000
01000000
,  // measure 79
10000000
00010000
01000000
00001000
,  // measure 80
00010000
00001000
01000000
00100000
,  // measure 81
10000000
01000000
00100000
00000000
00001000
00000000
00100000
00000000
,  // measure 82
01000000
00010000
00001000
00000100
,  // measure 83
00000010
00000000
00000000
00010000
,  // measure 84
00000000
00000000
00001000
00000000
,  // measure 85
00000000
01000000
00000000
00000000
,  // measure 86
00100000
00000000
00000000
10000000
,  // measure 87
00000000
00000000
00010000
01000000
,  // measure 88
00100000
10000000
01000000
00100000
;

//---------------dance-double - ----------------
#NOTES:
     dance-double:
     :
     Easy:
     3:
     0.164,0.203,0.000,0.000,0.000: // measure 1
00000000
00000000
00000000
00000000
,  // measure 2
00000000
00000000
00000000
00000000
,  // measure 3
00000000
00000000
00000000
00000000
,  // measure 4
00000000
00000000
00000000
00000000
,  // measure 5
10000000
00000000
00000000
00000000
,  // measure 6
00000000
00000000
00010000
00000000
,  // measure 7
00000000
00000000
00000000
00000000
,  // measure 8
00001000
00000000
00000000
00000000
,  // measure 9
00000000
00000000
00000001
00000000
,  // measure 10
00000000
00000000
00000000
00000000
,  // measure 11
00000100
00000000
00000000
00000010
,  // measure 12
00000000
00000000
00010000
00001000
,  // measure 13
00010000
00001000
00000000
00000000
,  // measure 14
01000000
00000000
00000000
00100000
,  // measure 15
00000000
00000000
10000000
00010000
,  // measure 16
00100000
01000000
00000000
00000000
,  // measure 17
10000000
00000000
00000000
01000000
,  // measure 18
00000000
00000000
00100000
00001000
,  // measure 19
00100000
00001000
00000000
00000000
,  // measure 20
00010000
00000000
00000000
00000100
,  // measure 21
00000000
00000000
00001000
00000010
,  // measure 22
00000100
00000001
00000000
00000000
,  // measure 23
00001000
00000000
00000000
00000100
,  // measure 24
00000000
00000000
00010000
00000000
,  // measure 25
00000000
00001000
00000000
00000000
,  // measure 26
01000000
00000000
00000000
00100000
,  // measure 27
00000000
00000000
10000000
00010000
,  // measure 28
10000000
00010000
00000000
00000000
,  // measure 29
00100000
00000000
00000000
01000000
,  // measure 30
00000000
00000000
00010000
00000000
,  // measure 31
00000000
00001000
00000000
00000000
,  // measure 32
00000100
00000000
00000000
00000010
,  // measure 33
00001000
00000001
00000010
00000000
,  // measure 34
00000100
00000100
00000000
00000000
,  // measure 35
00001000
00000000
00000000
00000001
,  // measure 36
00000000
00000000
00000100
00000010
,  // measure 37
00010000
00000010
00000000
00000000
,  // measure 38
00010000
00000000
00000000
00001000
,  // measure 39
00000000
00000000
01000000
00010000
,  // measure 40
10000000
00010000
00000000
00000000
,  // measure 41
00100000
00000000
00000000
01000000
,  // measure 42
00000000
00000000
10000000
00010000
,  // measure 43
10000000
01000000
00000000
00000000
,  // measure 44
00100000
00000000
00000000
00001000
,  // measure 45
00000000
00000000
00010000
00000010
,  // measure 46
00000100
00000001
00000000
00000000
,  // measure 47
00001000
00000000
00000000
00000100
,  // measure 48
00000000
00000000
00010000
00000000
,  // measure 49
00000000
00001000
01000000
00001000
,  // measure 50
01000000
00000000
00000000
00100000
,  // measure 51
00000000
00000000
10000000
00000000
,  // measure 52
00000000
01000000
00100000
01000000
,  // measure 53
00100000
00000000
00000000
00001000
,  // measure 54
00000000
00000000
00010000
00000000
,  // measure 55
00000000
00000010
00000100
00000010
,  // measure 56
00000100
00000000
00000000
00000001
,  // measure 57
00000000
00000000
00001000
00000000
,  // measure 58
00000000
00000100
00000000
00000000
,  // measure 59
00010000
00000000
00000000
00001000
,  // measure 60
00000000
00000000
01000000
00000000
,  // measure 61
00000000
00100000
00000000
00000000
,  // measure 62
10000000
00000000
00000000
01000000
,  // measure 63
00000000
00000000
00100000
00001000
,  // measure 64
00100000
00001000
00000000
00000000
,  // measure 65
00010000
00000000
00000000
00000010
,  // measure 66
00000000
00000000
00000100
00000000
,  // measure 67
00000000
00000001
00000000
00000000
,  // measure 68
00000100
00000000
00000000
00001000
,  // measure 69
00000000
00000000
00010000
01000000
,  // measure 70
00010000
01000000
00000000
00000000
,  // measure 71
10000000
00000000
00000000
00100000
,  // measure 72
00000000
00000000
01000000
00000000
,  // measure 73
00000000
00001000
00000000
00000000
,  // measure 74
00010000
00000000
00000000
00000100
,  // measure 75
00000000
00000000
00001000
00000010
,  // measure 76
00000100
00000001
00000000
00000000
,  // measure 77
00001000
00000000
00000000
00000100
,  // measure 78
00000000
00000000
00000010
00000000
,  // measure 79
00000000
00000001
00000000
00000000
,  // measure 80
00000100
00000010
00010000
00001000
,  // measure 81
00000000
00000000
01000000
00010000
,  // measure 82
10000000
01000000
00000000
00000000
,  // measure 83
00100000
00000000
00000000
00001000
,  // measure 84
00000000
00000000
00010000
00000000
,  // measure 85
00000000
00000010
00000000
00000000
,  // measure 86
00000100
00000000
00000000
00000001
,  // measure 87
00000000
00000000
00001000
00000100
,  // measure 88
00010000
00001000
00010000
00000100
;
