#TITLE:ΕΛΠΙΣ;
#SUBTITLE:;
#ARTIST:dj TAKA;
#TITLETRANSLIT:ELPIS;
#SUBTITLETRANSLIT:;
#ARTISTTRANSLIT:;
#GENRE:;
#CREDIT:Silverhawke;
#MENUCOLOR:;
#METERTYPE:DDR;
#BANNER:ELPIS.png;
#BACKGROUND:ELPIS-bg.png;
#LYRICSPATH:;
#CDTITLE:cdtitle.png;
#MUSIC:ELPIS.mp3;
#OFFSET:-0.025;
#SAMPLESTART:100.831;
#SAMPLELENGTH:15.000;
#SELECTABLE:YES;
#LISTSORT:;
#BPMS:0.000=175.000;
#STOPS:;
#BGCHANGES:;
#ATTACKS:;

//---------------dance-couple - ----------------
#NOTES:
     dance-couple:
     :
     Challenge:
     1:
     0.000,0.000,0.000,0.000,0.000:
00000000
00000000
00000000
00000000
,
00000000
00000000
00000000
00000000
,
00000000
00000000
00000000
00000000
,
00000000
00000000
00000000
00000000
,
00000000
00000000
00000000
00000000
,
00000000
00000000
00000000
00000000
,
00000000
00000000
00000000
00000000
,
00000000
00000000
00000000
00000000
,
00000000
00000000
00000000
00000000
,
00000000
00000000
00000000
00000000
,
00000000
00000000
00000000
00000000
,
00000000
00000000
00000000
00000000
,
00000000
00000000
00000000
00000000
,
00000000
00000000
00000000
00000000
,
00000000
00000000
00000000
00000000
,
00000000
00000000
00000000
00000000
,
00000000
00000000
00000000
00000000
,
00000000
00000000
00000000
00000000
,
00000000
00000000
00000000
00000000
,
00000000
00000000
00000000
00000000
,
00000000
00000000
00000000
00000000
,
00000000
00000000
00000000
00000000
,
00000000
00000000
00000000
00000000
,
00000000
00000000
00000000
00000000
,
00000000
00000000
00000000
00000000
,
00000000
00000000
00000000
00000000
,
00000000
00000000
00000000
00000000
,
00000000
00000000
00000000
00000000
,
00000000
00000000
00000000
00000000
,
00000000
00000000
00000000
00000000
,
00000000
00000000
00000000
00000000
,
00000000
00000000
00000000
00000000
,
00000000
00000000
00000000
00000000
,
00000000
00000000
00000000
00000000
,
00000000
00000000
00000000
00000000
,
00000000
00000000
00000000
00000000
,
00000000
00000000
00000000
00000000
,
00000000
00000000
00000000
00000000
,
00000000
00000000
00000000
00000000
,
00000000
00000000
00000000
00000000
,
00000000
00000000
00000000
00000000
,
00000000
00000000
00000000
00000000
,
00000000
00000000
00000000
00000000
,
00000000
00000000
00000000
00000000
,
00000000
00000000
00000000
00000000
,
00000000
00000000
00000000
00000000
,
00000000
00000000
00000000
00000000
,
00000000
00000000
00000000
00000000
,
00000000
00000000
00000000
00000000
,
00000000
00000000
00000000
00000000
,
00000000
00000000
00000000
00000000
,
00000000
00000000
00000000
00000000
,
00000000
00000000
00000000
00000000
,
00000000
00000000
00000000
00000000
,
00000000
00000000
00000000
00000000
,
00000000
00000000
00000000
00000000
,
00000000
00000000
00000000
00000000
,
00000000
00000000
00000000
00000000
,
00000000
00000000
00000000
00000000
,
00000000
00000000
00000000
00000000
,
00000000
00000000
00000000
00000000
,
00000000
00000000
00000000
00000000
,
00000000
00000000
00000000
00000000
,
00000000
00000000
00000000
00000000
,
00000000
00000000
00000000
00000000
,
00000000
00000000
00000000
00000000
,
00000000
00000000
00000000
00000000
,
00000000
00000000
00000000
00000000
,
00000000
00000000
00000000
00000000
,
00000000
00000000
00000000
00000000
,
00000000
00000000
00000000
00000000
,
00000000
00000000
00000000
00000000
,
00000000
00000000
00000000
00000000
,
00000000
00000000
00000000
00000000
,
00000000
00000000
00000000
00000000
,
00000000
00000000
00000000
00000000
,
00000000
00000000
00000000
00000000
,
00000000
00000000
00000000
00000000
,
00000000
00000000
00000000
00000000
,
00000000
00000000
00000000
00000000
,
00000000
00000000
00000000
00000000
,
00000000
00000000
00000000
00000000
,
00000000
00000000
00000000
00000000
,
00000000
00000000
00000000
00000000
,
00000000
00000000
00000000
00000000
,
00000000
00000000
00000000
00000000
,
00000000
00000000
00000000
00000000
,
00000000
00000000
00000000
00000000
,
MMMMMMMM
00000000
00000000
00000000
;

//---------------dance-single - ----------------
#NOTES:
     dance-single:
     :
     Hard:
     14:
     0.646,0.661,0.261,0.123,0.161:
0000
0000
0000
0000
,
0000
0000
0000
0000
,
0000
0000
0000
0000
,
0000
0000
0000
0000
,
0000
0000
0000
0000
,
0001
0000
0000
0000
1010
0000
0000
0001
0000
0000
0100
0000
0110
0000
0000
0000
,
1000
0000
0000
0000
0011
0000
0000
1000
0000
0000
0100
0000
0110
0000
0000
0000
,
0001
0000
0000
0000
1100
0000
0000
0010
0000
0000
0001
0000
1001
0000
0000
0000
,
1000
0000
0000
0000
0101
0000
0000
0010
0000
0000
1000
0000
1001
0000
0000
0000
,
1000
0100
0001
0100
1000
0100
0010
0001
,
1000
0010
1000
0010
0001
1000
0100
0100
,
0001
0100
1000
0100
0001
0100
0010
1000
,
0001
0010
0100
1000
0001
0100
0010
0010
,
1000
0100
0010
0001
0010
0100
1000
0010
,
0100
0001
0100
0010
1000
0100
0010
0001
,
0100
0010
0010
1000
0100
0100
0010
0001
,
0001
1000
0010
0010
0100
0001
0011
0000
,
0001
0100
1000
0100
0001
0100
0010
1000
,
0001
0010
0001
0010
1000
0001
0100
0100
,
1000
0100
0001
0100
1000
0100
0010
0001
,
1000
0010
0100
0001
1000
0100
0010
0010
,
0001
0100
0010
1000
0010
0100
0001
0010
,
0100
1000
0100
0010
0001
0100
0010
1000
,
0100
0010
0010
0001
0100
0100
0010
1000
,
1000
0001
0010
0010
0100
1000
1000
0001
,
0202
0000
0000
0003
,
2000
0000
0000
0300
,
0002
0000
0000
3000
,
0020
0000
0000
0003
,
1030
0100
0010
0001
0000
0100
0010
0000
,
0110
0000
0000
0000
0100
0001
0000
0000
1000
0000
0000
0000
0100
0000
0000
0000
,
0010
0001
0100
1000
0100
0001
0010
0100
,
1100
1010
0101
0011
,
1000
0100
0010
0001
0010
0100
1000
0001
,
0100
0010
0100
0000
0001
0000
1000
0000
0100
0010
0100
0000
1000
0000
0001
0000
,
0100
0000
0010
1000
0000
0101
0000
1100
,
0000
0000
0000
0000
0001
0010
0000
0000
0110
0000
0000
0000
1001
0000
0000
0000
,
0001
0100
0010
1000
0000
0100
0010
0000
,
0110
0000
0000
0000
0100
1000
0000
0000
0001
0000
0000
0000
0100
0000
0000
0000
,
0010
1000
0100
0001
0100
1000
0010
0100
,
0101
0011
1100
1010
,
0001
0100
0010
1000
0010
0100
0001
1000
,
0100
0010
0100
0000
1000
0000
0001
0000
0100
0010
0100
0000
0001
0000
1000
0000
,
0100
0000
0010
0001
0000
1100
0000
0101
,
0000
0000
0000
0000
1000
0010
0000
0000
0110
0000
0000
0000
1000
0000
0001
0000
,
0101
0000
0000
0000
0100
0010
0000
0000
1010
0000
0000
0000
0001
0000
1000
0000
,
1100
0000
0000
0000
0010
0001
0000
0000
0101
0000
0000
0000
0010
0000
1000
0000
,
1100
0000
0100
0010
0000
0010
0001
0000
0001
0100
0000
0100
,
0010
1000
0100
0010
0001
0010
0100
1000
0001
0100
0010
1000
,
0001
0010
0100
1000
0001
0010
0100
1000
,
0001
0000
0000
0001
0100
0000
0000
0100
0010
0000
1000
0000
0100
0000
0010
0000
,
0001
0000
0000
0001
1000
0000
0100
0000
0001
0000
0100
0000
1000
0000
0010
0000
,
0100
0100
0001
0100
0100
1000
0100
0010
,
1000
0100
1000
0000
0010
0000
0100
0000
0001
0010
0001
0000
0100
0000
0010
0000
,
1000
0100
0001
0100
1000
0001
0000
0001
,
0100
0010
0100
0001
1000
0100
0010
0100
,
1000
1000
0001
0100
0010
0010
0100
0001
,
1000
0100
0010
0001
0010
0100
1000
0001
,
0010
0001
0100
0010
1000
0100
0010
0001
,
0100
1000
0100
0001
0010
1000
0010
0100
,
1000
0000
0000
1000
0000
0000
0100
0000
0010
0000
0000
0010
0000
0000
0001
0000
,
0100
1000
0100
0010
1000
0100
0001
0200
,
0310
0001
0010
0100
1000
0001
0100
1000
,
0100
0001
1000
0100
0010
0001
0100
1000
,
0100
0010
1000
0001
0010
0100
1000
0001
,
1000
0100
0010
0001
1000
0010
0100
0001
,
1002
0000
0000
0103
0010
1000
0010
0001
,
0010
0100
1000
0100
0001
1000
0100
0010
,
0001
1000
0001
1000
0100
0010
0100
0010
,
0001
0001
0100
0010
1000
1000
0100
0010
,
0001
0100
1000
0100
0001
0100
0010
0100
,
0001
0010
1000
0010
0001
0010
0100
0010
,
0001
0010
0100
1000
0001
0100
0010
1000
,
0100
1000
0010
0100
0001
1000
0100
0010
,
0002
0000
0000
0000
0000
0000
0000
0000
0000
1003
0000
0000
0001
0000
0000
1000
0100
1000
0100
0000
0000
0010
0000
0000
,
0002
0000
1003
0100
0001
0100
1000
0010
,
0100
0000
0100
0001
0000
0001
1000
0000
1000
0100
0000
0100
,
0010
0000
0000
0000
0010
0000
0001
0000
0000
1000
0000
0000
1000
0000
0000
0010
0000
0000
0100
0000
0000
0001
0000
0000
,
2000
0000
0000
0000
0000
0000
0000
0000
0000
3001
0000
0000
1000
0000
0000
0001
0100
0001
0100
0000
0000
0010
0000
0000
,
2000
0000
3001
0100
1000
0100
0001
0010
,
0100
1000
0001
0200
0000
0320
0000
1030
,
0200
0000
0310
0002
0000
2003
0000
3010
,
0110
0000
0000
0000
;

//---------------dance-single - ----------------
#NOTES:
     dance-single:
     :
     Medium:
     11:
     0.479,0.535,0.138,0.069,0.015:
0000
0000
0000
0000
,
0000
0000
0000
0000
,
0000
0000
0000
0000
,
0000
0000
0000
0000
,
0000
0000
0000
0000
,
1000
0000
0001
0000
0100
0010
1000
0000
,
0100
0000
0010
0000
0001
0100
0010
0000
,
1000
0000
0010
0000
0100
0001
1000
0000
,
0100
0000
0010
0000
0001
1000
0100
0000
,
0010
0001
0010
0000
0001
0010
0001
0000
,
1000
0000
0100
0000
0010
0001
0010
0000
,
0100
1000
0100
0000
1000
0100
1000
0000
,
0001
0000
0100
0000
0010
1000
0010
0000
,
1000
0000
0010
0000
0100
0001
0100
0000
,
0010
0000
1000
0000
0001
0100
0001
0000
,
1000
0100
0010
0000
0001
0100
0010
0000
,
1000
0000
0100
0000
0010
0001
0100
0000
,
0001
0010
0001
0000
0010
0001
0010
0000
,
0001
0000
0100
0000
0010
1000
0010
0000
,
1000
0100
1000
0000
0100
1000
0100
0000
,
1000
0000
0010
0000
0100
0001
0100
0000
,
0001
0010
0100
0000
1000
0000
0001
0000
,
0100
0010
1000
0000
0001
0000
0010
0000
,
0100
1000
0100
0000
1000
0010
1000
0000
,
0010
0100
0010
0000
0100
0001
1000
0100
,
0020
0000
0000
0000
,
0032
0000
0000
0000
,
2003
0000
0000
0000
,
3200
0000
0000
0000
,
1300
0010
0100
0010
0000
1000
0001
0000
,
0010
0100
0110
1001
,
0001
0100
0010
0000
1000
0100
0010
0000
,
0001
0100
0110
1001
,
1000
0100
0010
0000
0010
0100
1000
0000
,
0001
0100
0010
0000
0010
0100
0001
0000
,
1000
0000
0001
0010
0000
0100
0000
1000
,
0000
0010
0100
0110
,
0001
0010
0100
0010
0000
0001
1000
0000
,
0010
0100
0110
1001
,
1000
0100
0010
0000
0001
0100
0010
0000
,
1000
0100
0110
1001
,
0001
0100
0010
0000
0010
0100
0001
0000
,
1000
0100
0010
0000
0010
0100
1000
0000
,
0001
0000
1000
0010
0000
0100
0000
0001
,
0000
0010
0100
0110
,
1001
0010
0100
0110
,
1001
0010
0100
0110
,
1001
1000
0101
0001
,
1000
0000
1000
0100
0000
0100
0010
0000
0010
0001
0000
0001
,
1000
0010
0100
0000
0001
0010
0100
0000
,
1000
0000
1100
0000
0001
0010
0100
0000
,
1000
0000
0010
0000
0100
0001
1000
0000
,
0100
0010
0100
0000
1000
0000
0010
0000
,
0100
0010
0100
0000
0001
0000
0010
0000
,
0100
1000
0001
0000
0100
0000
0010
0000
,
1000
0001
0100
0000
0001
0000
0010
0000
,
0100
1000
0001
0000
0100
0010
1000
0000
,
0100
0010
0001
0000
0010
0100
1000
0000
,
0001
0000
0100
0000
1000
0100
0001
0010
,
0100
0000
0001
0000
0100
1000
0010
0100
,
0001
0100
0001
0000
1000
0100
1000
0000
,
0001
0010
0001
0000
1000
0010
1000
0000
,
0001
0010
0100
1000
0010
0100
0001
0000
,
1000
0100
0010
0001
0100
0010
1000
0000
,
0001
0100
1000
0000
0001
0010
1000
0000
,
0100
0001
1000
0000
0010
0001
0100
0010
,
2000
0000
3000
0001
0100
0001
1000
0000
,
0100
0010
0001
0000
0100
1000
0100
0000
,
0001
0010
0100
1000
0100
0010
0001
0000
,
1000
0000
0010
0000
0100
0001
1000
0100
,
0010
0000
0100
0000
1000
0001
1000
0000
,
0010
0000
0100
0000
0001
0010
0100
0000
,
0001
0100
1000
0000
0010
0100
1000
0000
,
0100
0001
1000
0000
0100
0010
0001
0100
,
0020
0000
0030
1000
0001
1000
0100
0010
,
0002
0000
0003
1000
0100
0010
0001
0100
,
1000
0100
0001
0100
0010
0100
1000
0100
,
0001
0010
0100
1000
0001
0100
0010
1000
,
0200
0000
0300
0010
0001
0010
0100
1000
,
0020
0000
0030
0100
0001
1000
0100
0010
,
0100
1000
0001
0100
0000
0010
0000
1000
,
0001
0000
0010
0100
0000
1000
0000
0001
,
1001
0000
0000
0000
;

//---------------dance-single - ----------------
#NOTES:
     dance-single:
     :
     Easy:
     6:
     0.284,0.283,0.015,0.069,0.000:
0000
0000
0000
0000
,
0000
0000
0000
0000
,
0000
0000
0000
0000
,
0000
0000
0000
0000
,
0000
0000
0000
0000
,
1000
0001
1000
0000
,
0001
0100
0001
0000
,
0100
0010
0100
0000
,
0010
1000
0010
0000
,
1000
0100
0010
0001
,
0010
0100
1000
0000
,
0001
0100
0010
1000
,
0010
0100
0001
0000
,
1000
0100
0010
0001
,
1000
0100
0010
0000
,
0001
0100
0010
1000
,
0001
0100
0010
0000
,
1000
0010
0100
0000
,
0010
0100
0001
0000
,
1000
0100
0010
0000
,
0001
0100
0010
0000
,
1000
0100
1000
0100
,
0010
0001
0010
0000
,
0001
0100
0001
0100
,
0010
1000
0010
0000
,
2000
0000
3000
0000
,
0200
0000
0300
0000
,
0020
0000
0030
0000
,
0002
0000
0003
0000
,
1000
0000
0000
0001
0000
0000
1000
0000
,
0100
0010
0001
0100
,
0010
0010
0100
0100
,
0001
1000
0100
0000
,
1000
0100
0010
0001
,
1000
0001
0010
0100
,
1000
0001
0100
0010
,
1000
0100
0010
0000
,
0001
0000
0000
1000
0000
0000
0001
0000
,
0100
0010
1000
0100
,
0010
0010
0100
0100
,
1000
0001
0100
0000
,
0001
0100
0010
1000
,
0001
1000
0010
0100
,
0001
1000
0100
0010
,
0001
0100
0010
0000
,
0110
0000
1000
0000
,
0110
0000
0001
0000
,
0010
1000
0100
0001
,
0010
0001
0100
1000
,
0020
0000
0030
0000
,
1000
1000
0001
0001
,
1000
0100
0010
0000
,
0001
0001
1000
1000
,
0001
0100
0010
0000
,
1000
0100
0010
0000
,
0001
0100
0010
0000
,
1000
0010
0100
0000
,
0001
0010
0100
0000
,
1000
0100
0010
0100
,
1000
0100
0010
0000
,
0001
0100
0010
0100
,
0001
0100
0010
0000
,
1000
0001
0100
0000
,
0001
1000
0100
0000
,
1000
0100
0010
0001
,
1000
0000
0010
0000
,
0200
0300
0001
0100
,
0010
0000
1000
0100
,
0010
0001
0100
0010
,
1000
0000
0001
0000
,
1000
0100
0010
0000
,
0001
0100
0010
0000
,
1000
0010
0100
0001
,
0010
0100
1000
0001
,
0200
0300
0010
1000
,
0001
0000
0010
0100
,
1000
0001
0100
0010
,
0100
0001
1000
0100
,
0020
0030
0001
1000
,
0200
0300
0010
0001
,
0100
0010
1000
0100
,
1000
0010
0100
0001
,
1000
0000
0000
0000
;

//---------------dance-single - ----------------
#NOTES:
     dance-single:
     :
     Beginner:
     2:
     0.117,0.157,0.000,0.000,0.000:
0000
0000
0000
0000
,
0000
0000
0000
0000
,
0000
0000
0000
0000
,
0000
0000
0000
0000
,
0000
0000
0000
0000
,
1000
0000
1000
0000
,
1000
0000
0000
0000
,
0001
0000
0001
0000
,
0001
0000
0000
0000
,
0100
0000
0100
0000
,
0100
0000
0000
0000
,
0010
0000
0010
0000
,
0010
0000
0000
0000
,
1000
0000
1000
0000
,
0001
0000
0001
0000
,
1000
0000
1000
0000
,
0001
0000
0000
0000
,
0100
0000
0100
0000
,
0100
0000
0000
0000
,
0010
0000
0010
0000
,
0010
0000
0000
0000
,
1000
0000
1000
0000
,
0001
0000
0001
0000
,
1000
0000
1000
0000
,
0001
0000
0000
0000
,
1000
0000
0000
0000
,
0100
0000
0000
0000
,
0001
0000
0000
0000
,
0010
0000
0000
0000
,
1000
0000
0000
0000
,
1000
0000
0000
0000
,
0001
0000
0000
0000
,
0001
0000
0000
0000
,
0100
0000
0100
0000
,
0100
0000
0000
0000
,
0010
0000
0010
0000
,
0010
0000
0000
0000
,
1000
0000
0000
0000
,
0001
0000
0000
0000
,
0010
0000
0010
0000
,
0010
0000
0000
0000
,
1000
0000
1000
0000
,
1000
0000
0000
0000
,
0001
0000
0000
0000
,
0001
0000
0000
0000
,
0100
0000
0000
0000
,
0100
0000
0000
0000
,
0100
0000
0100
0000
,
0100
0000
0100
0000
,
0100
0000
0000
0000
,
0001
0000
0000
0000
,
0010
0000
0000
0000
,
0100
0000
0000
0000
,
1000
0000
0000
0000
,
0010
0000
0010
0000
,
0010
0000
0000
0000
,
0100
0000
0100
0000
,
0100
0000
0000
0000
,
0001
0000
0000
0000
,
0100
0000
0000
0000
,
0010
0000
0010
0000
,
0010
0000
0000
0000
,
1000
0000
0000
0000
,
0100
0000
0000
0000
,
0010
0000
0010
0000
,
0010
0000
0000
0000
,
0001
0000
0000
0000
,
0100
0000
0100
0000
,
0010
0000
0000
0000
,
1000
0000
1000
0000
,
0001
0000
0000
0000
,
0010
0000
0000
0000
,
0100
0000
0100
0000
,
0100
0000
0000
0000
,
1000
0000
0000
0000
,
0001
0000
0000
0000
,
0100
0000
0100
0000
,
0010
0000
0010
0000
,
0100
0000
0000
0000
,
0001
0000
0000
0000
,
1000
0000
1000
0000
,
0001
0000
0001
0000
,
0010
0000
0000
0000
;

//---------------dance-double - ----------------
#NOTES:
     dance-double:
     :
     Hard:
     13:
     0.618,0.661,0.192,0.107,0.092:
00000000
00000000
00000000
00000000
,
00000000
00000000
00000000
00000000
,
00000000
00000000
00000000
00000000
,
00000000
00000000
00000000
00000000
,
00000000
00000000
00000000
00000000
,
10000000
00000000
00000000
00000000
01010000
00000000
00000000
00010000
00000000
00000000
00100000
00000000
00001000
00000000
00000000
00000000
,
00010000
00000000
00000000
00000000
00001100
00000000
00000000
00000100
00000000
00000000
00000010
00000000
00000001
00000000
00000000
00000000
,
00000100
00000000
00000000
00000000
00001010
00000000
00000000
00001000
00000000
00000000
00000100
00000000
00010000
00000000
00000000
00000000
,
00001000
00000000
00000000
00000000
01010000
00000000
00000000
01000000
00000000
00000000
00100000
00000000
10000000
00000000
00000000
00000000
,
01000000
00010000
00001000
00000010
00001000
00010000
01000000
00000000
,
00010000
00001000
00000100
00000001
00000010
00001000
00010000
00000000
,
01000000
10000000
01000000
00010000
00001000
00010000
01000000
00000000
,
10000000
00100000
00010000
00001000
00000100
00000010
00010000
00000000
,
01000000
10000000
01000000
00010000
00001000
00000100
00000001
00000010
,
00000001
00000100
00001000
00010000
00100000
10000000
00010000
10000000
,
01000000
01000000
00100000
00001000
00001000
00010000
00000100
00000100
,
00000010
00000001
00000001
00000100
00001000
00010000
00000010
00000000
,
00000100
00001000
00010000
00100000
00010000
00001000
00000100
00000000
,
00001000
00010000
01000000
10000000
00100000
00010000
00001000
00000000
,
00000100
00000001
00000100
00001000
00010000
00001000
00000100
00000000
,
00000001
00000010
00001000
00010000
01000000
00100000
00001000
00000000
,
00000100
00000001
00000100
00001000
00010000
01000000
10000000
00100000
,
10000000
01000000
00010000
00001000
00000010
00000001
00001000
00000001
,
00000100
00000100
00000010
00010000
00010000
00001000
01000000
01000000
,
00100000
10000000
10000000
01000000
00010000
00001000
00100000
01000000
,
20000000
00000000
00000000
00000000
,
30020000
00000000
00000000
00000000
,
00032000
00000000
00000000
00000000
,
00003002
00000000
00000000
00000000
,
00001003
00000100
00000010
00000001
00000000
00000100
00001000
00000000
,
00010000
00000000
00000000
00000000
01000000
10000000
00000000
00000000
11000000
00000000
00000000
00000000
01010000
00000000
00000000
00000000
,
10000000
01000000
00010000
00001000
00000100
00001000
00010000
00100000
,
10000000
00010000
00001000
00000001
,
00001000
00000100
00000001
00000100
00010000
01000000
10000000
00100000
,
00010000
00001000
00000010
00000100
00001000
00010000
00100000
10000000
,
00010000
00000000
00001000
00010000
00000000
01001000
00000000
01010000
,
00000000
00000000
00000000
00000000
00010000
00100000
00000000
00000000
00110000
00000000
00000000
00000000
11000000
00000000
00000000
00000000
,
00010000
01000000
00100000
10000000
00000000
01000000
00010000
00000000
,
00001000
00000000
00000000
00000000
00000100
00000001
00000000
00000000
00000101
00000000
00000000
00000000
00001100
00000000
00000000
00000000
,
00000001
00000100
00001000
00010000
01000000
00010000
00001000
00000010
,
00000001
00001000
00010000
10000000
,
00010000
01000000
10000000
01000000
00001000
00000100
00000001
00000010
,
00001000
00010000
00100000
01000000
00010000
00001000
00000010
00000001
,
00001000
00000000
00010000
00001000
00000000
00010100
00000000
00001100
,
00000000
00000000
00000000
00000000
00001000
00000010
00000000
00000000
00001010
00000000
00000000
00000000
00000101
00000000
00000001
00000000
,
00000011
00000000
00000000
00000000
00000010
00000100
00000000
00000000
00010100
00000000
00000000
00000000
00011000
00000000
00001000
00000000
,
01001000
00000000
00000000
00000000
01000000
00010000
00000000
00000000
00110000
00000000
00000000
00000000
01100000
00000000
01000000
00000000
,
11000000
00000000
10000000
01000000
00000000
01000000
00010000
00000000
00010000
00001000
00000000
00001000
,
00000100
00000001
00001000
00000100
00000010
00000001
00000100
00000010
00001000
00000100
00010000
00001000
,
01000000
00100000
10000000
01000000
00010000
00001000
00000100
00000001
,
00000010
00000001
00000010
00000001
00000100
00000010
00010000
00001000
,
01000000
00100000
10000000
01000000
00010000
00001000
00010000
01000000
,
10000000
00100000
00010000
00001000
00010000
01000000
10000000
01000000
,
00010000
00001000
00000100
00000010
00010000
00001000
01000000
00100000
,
10000000
01000000
00010000
01000000
10000000
01000000
00000000
01000000
,
00100000
00001000
00010000
00000100
00000010
00000001
00000100
00001000
,
00000100
00000010
00010000
00001000
01000000
00010000
00100000
01000000
,
10000000
01000000
00010000
00001000
00000100
00000001
00000010
00000100
,
00001000
00000001
00000001
00000100
00000010
00000010
00010000
00001000
,
01000000
00010000
00010000
00100000
01000000
01000000
10000000
01000000
,
00010000
00001000
00000100
00001000
00010000
00100000
00010000
00001000
,
00000010
00001000
00010000
01000000
10000000
00100000
00010000
00001000
,
00010000
00000100
00000010
00000001
00000010
00000100
00010000
00001000
,
01000000
00100000
01000000
00001000
00010000
00000100
00000010
00000001
,
00000100
00001000
00010000
00100000
10000000
01000000
00010000
00001000
,
00010000
01000000
10000000
00100000
00010000
00001000
00000100
00000010
,
00002000
00000000
00000000
00003001
00000010
00000001
00000010
00000100
,
00001000
00010000
00100000
01000000
10000000
00010000
01000000
00100000
,
10000000
01000000
10000000
01000000
00010000
01000000
00010000
01000000
,
00010000
00001000
00000100
00000001
00001000
00000100
00000010
00000001
,
00000100
00000010
00000100
00000010
00010000
00001000
00010000
00001000
,
00100000
01000000
00100000
01000000
10000000
00100000
01000000
00010000
,
00100000
00001000
00000100
00000001
00000010
00001000
00100000
01000000
,
10000000
01000000
00010000
00000010
00001000
00000100
00000010
00000001
,
00000201
00000000
00000000
00000000
00000000
00000000
00000310
00000000
00001000
00000000
00000100
00010000
00000100
00000000
00001000
00000000
,
02000000
00000000
13000000
00100000
00010000
00100000
10000000
01000000
,
00010000
00001000
00010000
00000100
00010000
00000010
00010000
00001000
,
00010000
00000100
00000001
00000100
00000010
00000001
00000100
00001000
,
00020000
00000000
00000000
00000000
00000000
00000000
00031000
00000000
01000000
00000000
00100000
10000000
00100000
00000000
01000000
00000000
,
00002000
00000000
00013000
00000100
00000010
00000001
00000100
00001000
,
00010000
00100000
10000000
00020000
00000000
00230000
00000000
01300000
,
20000000
00000000
30010000
00002000
00000000
00003002
00000000
00000103
,
00000110
00000000
00000000
00000000
;

//---------------dance-double - ----------------
#NOTES:
     dance-double:
     :
     Medium:
     10:
     0.463,0.566,0.107,0.069,0.019: // measure 1
00000000
00000000
00000000
00000000
,  // measure 2
00000000
00000000
00000000
00000000
,  // measure 3
00000000
00000000
00000000
00000000
,  // measure 4
00000000
00000000
00000000
00000000
,  // measure 5
00000000
00000000
00000000
00000000
,  // measure 6
00000001
00000000
00001000
00000000
00000010
00001000
00000100
00000000
,  // measure 7
00010000
00000000
00001000
00000000
00100000
00010000
01000000
00000000
,  // measure 8
00100000
00000000
10000000
00000000
01000000
00100000
00001000
00000000
,  // measure 9
00010000
00000000
00000100
00000000
00000010
00000001
00001000
00000000
,  // measure 10
00000001
00000100
00000010
00000000
00001000
00000000
00000100
00000000
,  // measure 11
00010000
00001000
01000000
00000000
00010000
00000000
00100000
00000000
,  // measure 12
01000000
10000000
00010000
00000000
01000000
00000000
00001000
00000000
,  // measure 13
00010000
00000100
00000010
00000000
00000001
00000000
00000100
00000000
,  // measure 14
00000010
00001000
00000100
00000000
00010000
00001000
00100000
00000000
,  // measure 15
00010000
01000000
00100000
00000000
10000000
01000000
00010000
00000000
,  // measure 16
00001000
00000000
00000100
00000010
00000000
00001000
00000001
00000000
,  // measure 17
00000010
00000100
00000000
00010000
00001000
00000000
01000000
00010000
,  // measure 18
00100000
00000000
01000000
00000000
10000000
00010000
01000000
00000000
,  // measure 19
00001000
00000000
00010000
00000000
00000100
00001000
00000010
00000000
,  // measure 20
00000100
00000000
00000001
00000000
00000010
00000100
00010000
00000000
,  // measure 21
00001000
00000000
01000000
00000000
00100000
10000000
01000000
00000000
,  // measure 22
00010000
00001000
00000100
00000000
00000010
00001000
00000100
00000000
,  // measure 23
00000010
00000001
00000100
00000000
00001000
00010000
00100000
00000000
,  // measure 24
10000000
00000000
00010000
01000000
00000000
00001000
00010000
00000000
,  // measure 25
00000100
00001000
00000000
00000010
00000100
00000000
00000001
00000010
,  // measure 26
00000200
00000000
00000000
00000000
,  // measure 27
00020300
00000000
00000000
00000000
,  // measure 28
00032000
00000000
00000000
00000000
,  // measure 29
02003000
00000000
00000000
00000000
,  // measure 30
03100000
00000000
10000000
01000000
00000000
00010000
00001000
00000000
,  // measure 31
00000100
00000001
00000010
00000100
,  // measure 32
00001000
00000001
00001000
00000000
00000001
00001000
00000001
00000000
,  // measure 33
00000100
00001000
00010000
00100000
,  // measure 34
10000000
00010000
10000000
00000000
01000000
00010000
01000000
00000000
,  // measure 35
00010000
00000000
00001000
00000000
00000100
00000010
00001000
00000000
,  // measure 36
00000001
00000000
00000010
00000100
00000000
00010000
00000000
00001000
,  // measure 37
00000000
01000000
00010000
10010000
,  // measure 38
10000000
00000000
01000000
00010000
00000000
00001000
00000100
00000000
,  // measure 39
00000010
00010000
00001000
00000100
,  // measure 40
00000010
00010000
00001000
00000000
01000000
00010000
00100000
00000000
,  // measure 41
01000000
10000000
00010000
01000000
,  // measure 42
00001000
00010000
00000100
00000000
00001000
00000010
00000100
00000000
,  // measure 43
00000001
00000010
00000100
00000000
00001000
00000010
00010000
00000000
,  // measure 44
00001000
00000000
01000000
00100000
00000000
10000000
00000000
01000000
,  // measure 45
00000000
00100000
00001000
00011000
,  // measure 46
00010000
00000100
00001000
00001010
,  // measure 47
00000010
00000100
00000001
00000011
,  // measure 48
00000010
00000110
00000100
00010100
,  // measure 49
00010000
00000000
00010000
00001000
00000000
00001000
01000000
00000000
01000000
00010000
10000000
01000000
,  // measure 50
00100000
00001000
00100000
00001000
00010000
00000100
00010000
00000100
,  // measure 51
00001000
00000000
00001100
00000000
00000001
00000100
00000010
00001000
,  // measure 52
00000100
00000000
00010000
00001000
01000000
00010000
00100000
00000000
,  // measure 53
01000000
10000000
01000000
00000000
00100000
00010000
00100000
00000000
,  // measure 54
01000000
10000000
00010000
01000000
00001000
00000000
00011000
00000000
,  // measure 55
00010000
00000100
00010000
00000100
00000010
00000001
00000000
00000001
,  // measure 56
00000100
00000010
00001000
00000000
00000100
00010000
00001000
00000000
,  // measure 57
01000000
00010000
00100000
00000000
01000000
10000000
00100000
00000000
,  // measure 58
01000000
00001000
01000000
00001000
00010000
00000000
00011000
00000000
,  // measure 59
00010000
00000100
00000010
00000001
00000100
00000010
00001000
00000000
,  // measure 60
00000001
00000000
00000100
00000000
00000010
00001000
00000100
00000000
,  // measure 61
00010000
01001000
00010000
00100000
,  // measure 62
01000000
10000000
00010000
00000000
01000000
00100000
10000000
00000000
,  // measure 63
00010000
00000000
01010000
00000000
01000000
00001000
01000000
00000000
,  // measure 64
00001000
00010000
00000100
00000000
00001000
00000010
00000100
00000000
,  // measure 65
00000001
00000000
00000010
00000000
00000100
00001000
00000001
00000000
,  // measure 66
00000100
00000010
00001010
00000101
,  // measure 67
00002000
00000000
00003000
00000010
00010000
00000000
00001000
00000000
,  // measure 68
01000000
00010000
00100000
00000000
01000000
10000000
00010000
00000000
,  // measure 69
01000000
00001000
01000000
00001000
00010000
00001000
00010000
00000000
,  // measure 70
00000100
00001000
00000100
00001000
00000010
00001000
00000010
00000000
,  // measure 71
00000100
00000001
00001000
00000000
00000100
00010000
00001000
00000000
,  // measure 72
00100000
00010000
01000000
00000000
00100000
10000000
00010000
00000000
,  // measure 73
01000000
00001000
01000000
00000000
00001000
00000000
00010000
00000000
,  // measure 74
00000100
00001000
00000100
00000000
00000010
00000001
00000100
00000010
,  // measure 75
00002000
00000000
00003000
00000001
00000100
00000010
00001000
00000000
,  // measure 76
00001200
00000000
00000300
00010000
00001000
01000000
00010000
00000000
,  // measure 77
00100000
01000000
00100000
01000000
10000000
00000000
00010000
01000000
,  // measure 78
00001000
00000000
00010000
00000000
00000100
00000010
00000001
00000100
,  // measure 79
00000020
00000000
00000030
00001000
00000100
00010000
00001000
00000000
,  // measure 80
00200000
00000000
00300000
00010000
01000000
00100000
10000000
00000000
,  // measure 81
01000000
00000000
00100000
00001000
00000000
00010000
00000000
00000100
,  // measure 82
00000010
00000000
00000001
00000100
00000000
00000010
00000000
00010000
,  // measure 83
00001000
00000000
00000000
00000000
;

//---------------dance-double - ----------------
#NOTES:
     dance-double:
     :
     Easy:
     7:
     0.275,0.283,0.008,0.061,0.000: // measure 1
00000000
00000000
00000000
00000000
,  // measure 2
00000000
00000000
00000000
00000000
,  // measure 3
00000000
00000000
00000000
00000000
,  // measure 4
00000000
00000000
00000000
00000000
,  // measure 5
00000000
00000000
00000000
00000000
,  // measure 6
00010000
00001000
01000000
00010000
,  // measure 7
00100000
01000000
10000000
00000000
,  // measure 8
00010000
01000000
00001000
00010000
,  // measure 9
00000100
00001000
00000010
00000000
,  // measure 10
00010000
00001000
01000000
01000000
,  // measure 11
00010000
00100000
01000000
01000000
,  // measure 12
10000000
00010000
01000000
01000000
,  // measure 13
00001000
00010000
00000100
00000000
,  // measure 14
00001000
00000010
00000100
00000001
,  // measure 15
00000010
00000100
00001000
00000000
,  // measure 16
00010000
00100000
01000000
10000000
,  // measure 17
00100000
01000000
00001000
00010000
,  // measure 18
00001000
00010000
00000100
00000100
,  // measure 19
00001000
00000010
00000100
00000100
,  // measure 20
00000001
00001000
00000100
00000100
,  // measure 21
00010000
00001000
01000000
00000000
,  // measure 22
00010000
00100000
01000000
10000000
,  // measure 23
00100000
01000000
00010000
00000000
,  // measure 24
00001000
00000010
00000100
00000001
,  // measure 25
00000010
00000100
00010000
00001000
,  // measure 26
00002000
00000000
00003000
00000000
,  // measure 27
02000000
00000000
03000000
00000000
,  // measure 28
00020000
00000000
00030000
00000000
,  // measure 29
00200000
00000000
00300000
00000000
,  // measure 30
01000000
10000000
00010000
01000000
,  // measure 31
00001000
00000000
00010000
00000000
,  // measure 32
00000100
00001000
00000010
00000100
,  // measure 33
00000001
00000000
00001000
00000000
,  // measure 34
00000100
00010000
00000100
00010000
,  // measure 35
00001000
00100000
00001000
00100000
,  // measure 36
00010000
00000000
01000000
00000000
,  // measure 37
00100000
10000000
01000000
00010000
,  // measure 38
00001000
00000000
00010000
00000000
,  // measure 39
00000100
00001000
00000010
00000100
,  // measure 40
00000001
00000000
00000010
00000000
,  // measure 41
00000100
00010000
00001000
01000000
,  // measure 42
00010000
00000000
00100000
00000000
,  // measure 43
01000000
10000000
00010000
01000000
,  // measure 44
00001000
00000000
00010000
00000000
,  // measure 45
00000100
00001000
00000010
00000000
,  // measure 46
00000100
00000001
00000010
00000000
,  // measure 47
00001000
00010000
01000000
00000000
,  // measure 48
10000000
00100000
01000000
00100000
,  // measure 49
10000000
10000000
10000000
10000000
,  // measure 50
00020000
00000000
00030000
00000000
,  // measure 51
01000000
01000000
00001000
00001000
,  // measure 52
00010000
00000000
00000100
00000000
,  // measure 53
00001000
00000010
00000100
00000001
,  // measure 54
00000010
00000000
00000001
00000000
,  // measure 55
00000100
00000010
00001000
00000000
,  // measure 56
00000100
00010000
00001000
00000000
,  // measure 57
00100000
00010000
01000000
00000000
,  // measure 58
00100000
10000000
01000000
00000000
,  // measure 59
00010000
00001000
00000100
00000000
,  // measure 60
00000010
00001000
00000100
00000000
,  // measure 61
00000010
00000001
00000100
00000000
,  // measure 62
00001000
00010000
00100000
00000000
,  // measure 63
10000000
00010000
10000000
00010000
,  // measure 64
01000000
00010000
01000000
00000000
,  // measure 65
00001000
00010000
00001000
00010000
,  // measure 66
00000100
00010000
00000100
00000000
,  // measure 67
00000020
00000000
00000031
00000100
,  // measure 68
00000010
00001000
00000100
00010000
,  // measure 69
00001000
00000000
01000000
00000000
,  // measure 70
00010000
00100000
01000000
00000000
,  // measure 71
10000000
00100000
10000000
01000000
,  // measure 72
00100000
00000000
00001000
00000000
,  // measure 73
00010000
00000100
00000010
00000000
,  // measure 74
00000001
00000100
00000010
00000000
,  // measure 75
00002000
00000000
00003100
00010000
,  // measure 76
00001000
00000000
01000000
00010000
,  // measure 77
00100000
00000000
01000000
10000000
,  // measure 78
00010000
01000000
00100000
10000000
,  // measure 79
02000000
00000000
03100000
00001000
,  // measure 80
00010000
00000000
00000100
00001000
,  // measure 81
00000010
00000100
00000001
00001000
,  // measure 82
00000100
00000000
00000010
00000000
,  // measure 83
00001001
00000000
00000000
00000000
;
