#TITLE:EGG;
#SUBTITLE:;
#ARTIST:ginkiha;
#TITLETRANSLIT:;
#SUBTITLETRANSLIT:;
#ARTISTTRANSLIT:;
#GENRE:;
#CREDIT:Silverhawke;
#MENUCOLOR:;
#METERTYPE:DDR;
#BANNER:EGG.png;
#BACKGROUND:EGG-bg.png;
#LYRICSPATH:;
#CDTITLE:cdtitle.png;
#MUSIC:EGG.mp3;
#OFFSET:-0.028;
#SAMPLESTART:40.400;
#SAMPLELENGTH:15.000;
#SELECTABLE:YES;
#LISTSORT:;
#BPMS:0.000=196.000;
#STOPS:;
#BGCHANGES:;
#ATTACKS:;

//---------------dance-single - ----------------
#NOTES:
     dance-single:
     :
     Hard:
     13:
     0.697,0.661,0.579,0.180,0.052:
0000
0000
0000
0000
,
0000
0000
0000
0000
,
0000
0000
0000
0000
,
0000
0000
0000
0000
,
0000
0000
0000
0000
,
0000
0000
0000
0000
,
0000
0000
0000
0000
,
0000
0000
0000
0000
,
0000
0000
0000
0000
,
0002
0000
0103
0010
0100
0100
0010
1000
,
0000
1000
0100
1000
0000
0010
0000
0200
,
0000
0301
1000
0001
0010
0100
1000
0001
,
0000
0100
0000
0110
0000
2002
0000
3003
,
2000
0000
3100
0010
0100
0100
0010
0001
,
0000
0001
0100
0001
0000
1000
0000
0100
,
0010
0000
0000
0100
0000
0000
1001
0000
,
0000
0110
0000
0000
1010
0000
0101
0000
,
0010
1000
0100
0010
0001
0100
0010
1000
,
0000
1000
0100
0010
0001
0100
0010
1000
,
0000
0100
0010
0100
1000
0010
0100
0001
,
0010
0100
1000
0002
0000
2003
0000
3100
,
0010
0001
0100
0010
1000
0100
0010
0001
,
0000
0001
0100
0010
1000
0100
0010
0001
,
0000
0100
0010
0100
0001
0010
0100
1000
,
0010
0100
0001
2000
0000
3002
0000
0103
,
0110
1000
0010
0100
0001
0100
0010
1000
,
0000
0100
0001
0100
0010
1000
0010
0001
,
0000
1000
0010
0001
0010
0100
1000
0100
,
0001
1000
0100
0020
0000
0032
0000
1003
,
0110
0001
0010
0100
1000
0100
0010
0001
,
0000
0100
1000
0100
0010
0001
0010
1000
,
1010
0000
0000
0101
0000
0000
0011
0000
,
0000
1100
0000
0000
1001
0000
0110
0000
,
1000
0000
0000
0000
0101
0000
0001
1000
0001
0000
1000
0000
0000
0000
0200
0000
,
0000
0300
0010
0000
0001
0000
1000
0010
,
0100
0001
1000
0001
1000
0010
0100
0020
,
0000
0000
0030
0000
1000
0000
0001
0100
0001
0000
0000
0000
0010
0000
0000
0000
,
0011
0000
0000
0000
1100
0000
1000
0001
1000
0000
0010
0000
0000
0000
0200
0000
,
0000
0300
0001
0000
1000
0000
0100
0010
,
0011
0000
0000
1100
0000
0000
1010
0000
,
0000
0101
0000
0000
1001
0000
0110
0000
,
1000
0000
1000
0000
1100
0000
0001
0100
0001
0000
1000
0000
0000
0000
0020
0000
,
0000
0030
0100
0000
0001
0000
1000
0100
,
0010
0100
0010
0001
1000
0001
1000
0020
,
0000
0000
0030
0000
0100
0000
0001
1000
0001
0000
0000
0000
0010
0000
0000
0000
,
1100
0000
0000
0000
0101
0000
0010
1000
0010
0000
0100
0000
0000
0000
0002
0000
,
0000
0003
1000
0000
0100
0000
0010
0001
,
0101
0000
0000
1010
0000
0000
1100
0000
,
0000
0011
0000
0000
1001
0000
0110
0000
,
1000
0000
0100
0010
0100
0100
1000
0000
,
0001
0100
0010
0100
0010
0010
1000
0000
,
0101
0000
1100
0100
0010
0010
0001
0000
,
1000
0010
0100
0010
1000
1000
0101
0000
,
0001
0000
0010
0100
1000
1000
0001
0000
,
1000
0100
0010
0100
1000
1000
0010
0000
,
0101
0000
1100
0100
0010
0010
0001
0000
,
0100
0010
0100
0001
1000
1000
1100
0000
,
0001
0000
0100
0010
0100
0001
0010
0100
,
1000
0010
0100
0010
1000
0100
0110
0000
,
0001
0000
1000
0100
0010
0100
1000
0010
,
0100
0001
0010
1000
0010
0001
1001
0000
,
0100
0000
0010
1000
0100
0010
0001
0100
,
1000
0100
0010
0001
0010
1000
1100
0000
,
0101
0000
0100
0110
0000
0010
1010
0000
,
1000
1100
0000
0100
0110
0000
0011
0000
,
0001
0101
0000
0100
0110
0000
1010
0000
,
1000
0000
0011
0000
0010
0100
1100
0000
,
1000
0010
0100
0001
0010
0100
1100
0000
,
1000
0000
0011
0000
0100
1000
1010
0000
,
0010
0100
0001
0010
0100
0010
0011
0000
,
1000
0000
0101
0000
0010
1000
0110
0000
,
1000
0100
0001
1000
0010
0100
1001
0000
,
0010
0000
0101
0000
0010
1000
0011
0000
,
0100
0000
0000
0000
0100
0000
0100
0010
0100
0000
0010
0000
0100
0000
0100
0000
,
1000
1000
0000
0001
0000
0100
0000
0000
,
0010
0000
0010
0000
1000
0000
1000
0000
0001
0100
0001
0100
0001
0000
0010
0000
,
0100
0000
1000
0100
0000
0010
0000
0100
,
1000
1000
2000
3000
0000
0001
0000
0100
,
0001
0001
0000
1000
0000
0100
0000
0000
,
0010
0000
0010
0000
0001
0000
0001
0000
1000
0100
1000
0100
1000
0000
0010
0000
,
0100
0000
0001
0100
0000
0010
0000
0100
,
0001
0001
0002
0003
0000
1000
0000
0100
;

//---------------dance-single - ----------------
#NOTES:
     dance-single:
     :
     Medium:
     10:
     0.464,0.505,0.104,0.000,0.000:
0000
0000
0000
0000
,
0000
0000
0000
0000
,
0000
0000
0000
0000
,
0000
0000
0000
0000
,
0000
0000
0000
0000
,
0000
0000
0000
0000
,
0000
0000
0000
0000
,
0000
0000
0000
0000
,
0000
0000
0000
0000
,
1000
0000
0001
0000
0100
0000
0010
0100
,
0000
0010
0100
0000
0001
0000
0010
0100
,
0000
0010
0100
0000
1000
0000
0010
0100
,
0000
0010
0000
1000
0000
0001
0000
0000
,
1000
0000
0100
0000
0010
0000
0001
1000
,
0000
0001
1000
0000
0010
0000
0100
0000
,
0001
0000
0000
1000
0000
0000
0010
0000
,
0000
0100
0000
0000
0001
0000
1001
0000
,
1000
0000
0100
1000
0000
0100
1000
0001
,
0000
0100
0001
0000
0100
0001
1000
0000
,
0100
0010
0001
1000
,
0001
1000
0001
1000
0000
0100
0000
0000
,
0010
0000
0001
0100
0000
0001
0100
0010
,
0000
1000
0100
0000
1000
0100
0010
0000
,
0001
0000
0100
0000
0010
0100
0010
0000
,
1000
0100
0001
0010
,
1000
0000
0001
0100
0001
0100
0001
0100
,
0000
0000
0001
1000
0001
1000
0001
1000
,
0000
0100
0010
0001
,
1000
0100
1000
0100
0000
0010
0000
0000
,
0001
0000
1000
0010
1000
0010
1000
0010
,
0000
0000
0100
0001
0100
0001
0100
0001
,
1000
0000
0000
0100
0000
0000
0010
0000
,
0000
0001
0000
0000
1000
0000
1001
0000
,
0001
0000
0101
0000
1000
0100
0000
0010
,
0000
0100
1000
0001
,
0100
0010
0100
0000
0010
0000
0100
0001
,
0000
1000
0100
0010
,
1001
0000
0001
0000
1000
0010
0000
0100
,
0000
0001
1000
0100
,
0010
0000
0000
0100
0000
0000
1000
0000
,
0000
0100
0000
0000
0010
0000
0011
0000
,
1000
0000
1100
0000
0010
0001
0000
1000
,
0000
0010
0100
0001
,
0010
0100
0010
0000
0001
0000
1000
0010
,
0000
0100
0001
1000
,
1001
0000
0001
0000
0100
0010
0000
1000
,
0000
0000
0001
0000
0010
0000
0100
1000
,
0100
0000
0000
0010
0000
0000
0001
0000
,
0000
1000
0000
0000
0001
0000
0100
0000
,
0010
1000
0010
0000
1000
0100
1000
0000
,
0100
0000
0010
0000
0001
0000
1000
0010
,
1000
0000
1001
0000
0001
0100
0001
1000
,
0000
0100
0000
0010
0000
0100
0000
1000
,
0000
0000
0001
0100
0001
0100
0000
0010
,
0000
1000
0100
0000
0010
0001
0000
1000
,
0010
0000
0000
0100
0000
0000
0001
0000
,
0000
0100
0000
0000
0010
0000
1000
0000
,
0100
0000
0010
0100
1000
0000
0100
0000
,
0010
0000
0001
0000
0100
0010
0100
0000
,
0001
0000
1000
0000
0100
0010
0100
0010
,
0000
0001
0000
1000
0000
0010
0000
1000
,
0000
0000
0001
0010
0100
0000
0010
0000
,
0001
0000
0010
0100
1000
0001
0010
0000
,
1000
0000
0000
0001
0000
0000
0100
0000
,
0000
0010
0000
0000
1000
0000
0001
0000
,
0000
0010
0000
0000
0100
0000
1000
0000
,
1100
0011
1000
0100
,
0010
0000
0100
0000
1000
0001
0100
0000
,
0010
0100
0001
0010
,
0100
0000
1000
0000
0010
0100
0001
0000
,
0010
1000
0100
0001
,
1000
0000
0100
0000
0010
0001
0100
0000
,
1000
0010
0001
0100
,
0010
0000
1000
0001
1000
0001
0100
0000
,
0010
0010
0000
1000
0000
0100
0000
0000
,
0010
0001
0100
0000
0010
1000
0100
0000
,
0001
0000
0100
1000
0000
0010
0000
0100
,
0001
0000
0101
0000
0001
1000
0001
1000
,
0100
0010
0000
0001
0000
0100
0000
0000
,
0010
0010
0100
0100
0001
1000
0001
0000
,
1000
0000
0100
0010
0000
0001
0000
0100
,
0010
0000
1000
0000
0001
0100
0000
0010
;

//---------------dance-single - ----------------
#NOTES:
     dance-single:
     :
     Easy:
     5:
     0.298,0.311,0.000,0.000,0.000:
0000
0000
0000
0000
,
0000
0000
0000
0000
,
0000
0000
0000
0000
,
0000
0000
0000
0000
,
0000
0000
0000
0000
,
0000
0000
0000
0000
,
0000
0000
0000
0000
,
0000
0000
0000
0000
,
0000
0000
0000
0000
,
0001
0100
0000
0100
,
0010
1000
0000
1000
,
0001
0010
0000
0010
,
0100
0010
0100
0000
,
1000
0010
0000
0010
,
0100
0001
0000
0001
,
1000
0000
0000
0001
0000
0000
0100
0000
,
0000
0010
0000
0000
0100
0000
0001
0000
,
1000
0100
0010
0100
,
0000
0100
1000
0100
,
0000
0010
0001
0010
,
0001
1000
0000
1000
,
0001
0100
0010
0100
,
0000
0100
0001
0100
,
0000
0010
1000
0010
,
1000
0001
0000
0001
,
0010
0100
1000
0001
,
0000
0001
0100
0010
,
0000
0010
1000
0001
,
0010
0010
0000
0010
,
0100
1000
0001
1000
,
0000
1000
0010
0100
,
0001
0000
0000
0010
0000
0000
0100
0000
,
0000
1000
0000
0000
0100
0000
0010
0000
,
0001
0001
0100
0000
,
0001
0000
1000
0000
,
0100
1000
0010
0100
,
0001
0000
0010
0000
,
0001
0001
1000
0000
,
0100
0000
0010
0000
,
0100
0000
0000
1000
0000
0000
0010
0000
,
0000
0100
0000
0000
0001
0000
0010
0000
,
0100
0100
1000
0000
,
0100
0000
0010
0000
,
0001
0100
0010
0000
,
0100
0001
1000
0001
,
0100
0100
0010
0000
,
1000
0000
0100
0000
,
0010
0000
0000
0001
0000
0000
0100
0000
,
0000
0010
0000
0000
1000
0000
0100
0000
,
0010
0001
0000
0001
,
1000
0001
0000
0001
,
0100
0010
1000
0000
,
1000
0100
0010
0000
,
0010
0100
0010
0000
,
0100
0000
1000
0000
,
0001
0000
0000
1000
0000
0000
0010
0000
,
0000
0100
0000
0000
0010
0000
1000
0000
,
0001
0010
0000
0010
,
0100
0010
0000
0100
,
1000
0100
0000
1000
,
0001
1000
0100
0000
,
1000
0001
0000
0001
,
0100
0010
0000
1000
,
0100
0000
0000
0010
0000
0000
0001
0000
,
0000
1000
0000
0000
0001
0000
0010
0000
,
0000
0100
0000
0000
1000
0000
0001
0000
,
0100
0010
0000
0010
,
0000
0010
0000
0010
,
1000
0100
0000
0100
,
0000
0100
0000
0100
,
0010
0001
0000
0001
,
0000
0001
0000
0001
,
0100
0010
0000
0010
,
0010
0100
0010
0000
,
1000
0000
0000
0001
0000
0001
0000
0000
,
1000
1000
0001
0001
,
1000
0000
0000
0001
0000
1000
0000
0000
,
0001
0000
0001
0000
0000
1000
0000
1000
,
0001
0000
0000
1000
0000
1000
0000
0000
,
0001
0001
1000
1000
,
0001
0000
0000
1000
0000
1000
0000
0000
,
0001
0000
0001
0000
0000
1000
0000
0001
;

//---------------dance-single - ----------------
#NOTES:
     dance-single:
     :
     Beginner:
     2:
     0.119,0.190,0.057,0.019,0.000:
0000
0000
0000
0000
,
0000
0000
0000
0000
,
0000
0000
0000
0000
,
0000
0000
0000
0000
,
0000
0000
0000
0000
,
0000
0000
0000
0000
,
0000
0000
0000
0000
,
0000
0000
0000
0000
,
0000
0000
0000
0000
,
0020
0000
0000
0000
,
0000
0000
0000
0000
,
0000
0000
0000
0000
,
0030
0000
0000
0000
,
0200
0000
0000
0000
,
0000
0000
0000
0000
,
0000
0000
0000
0000
,
0300
0000
0000
0000
,
0001
0000
0000
0000
,
0001
0000
0000
0000
,
1000
0000
0000
0000
,
1000
0000
0000
0000
,
0001
0000
0000
0000
,
0001
0000
0000
0000
,
1000
0000
0000
0000
,
1000
0000
0000
0000
,
0010
0000
0000
0000
,
0010
0000
0000
0000
,
0100
0000
0000
0000
,
0100
0000
0000
0000
,
0010
0000
0000
0000
,
0010
0000
0000
0000
,
0110
0000
0000
0000
,
0000
0000
0000
0000
,
1000
0000
1000
0000
,
0001
0000
0001
0000
,
1000
0000
1000
0000
,
0001
0000
0000
0000
,
1000
0000
1000
0000
,
0001
0000
0001
0000
,
1001
0000
0000
0000
,
0000
0000
0000
0000
,
0100
0000
0100
0000
,
0010
0000
0010
0000
,
0100
0000
0100
0000
,
0010
0000
0000
0000
,
0010
0000
0010
0000
,
0100
0000
0100
0000
,
0110
0000
0000
0000
,
0000
0000
0000
0000
,
0001
0000
0000
0000
,
1000
0000
0000
0000
,
0001
0000
0001
0000
,
0001
0000
0000
0000
,
1000
0000
0000
0000
,
0001
0000
0000
0000
,
1001
0000
0000
0000
,
0100
0000
0100
0000
,
0100
0000
0000
0000
,
0001
0000
0000
0000
,
1000
0000
1000
0000
,
1000
0000
0000
0000
,
0100
0000
0000
0000
,
0010
0000
0000
0000
,
0110
0000
0000
0000
,
0000
0000
0000
0000
,
1001
0000
0000
0000
,
0000
0100
0000
0100
,
0000
0010
0000
0010
,
0000
0100
0000
0100
,
0000
0010
0000
0010
,
0000
1000
0000
1000
,
0000
0001
0000
0001
,
0000
1000
0000
0000
,
1000
0000
0000
0000
,
0001
0000
0000
0000
,
1000
0000
0000
0000
,
0001
0000
0000
0000
,
0000
0000
0000
0000
,
1000
0000
0000
0000
,
0001
0000
0000
0000
,
1000
0000
0000
0000
;

//---------------dance-double - ----------------
#NOTES:
     dance-double:
     :
     Hard:
     13:
     0.677,0.622,0.465,0.256,0.047: // measure 1
00000000
00000000
00000000
00000000
,  // measure 2
00000000
00000000
00000000
00000000
,  // measure 3
00000000
00000000
00000000
00000000
,  // measure 4
00000000
00000000
00000000
00000000
,  // measure 5
00000000
00000000
00000000
00000000
,  // measure 6
00000000
00000000
00000000
00000000
,  // measure 7
00000000
00000000
00000000
00000000
,  // measure 8
00000000
00000000
00000000
00000000
,  // measure 9
00000000
00000000
00000000
00000000
,  // measure 10
00002000
00000000
00013000
00001000
01000000
01000000
00010000
00100000
,  // measure 11
00000000
00100000
01000000
00100000
00000000
00010000
00000000
02000000
,  // measure 12
00000000
03100000
10000000
00100000
01000000
00001000
00010000
00001000
,  // measure 13
00000000
00001100
00000000
00000110
00000000
00002020
00000000
00003030
,  // measure 14
00000002
00000000
00000013
00000100
00000010
00000010
00000001
00000100
,  // measure 15
00000000
00000100
00000010
00001000
00000000
00000100
00000000
00010000
,  // measure 16
00011000
00000000
00000000
01001000
00000000
00000000
01100000
00000000
,  // measure 17
00000000
10100000
00000000
00000000
10010000
00000000
00110000
00000000
,  // measure 18
00100000
01000000
10000000
00100000
01000000
00010000
00100000
00001000
,  // measure 19
00000000
00001000
00010000
00000100
00001000
00000010
00000100
00000001
,  // measure 20
00000010
00000100
00001000
00000010
00000100
00000001
00000010
00000100
,  // measure 21
00000010
00000001
00000100
00002000
00000000
00023000
00000000
00130000
,  // measure 22
01000000
00010000
00100000
01000000
10000000
00100000
01000000
00010000
,  // measure 23
00000000
00100000
00001000
00010000
00000100
00010000
00001000
00000100
,  // measure 24
00000010
00001000
00000001
00000010
00000001
00001000
00000100
00000010
,  // measure 25
00000001
00000100
00001000
00020000
00000000
00032000
00000000
00003100
,  // measure 26
00000010
00000100
00000001
00000010
00000100
00001000
00000010
00010000
,  // measure 27
00000000
00010000
00001000
01000000
00010000
00100000
01000000
10000000
,  // measure 28
00100000
01000000
00010000
00100000
01000000
10000000
00100000
01000000
,  // measure 29
00100000
10000000
01000000
00020000
00000000
00032000
00000000
00003010
,  // measure 30
00000100
00001000
00000010
00000100
00000001
00000010
00000100
00001000
,  // measure 31
00000000
00000100
00010000
00001000
01000000
00001000
00010000
01000000
,  // measure 32
01100000
00000000
00000000
00101000
00000000
00000000
00011000
00000000
,  // measure 33
00000000
00010010
00000000
00000000
00000110
00000000
00001001
00000000
,  // measure 34
00000001
00000000
00000000
00000000
00001100
00000000
00001000
00000001
00001000
00000000
00000200
00000000
00000000
00000000
00020300
00000000
,  // measure 35
00000000
00030000
00002000
00000000
02003000
00000000
03100000
10000000
,  // measure 36
00010000
10000000
00010000
00100000
01000000
10000000
00010000
01000000
,  // measure 37
00000000
00000000
00000000
00000000
00100000
00000000
10000000
00010000
10000000
00000000
00000000
00000000
01000000
00000000
00000000
00000000
,  // measure 38
00100000
00000000
00000000
00000000
00101000
00000000
00001000
00010000
00001000
00000000
00020000
00000000
00000000
00000000
00030200
00000000
,  // measure 39
00000000
00000300
00002000
00000000
00003020
00000000
00000130
00000001
,  // measure 40
00001001
00000000
00000000
00001100
00000000
00000000
00010100
00000000
,  // measure 41
00000000
00011000
00010000
00010000
00001000
01000000
00100000
01000000
,  // measure 42
00010000
10000000
10010000
00000000
01000000
00200000
00000000
20300000
,  // measure 43
00000000
30000000
02000000
00000000
03200000
00000000
00301000
00010000
,  // measure 44
00000100
00010000
00000100
00000010
00000001
00000100
00000010
00001000
,  // measure 45
00000000
00000000
00000000
00000000
00000100
00000000
00010000
00001000
00010000
00000000
00000000
00000000
00001000
00000000
00000000
00000000
,  // measure 46
01000000
00000000
00000000
00000000
01100000
00000000
10000000
00100000
10000000
00000000
00020000
00000000
00000000
00000000
02030000
00000000
,  // measure 47
00000000
03000000
00020000
00000000
00032000
00000000
00003010
00000100
,  // measure 48
00000101
00000000
00000000
00001010
00000000
00000000
00010100
00000000
,  // measure 49
00000000
00101000
00000000
00000000
01010000
00000000
10100000
00000000
,  // measure 50
10000000
00000000
01010000
00000000
00010000
01000000
00001000
00000000
,  // measure 51
00010000
00000100
00001000
00001000
00000010
00000100
00000001
00000000
,  // measure 52
00001000
00000000
00001100
00000000
00000100
00010000
00001000
00000000
,  // measure 53
01000000
00010000
00100000
00100000
01000000
10000000
00100000
00000000
,  // measure 54
01000000
00000000
01010000
00000000
00010000
00100000
00001000
00000000
,  // measure 55
00010000
00000100
00001000
00001000
00000010
00000100
00000001
00000000
,  // measure 56
00000010
00000100
00001000
00000000
00000010
00000100
00000001
00000000
,  // measure 57
00000100
00001000
00010000
00100000
10000000
00000000
10010000
00000000
,  // measure 58
00010000
00000000
01010000
00000000
01000000
00001000
00010000
00000000
,  // measure 59
00000100
00001000
00000010
00000010
00000100
00000001
00001000
00000000
,  // measure 60
00000100
00000000
00010100
00000000
00010000
00001000
00100000
00000000
,  // measure 61
00010000
01000000
00100000
00100000
10000000
01000000
00100000
00000000
,  // measure 62
00010000
00000000
01010000
00000000
01000000
00001000
00010000
00000000
,  // measure 63
00000100
00001000
00000010
00000010
00000100
00000001
00001000
00000000
,  // measure 64
00001100
00000000
00000000
00010100
00000000
00000000
00011000
00000000
,  // measure 65
00000000
01001000
00000000
00000000
01010000
00000000
00110000
00000000
,  // measure 66
00000000
01100000
00000000
00000000
11000000
00000000
10010000
00000000
,  // measure 67
01000000
00000000
01100000
00000000
00100000
10000000
00010000
00000000
,  // measure 68
00100000
00001000
00010000
00010000
00001000
00000100
00000010
00000000
,  // measure 69
00001000
00000000
00001001
00000000
00000001
00000010
00000100
00000000
,  // measure 70
00010000
00001000
00010000
01000000
00100000
00010000
01000000
00000000
,  // measure 71
00100000
00000000
10100000
00000000
10000000
00010000
01000000
00000000
,  // measure 72
00001000
00010000
00100000
00010000
00001000
00000100
00000010
00000000
,  // measure 73
00001000
00000000
00001001
00000000
00000001
00000010
00000100
00000000
,  // measure 74
00010000
00000000
00000000
00000000
00010000
00000000
00001000
00010000
00001000
00000000
00010000
00000000
00001000
00000000
00001000
00000000
,  // measure 75
00010000
00010000
00000000
01000000
00000000
10000000
00000000
00000000
,  // measure 76
00010000
00000000
00010000
00000000
01000000
00000000
01000000
00000000
00001000
00010000
00001000
00010000
00001000
00000000
00010000
00000000
,  // measure 77
01000000
00000000
00100000
00001000
00000000
00000100
00000000
00000010
,  // measure 78
00001000
00001000
00001000
00000000
00000000
00000001
00000000
00000100
,  // measure 79
00001000
00001000
00000000
00000100
00000000
00000001
00000000
00000000
,  // measure 80
00001000
00000000
00001000
00000000
00000100
00000000
00000100
00000000
00010000
00001000
00010000
00001000
00010000
00000000
00001000
00000000
,  // measure 81
00000100
00000000
00000010
00010000
00000000
01000000
00000000
00100000
,  // measure 82
00010000
00010000
00010000
00000000
00000000
10000000
00000000
01000000
;

//---------------dance-double - ----------------
#NOTES:
     dance-double:
     :
     Medium:
     10:
     0.480,0.466,0.142,0.000,0.000: // measure 1
00000000
00000000
00000000
00000000
,  // measure 2
00000000
00000000
00000000
00000000
,  // measure 3
00000000
00000000
00000000
00000000
,  // measure 4
00000000
00000000
00000000
00000000
,  // measure 5
00000000
00000000
00000000
00000000
,  // measure 6
00000000
00000000
00000000
00000000
,  // measure 7
00000000
00000000
00000000
00000000
,  // measure 8
00000000
00000000
00000000
00000000
,  // measure 9
00000000
00000000
00000000
00000000
,  // measure 10
00000001
00000000
00001000
00000000
00000010
00000010
00000100
00000010
,  // measure 11
00000000
00001000
00000010
00001000
00000000
00000100
00000000
00010000
,  // measure 12
00000000
00001000
00010000
00001000
00100000
00000000
00010000
01000000
,  // measure 13
00000000
00100000
00000000
10000000
00000000
01000000
00000000
00000000
,  // measure 14
00100000
00000000
01000000
00000000
10000000
10000000
00010000
10000000
,  // measure 15
00000000
00100000
01000000
00100000
00000000
01000000
00000000
00010000
,  // measure 16
00100000
00000000
00000000
00101000
00000000
00000000
00001000
00000000
,  // measure 17
00000000
00011000
00000000
00000000
00010000
00000000
00010010
00000000
,  // measure 18
00000010
00000100
00000010
00000000
00000100
00000000
00000010
00001000
,  // measure 19
00000000
00001000
00000100
00000000
00010000
00000000
00001000
00100000
,  // measure 20
00010000
01000000
00010000
00000000
10000000
00000000
00100000
00000000
,  // measure 21
01000000
00100000
10000000
00010000
00000000
00100000
00000000
01000000
,  // measure 22
10000000
00010000
10000000
00000000
00100000
00000000
01000000
00010000
,  // measure 23
00000000
00100000
00001000
00000000
00010000
00000000
00000010
00000000
,  // measure 24
00001000
00000100
00000010
00000100
,  // measure 25
00010000
00001000
00010000
00000100
00000000
00001000
00000000
00010000
,  // measure 26
00100000
01000000
00100000
00000000
01000000
00000000
00100000
00010000
,  // measure 27
00000000
00010000
01000000
00000000
00001000
00000000
00010000
00000010
,  // measure 28
00001000
00000100
00001000
00000000
00000001
00000000
00000010
00000000
,  // measure 29
00000100
00000010
00000001
00001000
00000000
00000010
00000000
00000100
,  // measure 30
00000001
00001000
00000001
00000000
00000010
00000000
00000100
00001000
,  // measure 31
00000000
00000010
00010000
00000000
00001000
00000000
00100000
00000000
,  // measure 32
00010000
00000000
00000000
00110000
00000000
00000000
10000000
00000000
,  // measure 33
00000000
10100000
00000000
00000000
00010000
00000000
10010000
00000000
,  // measure 34
10000000
00000000
00100000
00000000
01000000
00010000
00000000
00100000
,  // measure 35
00000000
00000000
00001000
00000000
00010000
00000000
00000100
00001000
,  // measure 36
00000010
00000000
00000100
00000000
00000001
00000000
00000010
00000100
,  // measure 37
00000000
00010000
00011000
00011000
,  // measure 38
00001000
00000000
00100000
00000000
00010000
01000000
00000000
00100000
,  // measure 39
00000000
00000000
10000000
00000000
01000000
00000000
00100000
00001000
,  // measure 40
00010000
00000000
00000000
00000010
00000000
00000000
00001000
00000000
,  // measure 41
00000000
00000100
00000000
00000000
00000010
00000000
00000110
00000000
,  // measure 42
00000001
00000000
00000010
00000000
00000100
00010000
00000000
00001000
,  // measure 43
00000000
00000000
01000000
00000000
00100000
00000000
10000000
00010000
,  // measure 44
10000000
00000000
01000000
00000000
00100000
00000000
00001000
00010000
,  // measure 45
00000000
00000010
00001000
00000100
,  // measure 46
00000010
00000000
00000001
00000000
00000010
00001000
00000000
00010000
,  // measure 47
00000000
00000000
00100000
00000000
01000000
00000000
00001000
00010000
,  // measure 48
00000010
00000000
00000000
00000110
00000000
00000000
00000100
00000000
,  // measure 49
00000000
00000101
00000000
00000000
00000001
00000000
00001001
00000000
,  // measure 50
00001000
00000000
00000010
00000000
00000100
00000010
00000100
00000000
,  // measure 51
00000001
00000000
00000010
00000000
00000100
00010000
00001000
00000000
,  // measure 52
00100000
00000000
00010000
00000000
01000000
00100000
01000000
00010000
,  // measure 53
00000000
00010000
00000000
10000000
00000000
00010000
00000000
01000000
,  // measure 54
00000000
00100000
10000000
00000000
00010000
00000000
00100000
00000000
,  // measure 55
00001000
00010000
00001000
00000000
00010000
00000010
00010000
00000000
,  // measure 56
00000010
00000000
00001000
00000100
00000000
00001000
00000010
00000000
,  // measure 57
00000100
00000001
00000000
00000100
00000010
00000000
00000100
00000000
,  // measure 58
00000001
00000000
00000010
00000000
00000100
00010000
00001000
00000000
,  // measure 59
00010000
00100000
01000000
00010000
,  // measure 60
10000000
00000000
01000000
00000000
10000000
00100000
01000000
00010000
,  // measure 61
00000000
00100000
00000000
00001000
00000000
00010000
00000000
00000100
,  // measure 62
00000000
00001000
00000010
00000000
00000100
00000001
00000010
00000000
,  // measure 63
00000100
00000000
00010000
00000000
00001000
00100000
01000000
00000000
,  // measure 64
10000000
00000000
00000000
00100000
00000000
00000000
00010000
00000000
,  // measure 65
00000000
00001000
00000000
00000000
00000100
00000000
00000101
00000000
,  // measure 66
00000000
00000001
00000000
00000000
00000010
00000000
00001010
00000000
,  // measure 67
00010000
00011000
00001000
00100000
,  // measure 68
00010000
00000000
01000000
00000000
00100000
10000000
01000000
00000000
,  // measure 69
10000000
00100000
00010000
00001000
,  // measure 70
00000010
00000000
00000001
00000000
00001000
00000010
00001000
00000000
,  // measure 71
00000001
00000010
00001000
00010000
,  // measure 72
00100000
00000000
01000000
00000000
00010000
10000000
00010000
00000000
,  // measure 73
01000000
00100000
00010000
00001000
,  // measure 74
00000100
00000000
00000100
00000001
00001000
00000001
00000010
00000010
,  // measure 75
00000100
00000100
00000000
00010000
00000000
00001000
00000000
00000000
,  // measure 76
00100000
00100000
00010000
00010000
01000000
00100000
10000000
00000000
,  // measure 77
00010000
00000000
00100000
00001000
00000000
00010000
00000000
00000010
,  // measure 78
00001000
00000001
00001000
00000000
00000000
00000001
00000000
00000010
,  // measure 79
00000100
00000100
00000000
00010000
00000000
00001000
00000000
00000000
,  // measure 80
00100000
00010000
00100000
00010000
01000000
01000000
00100000
00000000
,  // measure 81
10000000
00000000
00010000
00100000
00000000
00100000
00000000
00001000
,  // measure 82
00010000
00000010
00010000
00000000
00000000
00001000
00000000
00000010
;

//---------------dance-double - ----------------
#NOTES:
     dance-double:
     :
     Easy:
     6:
     0.296,0.311,0.000,0.000,0.000: // measure 1
00000000
00000000
00000000
00000000
,  // measure 2
00000000
00000000
00000000
00000000
,  // measure 3
00000000
00000000
00000000
00000000
,  // measure 4
00000000
00000000
00000000
00000000
,  // measure 5
00000000
00000000
00000000
00000000
,  // measure 6
00000000
00000000
00000000
00000000
,  // measure 7
00000000
00000000
00000000
00000000
,  // measure 8
00000000
00000000
00000000
00000000
,  // measure 9
00000000
00000000
00000000
00000000
,  // measure 10
10000000
01000000
00000000
01000000
,  // measure 11
00100000
00001000
00000000
00001000
,  // measure 12
00010000
00000100
00000000
00000100
,  // measure 13
00001000
00000010
00000100
00000000
,  // measure 14
00000001
00000010
00000000
00000010
,  // measure 15
00000100
00010000
00000000
00010000
,  // measure 16
00001000
00000000
00000000
00010000
00000000
00000000
00001000
00000000
,  // measure 17
00000000
00010000
00000000
00000000
00001000
00000000
00010000
00000000
,  // measure 18
01000000
10000000
00000000
10000000
,  // measure 19
00100000
01000000
00000000
01000000
,  // measure 20
00010000
00100000
00000000
00100000
,  // measure 21
00001000
00010000
00000100
00001000
,  // measure 22
00000010
00000100
00000000
00000100
,  // measure 23
00000001
00001000
00000000
00001000
,  // measure 24
00000100
00000000
00000000
00010000
00000000
00000000
00000100
00000000
,  // measure 25
00000000
00010000
00000000
00000000
00000100
00000000
00010000
00000000
,  // measure 26
00001000
01000000
00010000
00000000
,  // measure 27
10000000
01000000
00100000
00000000
,  // measure 28
00001000
00010000
00001000
00000100
,  // measure 29
00000010
00000000
00001000
00000000
,  // measure 30
00000001
00000010
00000100
00000000
,  // measure 31
00000010
00000001
00000100
00000000
,  // measure 32
00001000
00000000
00000000
00010000
00000000
00000000
00001000
00000000
,  // measure 33
00000000
00010000
00000000
00000000
00001000
00000000
00010000
00000000
,  // measure 34
00000100
00000010
00000001
00000000
,  // measure 35
00000100
00000010
00010000
00000000
,  // measure 36
00001000
00100000
01000000
10000000
,  // measure 37
00100000
00000000
01000000
00000000
,  // measure 38
00010000
00100000
00001000
00000000
,  // measure 39
00010000
00000010
00000100
00000000
,  // measure 40
00001000
00000000
00000000
00010000
00000000
00000000
00001000
00000000
,  // measure 41
00000000
00010000
00000000
00000000
00001000
00000000
00010000
00000000
,  // measure 42
00000010
00000100
00000001
00000000
,  // measure 43
00000010
00000100
00010000
00000000
,  // measure 44
00001000
01000000
00100000
10000000
,  // measure 45
01000000
00000000
00100000
00000000
,  // measure 46
00010000
01000000
00001000
00000000
,  // measure 47
00010000
00000100
00000010
00000000
,  // measure 48
00001000
00000000
00000000
00010000
00000000
00000000
00001000
00000000
,  // measure 49
00000000
00010000
00000000
00000000
00001000
00000000
00010000
00000000
,  // measure 50
00001000
01000000
00100000
00000000
,  // measure 51
10000000
01000000
00100000
00000000
,  // measure 52
00010000
01000000
00010000
00000000
,  // measure 53
01000000
00001000
01000000
00000000
,  // measure 54
00001000
00010000
00000100
00000000
,  // measure 55
00001000
00000010
00000100
00000000
,  // measure 56
00000001
00000000
00001000
00000000
,  // measure 57
00000100
00010000
00001000
00000000
,  // measure 58
00100000
00010000
01000000
00000000
,  // measure 59
00100000
10000000
01000000
00000000
,  // measure 60
00010000
00001000
00010000
00000000
,  // measure 61
00001000
00000100
00000010
00000000
,  // measure 62
00001000
00000001
00001000
00000000
,  // measure 63
00000001
00000010
00000100
00000000
,  // measure 64
00000010
00000000
00000000
00000001
00000000
00000000
00001000
00000000
,  // measure 65
00000000
00000001
00000000
00000000
00000100
00000000
00000010
00000000
,  // measure 66
00000000
00001000
00000000
00000000
00000100
00000000
00001000
00000000
,  // measure 67
00000010
00000100
00000000
00000001
,  // measure 68
00000000
00001000
00000000
00000100
,  // measure 69
00010000
00001000
00000000
01000000
,  // measure 70
00000000
00010000
00000000
00100000
,  // measure 71
01000000
10000000
00000000
00100000
,  // measure 72
00000000
01000000
00000000
00001000
,  // measure 73
00010000
00001000
00000000
00000100
,  // measure 74
00000010
00000010
00000010
00000010
,  // measure 75
00001000
00000000
00000001
00000000
,  // measure 76
00000010
00000100
00001000
00000000
,  // measure 77
00000010
00000100
00000001
00000100
,  // measure 78
00001000
00010000
00000000
00010000
,  // measure 79
01000000
00000000
10000000
00000000
,  // measure 80
00010000
01000000
00010000
00000000
,  // measure 81
00100000
01000000
10000000
01000000
,  // measure 82
00010000
00000000
00010000
00000000
00000000
00001000
00000000
00001000
;
