#TITLE:DIORAMATIC MOMENT;
#SUBTITLE:;
#ARTIST:TЁЯRA;
#TITLETRANSLIT:;
#SUBTITLETRANSLIT:;
#ARTISTTRANSLIT:TERRA;
#GENRE:;
#CREDIT:Silverhawke;
#MENUCOLOR:;
#METERTYPE:DDR;
#BANNER:DIORAMATIC MOMENT.png;
#BACKGROUND:DIORAMATIC MOMENT-bg.png;
#LYRICSPATH:;
#CDTITLE:cdtitle.png;
#MUSIC:DIORAMATIC MOMENT.mp3;
#OFFSET:-0.028;
#SAMPLESTART:56.020;
#SAMPLELENGTH:15.000;
#SELECTABLE:YES;
#LISTSORT:;
#BPMS:0.000=150.000;
#STOPS:;
#BGCHANGES:;
#ATTACKS:;

//---------------dance-single - ----------------
#NOTES:
     dance-single:
     :
     Hard:
     10:
     0.491,0.516,0.330,0.295,0.134:
0000
0000
0000
0000
,
0000
0000
0000
0000
,
0000
0000
0000
0000
,
0000
0000
0000
0000
,
0000
0000
0000
0000
,
1000
1000
0100
0100
,
0001
0001
0010
0010
,
1000
0100
0001
0000
0100
0001
0010
0000
,
0001
1000
0100
1000
0010
0000
0100
0000
,
0101
0000
1100
0000
1010
0000
0011
0002
,
2000
0000
0000
3003
,
1000
0100
0010
0000
0100
0000
1000
0001
,
0100
0000
0010
0000
0100
0001
1000
0100
,
0010
0000
0001
0000
0100
1000
0100
0000
,
0010
0001
0010
1000
0100
0010
0001
0000
,
0001
0100
0010
0000
0100
0000
0001
1000
,
0100
0000
0010
0000
0100
1000
0001
0100
,
0010
0000
1000
0000
0100
0001
0100
0000
,
0010
1000
0010
0001
0100
0010
1000
0000
,
0001
0100
0001
0100
0010
0000
0100
0001
,
1000
0100
0010
0100
1000
0000
0001
0000
,
0100
1000
0100
0000
0001
0010
0001
0000
,
1000
0100
0001
0100
1000
0001
1000
0000
,
1000
0100
1000
0100
0010
0000
0100
1000
,
0001
0100
0010
0100
0001
0000
1000
0000
,
0100
0001
0100
0000
1000
0010
1000
0000
,
0002
0203
2300
3020
,
0031
0000
0000
1000
0000
0000
0001
0000
0100
0000
0000
0000
0010
0000
1000
0000
,
0100
0000
0000
0010
0000
0000
0100
0000
1000
0000
0000
0001
0000
0000
0100
0000
,
0010
0000
0000
0010
0000
0000
0010
0000
1000
0000
0000
1000
0000
0000
1000
0000
,
0001
0000
0011
1100
,
1000
0000
0000
0010
0000
0000
0100
0000
0001
0000
0000
0010
0000
0000
0100
0000
,
2100
3001
0102
1003
,
0120
0000
0000
0000
0000
0100
0100
0100
,
0030
1100
0101
1001
,
0001
0000
0000
0001
0000
0000
0001
0000
1000
0000
0000
0010
0000
0000
0100
0000
,
0010
0000
0000
0010
0000
0000
0010
0000
1000
0000
0000
0100
0000
0000
0010
0000
,
0001
0000
1000
0001
0100
0000
0010
0000
,
1000
0000
0000
0001
0000
0000
0010
0000
0220
0000
0000
0000
0330
0000
0000
0000
,
1000
0000
0000
1000
0000
0000
1000
0000
0001
0000
0000
0010
0000
0000
0100
0000
,
0010
0000
0000
0010
0000
0000
0010
0000
0001
0000
0000
0100
0000
0000
0010
0000
,
1000
0000
0001
1000
0100
0010
0000
0001
,
0011
0000
1010
0000
2002
0000
3003
0001
,
1000
0000
0000
1000
0000
0000
1000
0000
0010
0000
0000
0010
0000
0000
0020
0000
,
0200
0000
0000
0330
,
1002
0000
0023
0000
,
0230
2300
3020
0000
,
0230
0000
0302
0000
,
2003
3200
0320
0032
,
1003
1100
0001
0101
,
0001
0010
0100
1000
1001
0000
0110
0000
,
0010
1000
0010
1000
0100
0001
0100
0001
,
1000
0010
0001
1000
2002
0000
3003
0000
,
0000
0010
0010
0010
,
0000
0110
1001
0110
,
1000
0000
0000
0100
0000
0000
0010
0000
0001
0000
0000
0100
0000
0000
0010
0000
,
1000
0000
0000
0100
0000
0000
0001
0000
0100
0000
0000
1000
0000
0000
0010
0000
,
0100
0000
1000
0100
0001
0000
1000
0100
,
0010
0100
1000
0001
0100
0000
0110
0000
,
0010
0000
0000
1000
0000
0000
0001
0000
0100
0000
0000
1000
0000
0000
0100
0000
,
0010
0000
0000
1000
0000
0000
0100
0000
0001
0000
0000
1000
0000
0000
0010
0000
,
0001
0000
0000
0000
0100
0000
0010
0000
1000
0000
0000
0100
0000
0000
0010
0000
,
0011
1001
2200
3300
,
0100
0000
0000
0000
1000
0000
0001
0000
0100
0000
0000
0010
0000
0000
0100
0000
,
0001
0000
0000
1000
0000
0000
0100
0000
0001
0000
0000
0000
0100
0000
0000
0000
,
2100
0000
0010
3001
,
0102
0000
1000
0000
0010
0000
0003
0100
,
0110
0000
0000
0000
1100
0000
0000
0000
0101
0000
0000
0001
0000
0000
0010
0000
,
0100
0000
0000
0000
0110
0000
0000
0000
0101
0000
0000
1010
0000
0000
0000
0000
,
2002
0000
0000
0000
,
3003
0000
0000
0000
;

//---------------dance-single - ----------------
#NOTES:
     dance-single:
     :
     Medium:
     7:
     0.357,0.456,0.165,0.182,0.004:
0000
0000
0000
0000
,
0000
0000
0000
0000
,
0000
0000
0000
0000
,
0000
0000
0000
0000
,
0000
0000
0000
0000
,
0001
0000
1000
0000
,
0100
0010
0001
0100
,
0010
0000
1000
0000
,
0001
0100
1000
0100
,
0001
0000
1000
0000
,
2002
0000
0000
3003
,
1000
0001
0100
0010
,
0100
0000
0001
1000
0100
0000
0000
0000
,
0010
0100
1000
0001
,
0010
0000
0001
0100
0010
0000
0000
0000
,
0100
1000
0100
0001
,
1000
0000
0100
0010
0001
0000
0000
0000
,
0100
0010
0001
0010
,
1000
0000
0100
0010
0001
0000
0000
0000
,
0010
0100
1000
0001
,
0100
1000
0100
0001
0100
0000
0010
0000
,
1000
0100
0010
0001
,
0100
0001
0100
0010
0100
0000
1000
0000
,
0100
0001
1000
0100
,
0001
0100
1000
0100
0001
0000
0100
0000
,
0010
0001
0100
0010
,
1000
0001
1001
1001
,
0100
0100
0010
0010
,
0100
0010
0100
0001
,
1000
1000
0001
0001
,
1001
1000
0100
0010
,
0100
1000
1100
0000
,
0001
0100
0101
0000
,
1000
0000
0001
0000
1000
0001
1000
0001
,
0000
0100
0100
0110
,
0100
0000
0001
0000
1000
0100
0010
0000
,
0001
0000
0010
0000
0100
1000
0001
0000
,
0100
0010
1000
0100
,
0110
0110
0110
0000
,
0010
0000
0001
0000
0100
0010
1000
0000
,
0010
0000
0100
0000
0001
0100
1000
0000
,
0100
0001
1000
0010
,
0001
0000
0010
1000
0001
0000
0010
0000
,
0100
0000
1000
0000
0100
0010
0001
0000
,
0010
0000
0100
0000
1000
0001
0100
0000
,
2000
0000
3002
0000
,
0023
0230
2300
0000
,
3002
0000
0203
0000
,
0320
0230
0302
2003
,
3001
0101
0001
0101
,
1000
0100
0010
0000
,
1000
1100
1000
1100
,
0001
0010
0100
0000
,
0000
1000
0001
1001
,
0000
0001
1000
1001
,
0100
0001
0100
0001
,
1000
0100
1000
0100
,
0010
0100
1000
0001
,
0100
0000
0000
0100
0000
0000
0100
0000
0100
0000
0000
0000
0000
0000
0000
0000
,
0001
0010
0001
0010
,
0100
1000
0100
1000
,
0001
0100
1000
0100
,
0001
1000
1001
0000
,
1000
0000
0100
0000
0010
0001
1000
0100
,
0010
0001
0010
0100
1000
0001
0010
0100
,
2000
0000
0002
3003
,
0002
0000
2000
3003
,
0010
0010
0010
0010
,
0220
0000
0000
0330
,
2002
0000
0000
0000
,
3003
0000
0000
0000
;

//---------------dance-single - ----------------
#NOTES:
     dance-single:
     :
     Easy:
     5:
     0.269,0.273,0.052,0.052,0.000:
0000
0000
0000
0000
,
0000
0000
0000
0000
,
0000
0000
0000
0000
,
0000
0000
0000
0000
,
0000
0000
0000
0000
,
1000
0000
0001
0000
,
0100
0100
0100
0000
,
0010
0000
0010
0000
,
0100
0001
1000
0000
,
0100
0010
0001
0010
,
0200
0000
0300
0000
,
0100
1000
0001
0000
,
0100
1000
0001
0000
,
0010
0001
1000
0000
,
0010
0001
1000
0000
,
0001
0100
1000
0000
,
0001
0100
1000
0000
,
0001
0010
1000
0000
,
0001
0010
1000
0000
,
0001
0001
1000
0100
,
0010
0010
0001
0000
,
1000
1000
0010
0100
,
0001
0001
1000
0000
,
0100
0010
0100
1000
,
0001
0100
0010
0000
,
0100
0001
1000
0100
,
0110
0000
1001
0000
,
1000
0100
0010
0000
,
0001
0010
0100
1000
,
0001
0100
0010
0000
,
1000
0010
0100
0001
,
0010
0100
1000
0001
,
1000
0100
0010
0001
,
1001
0000
0000
0000
,
0000
0100
0010
0110
,
1000
0100
1000
0100
,
0010
0001
0010
0001
,
0100
0001
1000
0100
,
0010
0001
1000
0000
,
0001
0100
0001
0100
,
0010
1000
0010
1000
,
0100
0010
0001
0010
,
0100
1000
0001
0000
,
1000
0100
0010
0001
,
2000
0000
3000
0000
,
1000
0000
0001
0000
,
0100
0010
1000
0000
,
0100
0000
0010
0000
,
0001
0010
0100
1000
,
0001
0100
0001
0100
,
0010
1000
0100
0000
,
0010
0100
0010
0100
,
1000
0001
0100
0000
,
0000
0010
0100
0010
,
0000
1000
0001
1000
,
0100
1000
0100
1000
,
0001
0100
0001
0100
,
0010
1000
0100
0001
,
0100
1000
0001
0000
,
0100
0001
0100
0001
,
0010
0001
0010
0001
,
0010
0100
1000
0100
,
0001
0100
1000
0000
,
0001
0100
1000
0000
,
0001
0010
1000
0000
,
0001
0000
1000
0000
,
1000
0001
1000
0000
,
0100
0010
0100
0010
,
2002
0000
3003
0000
,
0220
0000
0000
0000
,
0330
0000
0000
0000
;

//---------------dance-single - ----------------
#NOTES:
     dance-single:
     :
     Beginner:
     3:
     0.152,0.182,0.000,0.104,0.000:
0000
0000
0000
0000
,
0000
0000
0000
0000
,
0000
0000
0000
0000
,
0000
0000
0000
0000
,
0000
0000
0000
0000
,
1000
0000
0100
0000
,
0001
0000
0100
0000
,
1000
0000
0000
0000
,
0001
0001
0001
0000
,
0100
0000
0100
0000
,
0200
0000
0300
0000
,
0010
0000
0010
0000
,
1000
0000
0100
0000
,
0010
0000
0010
0000
,
0001
0000
0100
0000
,
0010
0000
0010
0000
,
1000
0000
0100
0000
,
0010
0000
0010
0000
,
0001
0000
0000
0000
,
1000
0000
1000
0000
,
0100
0000
0010
0000
,
0001
0000
0000
0000
,
0100
0000
0100
0000
,
0010
0000
0010
0000
,
1000
0000
0001
0000
,
0010
0000
0000
0000
,
0100
0100
0100
0000
,
2000
0000
3000
0000
,
0002
0000
0003
0000
,
0100
0000
0100
0000
,
0100
0000
0000
0000
,
0010
0000
1000
0000
,
0010
0000
0100
0000
,
0010
0000
0000
0000
0000
0000
0100
0100
,
0000
0000
0000
0000
,
0001
0000
0100
0000
,
1000
0000
0100
0000
,
0001
0000
0001
0000
,
1000
1000
1000
0000
,
1000
0000
0100
0000
,
0001
0000
0100
0000
,
1000
0000
1000
0000
,
0001
0001
0001
0000
,
0010
0000
0100
0000
,
2000
0000
3000
0000
,
0002
0000
0003
0000
,
2000
0000
3000
0000
,
0001
0000
1000
0000
,
0002
0000
0003
0000
,
2000
0000
3000
0000
,
0002
0000
0003
0000
,
1000
0000
0001
0000
,
2000
0000
3000
0000
,
0000
0000
0000
0000
,
0000
0000
0000
0000
,
1000
0000
1000
0000
,
0100
0000
0010
0000
,
0001
0000
0001
0000
,
0100
0000
0000
0000
,
0001
0000
0001
0000
,
0010
0000
0100
0000
,
1000
0000
1000
0000
,
0010
0000
0000
0000
,
0100
0000
0100
0000
,
0001
0001
0001
0000
,
0100
0000
0100
0000
,
0010
0000
1000
0000
,
0100
0000
0010
0000
,
0002
0000
0003
0000
,
0200
0000
0000
0000
,
0300
0000
0000
0000
;

//---------------dance-double - ----------------
#NOTES:
     dance-double:
     :
     Hard:
     12:
     0.543,0.607,0.416,0.191,0.325:
00000000
00000000
00000000
00000000
,
00000000
00000000
00000000
00000000
,
00000000
00000000
00000000
00000000
,
00000000
00000000
00000000
00000000
,
00000000
00000000
00000000
00000000
,
10000000
00000000
00000000
00100000
00000000
00000000
01000000
00000000
00010000
00000000
00000000
00100000
00000000
00000000
01000000
00000000
,
00010000
00000000
00000000
00001000
00000000
00000000
00000100
00000000
00000010
00000000
00000000
00001000
00000000
00000000
00000001
00000000
,
00000100
00000000
00000000
00000000
00000000
00000000
00000010
00001000
00000010
00000000
00000000
00000100
00000000
00000000
00001000
00000000
,
00010000
00000000
00000000
00000000
01000000
00000000
00000000
00000000
01100000
00000000
00000000
00000000
00000000
00000000
10000000
00010000
,
10000000
00000000
00000000
00000000
01000000
00000000
00000000
00000000
00010000
00000000
00000000
00001000
00000000
00000000
00000100
00000000
,
00000002
00000000
00000003
00000000
,
00001000
00000000
00000100
00010000
00000000
00000000
00001000
00000000
01000000
00000000
00000000
00100000
00000000
00000000
01000000
00000000
,
00010000
00000000
00000000
00100000
00000000
00000000
01000000
00000000
10000000
00000000
00000000
00000000
10010000
00000000
00010000
00000000
,
01000000
00000000
00000000
00001000
00000000
00000000
00010000
00000000
00000100
00000000
00000000
00000010
00000000
00000000
00000100
00000000
,
00010000
00000000
00000000
00001000
00000000
00000000
01000000
00000000
00100000
00000000
00000000
00000000
10010000
00000000
10000000
00000000
,
01000000
00000000
00000000
00010000
00000000
00000000
00001000
00000000
00000100
00000000
00000000
00000010
00000000
00000000
00001000
00000000
,
00000100
00000000
00000000
00000001
00000000
00000000
00000100
00000000
00001000
00000000
00000000
00000000
00001001
00000000
00000001
00000000
,
00000010
00000000
00000000
00001000
00000000
00000000
00010000
00000000
01000000
00000000
00000000
10000000
00000000
00000000
00100000
00000000
,
02000000
00000000
00000000
00000000
03010000
00000000
10000000
00000000
01000000
00000000
00000000
00000000
00100000
00000000
00010000
10000000
,
00010000
00000000
00000000
01000000
00000000
00000000
00010000
00000000
00001000
00000000
00000000
00000010
00000000
00000000
00001000
00000000
,
00000100
00000000
00000000
00000010
00000000
00000000
00001000
00000000
00010000
00000000
00000000
01000000
00000000
00000000
10000000
00000000
,
00020000
00000000
00000000
00000000
00030000
00000000
01000000
00000000
01000000
00000000
00000000
00100000
00000000
00000000
00010000
00000000
,
00001000
00000000
00000000
00000100
00000000
00000000
00000010
00000000
00001000
00000000
00000000
00000000
00001001
00000000
00000001
00000000
,
00000010
00000000
00000000
00001000
00000000
00000000
00010000
00000000
00001000
00000000
00000000
00000100
00000000
00000000
00001000
00000000
,
00010000
00000000
00000000
01000000
00000000
00000000
10000000
00000000
00100000
00000000
00000000
00010000
00000000
00000000
00001000
00000000
,
01000000
00000000
00000000
00000000
00100000
00000000
10000000
00000000
01000000
00000000
00000000
01100000
00000000
00000000
00100000
00000000
,
00001000
01010000
00011000
00001100
,
00011000
00000000
00000000
00001000
01000000
00000000
00100000
00000000
10000000
00000000
00000000
00000000
00010000
00000000
10000000
00000000
,
01000000
00000000
00000000
01000000
00100000
00000000
00001000
00000000
00010000
00000000
00000000
00010000
00000100
00000000
00000010
00000000
,
00000001
00000000
00000000
00000001
00000100
00000000
00000010
00000000
00001000
00000000
00000000
00001000
00000100
00000000
00010000
00000000
,
00001000
00000000
01000000
10000000
01000000
00001000
00010000
00000010
,
00000100
00000000
00000000
00000100
00000001
00000000
00001000
00000000
00000100
00000000
00010000
00000000
00001000
00000000
00100000
00000000
,
11000000
00110000
00001100
00000011
,
00001001
00000000
00000001
00000100
00000001
00000010
00000010
00000110
,
00000000
00000200
00020300
00230000
,
10300000
00000000
00000000
11000000
00000000
00000000
01000000
00000000
00100000
00000000
00000000
00101000
00000000
00000000
00001000
00000000
,
00010000
00000000
00000000
00010010
00000000
00000000
00000010
00000000
00000100
00000000
00000000
00000101
00000000
00000000
00000001
00000000
,
00002000
00000000
00000000
00000000
00003000
00000000
00000100
00010000
00000100
00000000
00000000
00000000
00010000
00000000
00000000
00000000
,
00001000
00000000
00000000
01000000
00000000
00000000
00100000
00000000
02200000
00000000
00000000
00000000
03300000
00000000
00000000
00000000
,
10000000
00000000
00000000
11000000
00000000
00000000
01000000
00000000
00100000
00000000
00000000
00101000
00000000
00000000
00001000
00000000
,
00010000
00000000
00000000
00010100
00000000
00000000
00000100
00000000
00000010
00000000
00000000
00000011
00000000
00000000
00000001
00000000
,
00000200
00000000
00000000
00000000
00000300
00000000
00000010
00001000
00000010
00000000
00000100
00000000
00000000
00000000
00001000
00000000
,
00011000
00000000
01010000
00000000
22000000
00000000
33000000
10000000
,
01000000
00000000
00000000
00010000
00000000
00000000
00001000
00000000
00000100
00000000
00000000
00000001
00000000
00000000
00000010
00000000
,
00000200
00000000
00000000
00000000
00000000
00000000
00000000
00000000
00001300
00000100
00001000
00000000
00000100
00001000
00000100
00000000
,
00010000
01010000
10000000
11000000
,
00100000
00101000
00000100
00010100
,
00001000
00001010
00000001
00000101
,
00000010
00000000
00000110
00000000
00000000
00000000
00010100
00000000
00011000
00000000
00000000
00000000
00001000
01000000
00001000
01000000
,
00001000
00010000
01000000
00000000
10000000
01000000
00010000
00001000
,
00011000
00010100
00000110
00000011
,
00000001
00000000
00000000
00000100
00000000
00000000
00001000
00000000
00010000
00000000
00000000
00100000
00000000
00000000
10000000
00000000
,
10010000
00000000
00000000
11000000
00000000
00000000
01010000
00000000
20020000
00000000
00000000
00000000
00000000
00000000
30030000
00000000
,
00000000
10000000
01000000
00100000
,
00000000
00000001
00000100
00000010
,
00001000
00000000
00000000
00001000
00000100
00000000
00000010
00000000
00000001
00000000
00000000
00000001
00000100
00000000
00001000
00000000
,
00010000
00000000
00000000
00010000
01000000
00000000
10000000
00000000
00100000
00000000
00000000
00100000
01000000
00000000
00001000
00000000
,
00010000
00000000
00000000
00000000
00000100
00000000
00000010
00000100
00000010
00000000
00000000
00000000
00000001
00000000
00000000
00000000
,
00001000
00000000
00000000
00000001
00000000
00000000
00000100
00000000
00002000
00000000
00000000
00000000
00003000
00000000
00000000
00000000
,
00010000
00000000
00000000
00010000
01000000
00000000
00100000
00000000
00001000
00000000
00000000
00001000
00010000
00000000
00000010
00000000
,
00000100
00000000
00000000
00000100
00010000
00000000
01000000
00000000
00100000
00000000
00000000
00100000
10000000
00000000
01000000
00000000
,
00010000
00000000
00000000
00000000
00000000
00000000
00001000
00010000
00001000
00000000
00000000
00000100
00000000
00000000
00000010
00000000
,
00001010
00000101
00002200
00003300
,
00000001
00000000
00000000
00000000
00000000
00000000
00001000
00000100
00001000
00000000
00000000
00000010
00000000
00000000
00000100
00000000
,
00001000
00000000
00000000
01000000
00000000
00000000
00100000
00000000
10000000
00000000
00000000
00000000
00000000
00000000
00000000
00000000
,
00010000
00000000
00000000
00000000
00000000
00000000
01000000
00100000
01000000
00000000
00000000
00010000
00000000
00000000
00100000
00000000
,
00020000
00000000
00000000
00000000
00032000
00000000
00000000
00000000
00003002
00000000
00000000
00000000
00000003
00000000
00000100
00000010
,
00000100
00001000
00010000
00100000
01000000
00001000
00000010
00000001
,
00000100
00001000
00010000
01000000
00100000
00001000
00000100
00000010
,
00020000
00000000
00000000
00000000
,
00030000
00000000
00000000
00000000
;

//---------------dance-double - ----------------
#NOTES:
     dance-double:
     :
     Medium:
     10:
     0.410,0.486,0.113,0.191,0.156:
00000000
00000000
00000000
00000000
,
00000000
00000000
00000000
00000000
,
00000000
00000000
00000000
00000000
,
00000000
00000000
00000000
00000000
,
00000000
00000000
00000000
00000000
,
00001000
00000000
00000000
00001000
00000000
00000000
00001000
00000000
01000000
00000000
00000000
01000000
00000000
00000000
01000000
00000000
,
00010000
00000000
00000000
00010000
00000000
00000000
00010000
00000000
10000000
00000000
00000000
10000000
00000000
00000000
10000000
00000000
,
02000000
00000000
00000000
00000000
00000000
00000000
03100000
00000000
00001000
00000000
00000000
00010000
00000000
00000000
00001000
00000000
,
00000100
00000000
00000010
00000000
00001001
00000000
00000000
00000001
,
00000010
00000000
00000000
00000000
00000100
00000000
00000000
00000000
00010000
00000000
00000000
00001000
00000000
00000000
01000000
00000000
,
00200000
00000000
00000000
00300000
,
10000000
01000000
00100000
01000000
,
10000000
00000000
00010000
01000000
00001000
00000000
00000000
00000000
,
00010000
00000100
00001000
00000010
,
00000100
00000000
00000001
00001000
00000100
00000000
00000000
00000000
,
00010000
00001000
01000000
00100000
,
10000000
00000000
01000000
00100000
00001000
00000000
00000000
00000000
,
00010000
00000100
00010000
00001000
,
00200000
00000000
00000000
01300000
01000000
00000000
00000000
00000000
,
10000000
01000000
00100000
00000000
00100000
01000000
10000000
00000000
,
00010000
01000000
00001000
00000000
00001000
00010000
00000100
00000000
,
00000010
00000000
00000001
00000100
00000010
00000000
00000110
00000000
,
00000100
00000001
00001000
00000100
00010000
00000000
00000000
00000000
,
00001000
00000000
01000000
00010000
00100000
00000000
00100000
01000000
,
10000000
00000000
00100000
01000000
00001000
00000000
00001000
00010000
,
00000100
00000000
00000000
00000000
00000000
00000000
00000010
00000000
00000010
00000000
00000000
00000001
00000000
00000000
00000100
00000000
,
00000010
00010010
00010000
00011000
,
00001000
00000000
01000000
00100000
10000000
00000000
00000000
00000000
,
01000000
00000000
00100000
00001000
00010000
00000000
00001000
00000000
,
00000100
00000000
00000010
00000000
00010000
00001000
00010000
01000000
,
00100000
00000000
00000000
00000000
00010000
01000000
10000000
00000000
,
01000000
00000000
00010000
00000000
10000000
01000000
00010000
00000000
,
00001000
00000000
00000010
00000000
00000001
00000000
00000100
00000010
,
00001000
00000000
00000100
00000010
00000000
00000010
00000010
00000010
,
00000000
00000001
00000101
00001010
,
00001000
00000000
00000000
00000100
00000000
00000000
00010000
00000000
00001000
00000000
00000000
00100000
00000000
00000000
00001000
00000000
,
00010000
00000000
00000000
00000010
00000000
00000000
00010000
00000000
00001000
00000000
00000000
01000000
00000000
00000000
00001000
00000000
,
00010000
00000000
00000000
01000000
10000000
00000000
00010000
00000000
,
01000000
00000000
00000000
00100000
00000000
00000000
01000000
00000000
01100000
00000000
00000000
00000000
00000000
00000000
00000000
00000000
,
00010000
00000000
00000000
01000000
00000000
00000000
00001000
00000000
00010000
00000000
00000000
00000010
00000000
00000000
00010000
00000000
,
00001000
00000000
00000000
00100000
00000000
00000000
00001000
00000000
00010000
00000000
00000000
00000100
00000000
00000000
00010000
00000000
,
00001000
00000000
00000000
00000100
00000001
00001000
00000000
00000010
,
00000100
00000000
00000010
00000000
00000110
00000000
00000000
00000100
,
00000001
00000000
00000000
00001000
00000000
00000000
00000100
00000000
00010000
00000000
00000000
00001000
00000000
00000000
00100000
00000000
,
02000000
00000000
03000000
00000000
,
20000000
31000000
00020000
01030000
,
20000000
30200000
00320000
00030000
,
00002000
00003100
00000002
00000013
,
00000000
00000110
00000000
00001000
00000100
00000000
00010000
00000000
,
00001000
00000000
01000000
00010000
00100000
00000000
01000000
10000000
,
00200000
02300000
03002000
00003000
,
00010000
00000000
00000000
00000100
00000000
00000000
00000010
00000000
00000001
00000000
00000000
00000010
00000000
00000000
00000100
00000000
,
00010000
00000000
00000000
00001000
00000000
00000000
00100000
00000000
01000000
00000000
00000000
00000000
00000000
00000000
10000000
00000000
,
00000000
00010000
00001000
00000001
,
00000000
00001000
00010000
10000000
,
00010000
00000000
00000000
00100000
00000000
00000000
00001000
00000000
00010000
00000000
00000000
00000100
00000000
00000000
00010000
00000000
,
00001000
00000000
00000000
01000000
00000000
00000000
00001000
00000000
00010000
00000000
00000000
00000010
00000000
00000000
00010000
00000000
,
00001000
00000000
00000000
00000010
00000001
00000000
00001000
00000000
,
00000010
00000000
00000000
00000100
00000000
00000000
00000010
00000000
00000110
00000000
00000000
00000000
00000000
00000000
00000000
00000000
,
00001000
00000000
00000000
00000010
00000000
00000000
00010000
00000000
00001000
00000000
00000000
01000000
00000000
00000000
00001000
00000000
,
00010000
00000000
00000000
00000100
00000000
00000000
00010000
00000000
00001000
00000000
00000000
00100000
00000000
00000000
00001000
00000000
,
00010000
00000000
00000000
00000000
00000000
00000000
00100000
00000000
10000000
00000000
00000000
00010000
00000000
00000000
01000000
00000000
,
00100000
01000000
01100000
00000000
,
10000000
00000000
00000000
00000000
00000000
00000000
10000000
00000000
01000000
00000000
00000000
00010000
00000000
00000000
00001000
00000000
,
00000010
00000000
00000000
00001000
00000000
00000000
00010000
00000000
00100000
00000000
00000000
00000000
00000000
00000000
00000000
00000000
,
00010000
00000000
00000000
00000000
00000000
00000000
00001000
00000000
00000100
00000000
00000000
00000010
00000000
00000000
00010000
00000000
,
00002000
00000000
02003000
00000000
03200000
00000000
00300000
10000000
,
12000000
00000000
00000000
00000000
03020000
00000000
00000000
00000000
00031000
00000000
00000000
00000010
00000000
00000000
00000001
00000000
,
00002000
00000000
00000000
00000000
00010000
00000000
00000000
00000000
00010000
00000000
00000000
00010000
00003000
00000000
00000000
00000000
,
00022000
00000000
00000000
00000000
,
00033000
00000000
00000000
00000000
;

//---------------dance-double - ----------------
#NOTES:
     dance-double:
     :
     Easy:
     7:
     0.297,0.304,0.061,0.043,0.000: // measure 1
00000000
00000000
00000000
00000000
,  // measure 2
00000000
00000000
00000000
00000000
,  // measure 3
00000000
00000000
00000000
00000000
,  // measure 4
00000000
00000000
00000000
00000000
,  // measure 5
00000000
00000000
00000000
00000000
,  // measure 6
10000000
00000000
00000000
10000000
00010000
00000000
00000000
00010000
,  // measure 7
01000000
00000000
00000000
01000000
00001000
00000000
00000000
00001000
,  // measure 8
00010000
00000000
00000000
00010000
00000100
00000000
00000010
00000000
,  // measure 9
00000001
00000100
00000110
00000000
,  // measure 10
00000010
00000000
00000010
00000000
00010000
00000000
00001000
00010000
,  // measure 11
00002000
00000000
00003000
00000000
,  // measure 12
00100000
00100000
01000000
10000000
,  // measure 13
00010000
00000000
10000000
10000000
10000000
00000000
00000000
00000000
,  // measure 14
00010000
01000000
00001000
00010000
,  // measure 15
00000100
00000000
00001000
00001000
00001000
00000000
00000000
00000000
,  // measure 16
00000100
00000100
00000010
00000001
,  // measure 17
00000100
00000000
00000010
00000010
00000010
00000000
00000000
00000000
,  // measure 18
00001000
00000100
00010000
00001000
,  // measure 19
00100000
00000000
00000000
00010000
00010000
00000000
00000000
00000000
,  // measure 20
10000000
10000000
00010000
00010000
,  // measure 21
10000000
01000000
00100000
01000000
,  // measure 22
00100000
00000000
00001000
00010000
,  // measure 23
00000100
00000100
00000100
00000000
00001000
00000000
00000000
00000000
,  // measure 24
00000010
00000100
00000001
00001000
,  // measure 25
00000100
00010000
00000100
00010000
,  // measure 26
00001000
00000000
00000000
01000000
01000000
00000000
00010000
00000000
,  // measure 27
10000000
01000000
00100000
00010000
,  // measure 28
10000000
10000000
10000000
00000000
,  // measure 29
00010000
00010000
00010000
01000000
,  // measure 30
00001000
00001000
00010000
00010000
,  // measure 31
00000100
00000000
00000010
00000010
,  // measure 32
00000001
00000100
00000001
00000100
,  // measure 33
00000010
00010000
00000010
00010000
,  // measure 34
00001000
00000000
00000000
00000000
00000000
01000000
01000000
01000000
,  // measure 35
00000000
00100000
10000000
10010000
,  // measure 36
00010000
01000000
00001000
00010000
,  // measure 37
00000010
00010000
00001000
00100000
,  // measure 38
00001000
00000000
00010000
00000100
00010000
00000000
00000100
00000000
,  // measure 39
00001000
00000010
00000110
00000000
,  // measure 40
00001000
00000100
00010000
00001000
,  // measure 41
00100000
00001000
00010000
00000010
,  // measure 42
00010000
00000000
00001000
01000000
00001000
00000000
01000000
00000000
,  // measure 43
00010000
00100000
01100000
00000000
,  // measure 44
10000000
01000000
00100000
00001000
,  // measure 45
00020000
00000000
00030000
00000000
,  // measure 46
00001000
00000000
01000000
00000000
,  // measure 47
00010000
10000000
01000000
00000000
,  // measure 48
00100000
00000000
00001000
00000000
,  // measure 49
00010000
00000100
00000010
00000000
,  // measure 50
00000001
00000000
00000100
00000000
,  // measure 51
00000010
00000100
00000010
00000000
,  // measure 52
00001000
00001000
00000100
00000100
,  // measure 53
00010000
00010000
00001000
00000000
,  // measure 54
00000000
00010000
00000100
00000010
,  // measure 55
00000000
00000100
00010000
00000010
,  // measure 56
00001000
00000010
00010000
00001000
,  // measure 57
01000000
00001000
00010000
00000100
,  // measure 58
00010000
00000000
00001000
00100000
00001000
00000000
00100000
00000000
,  // measure 59
00010000
01000000
01100000
00000000
,  // measure 60
00010000
00100000
00001000
00010000
,  // measure 61
00000100
00010000
00001000
01000000
,  // measure 62
00001000
00000000
00010000
00000010
00010000
00000000
00000010
00000000
,  // measure 63
00001000
00000100
00000110
00000000
,  // measure 64
00000001
00000000
00000100
00001000
,  // measure 65
00010000
00100000
10000000
00000000
,  // measure 66
10000000
00000000
01000000
00010000
,  // measure 67
00001000
00000010
00000001
00000000
,  // measure 68
00000001
00000100
00001000
00010000
,  // measure 69
02000000
00000000
13000000
00000000
,  // measure 70
20020000
00000000
00000000
00000000
,  // measure 71
30030000
00000000
00000000
00000000
;
