#TITLE:DIAVOLO;
#SUBTITLE:;
#ARTIST:度胸兄弟;
#TITLETRANSLIT:;
#SUBTITLETRANSLIT:;
#ARTISTTRANSLIT:Dokyou Kyoudai;
#GENRE:;
#CREDIT:Silverhawke;
#MENUCOLOR:;
#METERTYPE:DDR;
#BANNER:DIAVOLO.png;
#BACKGROUND:DIAVOLO-bg.png;
#LYRICSPATH:;
#CDTITLE:cdtitle.png;
#MUSIC:DIAVOLO.mp3;
#OFFSET:-0.028;
#SAMPLESTART:18.020;
#SAMPLELENGTH:15.000;
#SELECTABLE:YES;
#LISTSORT:;
#DISPLAYBPM:160.000;
#BPMS:0.000=160.000,222.250=320.000,223.250=640.000,226.250=320.000,226.750=160.000,229.250=320.000,230.250=640.000,233.250=320.000,233.750=160.000,236.250=320.000,237.250=640.000,240.250=320.000,240.750=160.000,243.250=320.000,244.250=640.000,247.250=320.000,247.750=160.000;
#STOPS:;
#BGCHANGES:;
#ATTACKS:;

//---------------dance-single - ----------------
#NOTES:
     dance-single:
     :
     Hard:
     13:
     0.698,0.700,0.509,0.132,0.302:
0000
0000
0000
0000
,
0000
0000
0000
0000
,
0000
0000
0000
0000
,
0000
0000
0000
0000
,
1100
0000
0001
0100
0101
0000
1000
0100
,
1100
0000
0001
0010
0011
0000
1000
0010
,
1010
1100
0101
0011
,
0001
0000
0010
0000
0100
0000
1000
0000
1001
0000
0000
0001
1000
0000
0000
1000
,
0001
0100
0001
0100
0010
0100
0010
0100
,
0001
0010
0100
1000
0001
0100
0010
0000
,
0110
0010
1000
0010
0100
0010
0100
0010
,
1000
0100
0010
0001
1000
0010
0100
0000
,
0110
0000
0000
0000
1000
0000
0010
0000
1010
0000
0000
0100
0001
0000
0000
0001
,
0010
0000
0000
0000
0001
0000
0010
0000
0011
0000
0000
1000
0010
0000
0000
0010
,
0100
0000
0000
0001
1000
0000
0000
0010
1000
0000
0000
0100
1000
0000
0000
0001
,
0010
0100
1000
0001
0100
0000
1001
0000
,
0100
0001
0100
0001
1000
0100
1000
0100
,
0010
0001
0100
0001
0010
0100
1000
0010
,
0110
1000
0001
0000
0110
0001
1000
0000
,
0001
0010
0100
1000
1001
0000
1001
0000
,
0020
0000
0000
1030
0001
1000
0100
0000
,
0020
0000
0000
0031
1000
0001
0010
0100
,
1000
0100
0010
0001
1000
0100
0010
0001
,
0001
0100
0010
1000
0001
0100
0010
1000
,
1001
0000
1000
0100
0010
0001
0100
0010
,
1001
0000
0001
0100
0010
1000
0100
0010
,
1001
0000
0001
0010
1100
0000
1000
0100
,
0001
0100
1000
0010
0200
0000
0300
0000
,
0001
0000
0001
0100
0000
0100
0010
0000
0010
1000
0000
1000
,
0100
0000
0100
0010
0000
0010
0002
0000
0000
0003
0000
0000
,
1000
0000
1000
0001
0000
0001
0100
0000
0100
0010
0000
0010
,
1000
0100
0010
0001
1000
0010
0100
0000
0100
0000
0100
0000
,
0100
0000
0001
0100
0000
0001
1000
0010
1000
0001
0000
0000
,
1000
0000
0001
1000
0000
0100
1000
0010
1000
0100
0000
0000
,
0010
0001
0010
0001
0000
0000
1000
0010
1000
0010
0000
0000
,
1000
0100
0010
0001
0100
0010
1000
0000
0000
1001
0000
0000
,
0001
0100
0001
0100
0010
1000
0010
1000
,
0100
0000
1000
0100
1000
0000
0001
0100
0002
0000
0000
0000
1003
0000
0010
0000
,
0110
0000
0000
0000
0001
1000
0001
0000
1001
0000
0000
0000
0100
0010
0100
0000
,
0010
1000
0010
0001
0010
1000
0100
0010
,
0001
1000
0001
0000
1000
0000
0100
0000
0010
0000
0001
0000
1000
0000
0010
0000
,
0100
0010
0100
0000
0010
0000
1000
0000
0001
0000
0010
0000
0100
0000
1000
0000
,
0001
1000
0001
0000
0100
0000
0000
0000
1000
0001
1000
0000
0100
0000
0000
0000
,
0001
1000
0001
0000
0010
0000
0001
0000
0100
0000
0010
0000
1000
0000
0001
0000
,
1001
0000
0000
0000
1000
0000
0001
0100
0001
0000
0010
0000
0100
0000
1000
0000
,
1001
0000
0000
0000
0001
0000
0100
0001
0100
0000
0010
0000
1000
0000
0100
0000
,
0110
0000
0000
0000
1000
0000
0010
0100
0010
0000
0100
0000
1000
0000
0100
0000
,
0001
0010
0100
1000
0011
0000
1100
0000
,
1001
0000
0000
0000
0000
1000
0001
1000
0001
0000
1000
0000
0100
0000
0010
0000
,
0011
0000
0000
0000
0000
0001
0100
0001
0100
0000
0010
0000
1000
0000
0100
0000
,
0110
0000
1000
0001
0101
0000
1100
0000
,
0001
0100
0010
1000
1001
0001
0010
0001
,
0010
0100
1000
0100
1000
0001
0100
0001
,
0100
0010
1000
0100
1000
1000
0001
0001
,
0100
0100
0010
0010
1000
0100
0010
0001
,
0100
0100
0010
0010
2002
0000
0000
0000
,
0000
0000
0000
3003
0000
0000
0100
0010
,
0100
0010
2002
0000
0000
0000
0000
0000
,
0000
3003
0000
0000
0100
1000
0100
0001
,
2002
0000
0000
0000
0000
0000
0000
3003
,
0000
0000
0010
0100
0010
0100
2002
0000
,
0000
0000
0000
0000
0000
3003
0000
0000
,
0010
0100
0001
0100
1001
0000
1100
0000
,
1001
0101
1001
1010
,
1001
0011
1100
1100
,
0101
0101
1001
1001
,
0110
0000
0000
0000
0110
0000
0000
0000
0010
0000
1000
0010
1000
0000
0001
0000
,
0100
0000
0010
1000
0010
0000
1000
0000
0001
0000
0100
0010
0100
0000
0001
0000
,
1000
0000
0100
0000
0001
0000
0100
0000
1000
0000
0001
0100
0001
0000
0010
0000
,
0100
0000
1000
0100
1000
0000
0001
0000
0100
0000
0001
0010
0001
0000
0100
0000
,
0001
0000
0010
0000
1000
0000
0010
0000
0001
0000
1000
0100
1000
0000
0001
0000
,
0100
0000
0001
0010
0001
0000
0010
0000
0100
0000
1000
0100
1000
0000
0010
0000
,
1001
0100
0010
0100
0001
1000
0001
1000
,
0010
0000
1000
0100
1000
0000
0001
0100
0001
0000
0000
0000
2002
0000
0000
0000
,
0000
0000
0000
0000
,
0000
0000
0000
0000
,
3003
0000
0000
0000
;

//---------------dance-single - ----------------
#NOTES:
     dance-single:
     :
     Medium:
     10:
     0.462,0.500,0.395,0.184,0.018:
0000
0000
0000
0000
,
0000
0000
0000
0000
,
0000
0000
0000
0000
,
0000
0000
0000
0000
,
1000
0000
0001
0000
0010
0000
0100
1000
,
0001
0000
0100
0000
0010
0000
0100
0001
,
1000
0000
0100
1000
0001
0000
1000
0100
,
0001
0100
1000
0010
0200
0000
0300
0000
,
0001
0101
0001
0001
,
1000
0000
1000
0000
0100
0010
0100
0000
,
1000
1100
1000
1000
,
0001
0000
0001
0000
0100
0010
0100
0000
,
0010
0000
0100
0010
0100
0000
0001
0000
,
1000
0000
0100
1000
0100
0000
0010
0000
,
0001
0100
0010
1000
,
1100
0101
1100
0000
,
0001
0101
0101
0101
,
0001
1000
0100
0010
,
0100
1100
1100
1100
,
0100
0010
0001
0100
,
0020
0000
0000
1030
0001
0000
0100
0000
,
0020
0000
0000
1030
0001
0000
0010
0000
,
0200
0000
0000
1300
0001
0000
0010
0000
,
0200
0000
0000
1300
0001
0000
0100
0000
,
0010
0000
0110
0000
0010
0100
0010
0000
,
1000
0000
1100
0000
1000
0100
1000
0000
,
0001
0101
0100
0101
,
0010
1000
1001
0000
,
0010
0010
1000
1000
,
0001
0100
0220
0330
,
0001
0001
0100
0100
,
1000
0010
0220
0330
,
0001
0000
0000
1000
0000
0000
0001
0000
1000
0001
0000
0000
,
1000
0000
0000
0001
0000
0000
1000
0000
0001
1000
0000
0000
,
0010
0000
0100
0001
0000
0000
0010
0000
0100
1000
0000
0000
,
1100
0101
2002
3003
,
0010
0000
0010
0000
1000
0001
1000
0001
,
0100
0010
0100
0010
0100
0000
0001
0000
,
1001
1000
1001
0001
,
0010
0000
0100
0000
1000
0100
0010
0001
,
1000
0100
1000
0100
1000
0000
0001
0000
,
0001
0100
0001
0100
0001
0000
1000
0000
,
1000
1000
1000
0000
0001
0001
0001
0000
,
0100
0001
1100
0101
,
1000
0000
0001
0000
1000
0100
0010
0000
,
0001
0000
1000
0000
0001
0100
0010
0000
,
1000
1100
0001
0101
,
1000
0001
1001
1001
,
1000
0000
0100
0000
0010
0001
0010
0001
,
0010
0000
0100
0000
1000
0010
1000
0010
,
1000
0101
0001
1100
,
0001
0000
1000
0000
0001
0100
0001
0100
,
0001
0100
0001
0000
1000
0100
1000
0100
,
1000
0100
1000
0000
0001
0001
1000
0000
,
1000
1000
0001
0000
1000
0000
0001
0000
,
1000
0001
2002
0000
,
0000
0000
0000
3003
0000
0000
0000
0000
,
0000
0220
0000
0000
,
0000
0330
0000
0000
0000
0000
0000
0000
,
2002
0000
0000
0000
0000
0000
0000
3003
,
0000
0000
0000
0220
,
0000
0000
0000
0330
,
0000
0000
1000
1100
,
1100
1000
0001
0101
,
0101
0001
1000
1010
,
1010
1000
0001
0011
,
0011
0000
0001
0000
1000
0100
0001
0000
,
1000
0100
0001
0000
1000
0100
0001
0000
,
1000
0000
0100
0000
0001
0100
1000
0000
,
0001
0100
1000
0000
0001
0100
1000
0000
,
0001
0000
1000
0000
0001
0010
1000
0000
,
1000
0100
0001
0000
0001
0010
1000
0000
,
1001
0010
0100
0010
,
1000
0100
0010
0001
0100
0000
2002
0000
,
0000
0000
0000
0000
,
0000
0000
0000
0000
,
3003
0000
0000
0000
;

//---------------dance-single - ----------------
#NOTES:
     dance-single:
     :
     Easy:
     6:
     0.303,0.433,0.237,0.105,0.000:
0000
0000
0000
0000
,
0000
0000
0000
0000
,
0000
0000
0000
0000
,
0000
0000
0000
0000
,
1000
0000
0001
0000
,
1100
0000
0101
0000
,
0001
0010
0100
1000
,
1001
1001
2002
3003
,
0001
1000
0001
0001
,
1000
0010
0100
0110
,
1000
0100
0010
0010
,
0001
0100
0010
0110
,
1000
1000
1100
0000
,
0001
0001
0101
0000
,
1000
0001
0100
0010
,
0100
0001
0010
0100
,
1000
0001
1000
0001
,
0100
0010
0100
0010
,
2000
0100
3100
0000
,
0002
0100
0103
0100
,
0110
0000
0000
0000
,
1001
0000
0000
0000
,
1001
1000
0001
0000
,
1001
0001
1000
0000
,
0001
0010
0100
1000
,
0001
0000
1000
0100
,
0010
0001
0100
0001
,
1000
1000
1001
0000
,
1000
1000
0001
0001
,
1000
0001
1000
0000
,
0001
0001
1000
1000
,
0001
1000
0001
0000
,
0010
0100
1000
0000
,
0010
0100
0001
0000
,
1100
0000
0101
0000
,
1001
1001
2002
3003
,
0100
0100
0010
0010
,
1000
0100
0010
0000
,
0001
0100
0001
0000
,
1000
0100
1000
0000
,
0101
0000
1000
0100
,
1100
0000
0001
0100
,
0001
1000
0100
0010
,
0001
1000
0010
0100
,
0001
0000
1000
1000
,
1000
0000
0100
0100
,
0100
0000
0010
0010
,
0010
0000
0001
0001
,
0001
0000
1000
0001
,
0100
0000
0001
1000
,
0100
0000
1000
0001
,
0010
0000
0100
1000
,
0001
1000
0100
1000
,
0001
1000
0100
0000
,
1000
0000
0001
0000
,
1000
0010
0200
0000
,
0000
0000
0300
0000
,
0000
0200
0000
0000
,
0000
0300
0000
0000
,
0200
0000
0000
0000
,
0300
0000
0000
0200
,
0000
0000
0000
0300
,
0000
0000
0100
0000
,
0110
0000
0010
0000
,
1010
0000
1000
0000
,
1001
0000
0001
0000
,
0011
0000
0010
0100
,
1000
0100
0010
0100
,
1000
0000
0001
0100
,
0010
0100
0001
0100
,
0010
0000
1000
0001
,
0100
0001
1000
0001
,
0100
0000
0010
0000
,
0001
1000
1001
2002
,
0000
0000
0000
0000
,
0000
0000
0000
0000
,
3003
0000
0000
0000
;

//---------------dance-single - ----------------
#NOTES:
     dance-single:
     :
     Beginner:
     2:
     0.111,0.200,0.026,0.018,0.000:
0000
0000
0000
0000
,
0000
0000
0000
0000
,
0000
0000
0000
0000
,
0000
0000
0000
0000
,
1000
0000
0001
0000
,
1000
0000
0001
0000
,
1000
0000
0001
0000
,
0100
0100
0100
0000
,
0001
0000
0000
0000
,
0001
0000
0000
0000
,
1000
0000
0000
0000
,
1000
0000
0000
0000
,
0001
0000
0001
0000
,
0001
0000
0000
0000
,
1000
0000
1000
0000
,
1000
0000
0000
0000
,
0001
0000
0000
0000
,
1000
0000
0000
0000
,
1000
0000
0000
0000
,
0001
0000
0000
0000
,
1001
0000
0000
0000
,
0000
0000
0000
0000
,
1001
0000
0000
0000
,
0000
0000
0000
0000
,
0001
0000
0001
0000
,
1000
0000
1000
0000
,
0001
0000
0000
0000
,
1000
0000
0000
0000
,
1000
0000
0000
0000
,
0001
0000
0000
0000
,
1000
0000
0000
0000
,
0001
0000
0000
0000
,
1000
0000
1000
0000
,
1000
0000
0000
0000
,
0001
0000
0001
0000
,
0100
0100
0100
0000
,
0001
0000
0000
0000
,
1000
0000
0000
0000
,
0001
0000
0000
0000
,
1000
0000
0000
0000
,
0001
0000
0001
0000
,
0001
0000
0000
0000
,
1000
0000
1000
0000
,
1000
0000
0000
0000
,
0001
0000
0000
0000
,
1000
0000
0000
0000
,
0001
0000
0000
0000
,
1000
0000
0000
0000
,
0001
0000
0001
0000
,
0001
0000
0000
0000
,
1000
0000
1000
0000
,
0000
0000
1000
0000
,
0000
0000
0001
0000
,
0000
0000
1000
0000
,
0000
0000
0001
0000
,
0000
0000
0100
0000
,
0000
0000
0000
0000
,
0000
0100
0000
0000
,
0000
0000
0000
0000
,
0100
0000
0000
0000
,
0000
0000
0000
0100
,
0000
0000
0000
0000
,
0000
0000
0100
0000
,
0000
0000
0100
0000
,
0000
0000
0100
0000
,
0000
0000
0100
0000
,
0000
0000
0001
0000
,
0000
0000
1000
0000
,
0000
0000
0001
0000
,
0000
0000
1000
0000
,
0000
0000
0001
0000
,
0001
0000
0001
0000
,
0001
0000
0000
0000
,
1000
0000
0000
2002
,
0000
0000
0000
0000
,
0000
0000
0000
0000
,
3003
0000
0000
0000
;

//---------------dance-double - ----------------
#NOTES:
     dance-double:
     :
     Hard:
     13:
     0.664,0.733,0.377,0.158,0.289:
00000000
00000000
00000000
00000000
,
00000000
00000000
00000000
00000000
,
00000000
00000000
00000000
00000000
,
00000000
00000000
00000000
00000000
,
11000000
01000000
01010000
00000000
,
00001100
00000100
00000101
00000000
,
00000011
00000110
00010100
00011000
,
01001000
01000000
00100000
10000000
01000000
00200000
00310000
00200000
,
01300000
10000000
00100000
10000000
01000000
10000000
00100000
10000000
,
01000000
00010000
00001000
00000100
00000001
00000010
00000110
00000000
,
00001001
00000001
00000100
00000010
00000100
00000001
00000100
00000010
,
00001000
00010000
01000000
00100000
10000000
01000000
01100000
00000000
,
10010000
00000000
00000000
00000000
10000000
01000000
10000000
00000000
00010000
00000000
00000000
00010000
01000000
00000000
00000000
01000000
,
00001000
00000000
00000000
00000000
00010000
00001000
00010000
00000000
00000100
00000000
00000000
00000100
00000010
00000000
00000000
00000010
,
00000001
00000000
00000000
00000001
00000100
00000000
00000000
00000100
00001000
00000000
00000000
00001000
00010000
00000000
00000000
00010000
,
01000000
00000000
00000000
01000000
10000000
00000000
00000000
10000000
00010000
00000000
01000000
00000000
00100000
00000000
10000000
00000000
,
11000000
01010000
00110000
01010000
,
00110000
01010000
00110000
01010000
,
00011000
00001100
00001010
00001100
,
00001010
00001100
00001010
00001100
,
00000012
00000000
00000000
00000103
00001000
00010000
02000000
00000000
,
23000000
00000000
00000000
30100000
00010000
00001000
00000010
00000001
,
00000001
00000010
00000100
00001000
00000001
00000010
00000100
00010000
,
00001000
00100000
01000000
10000000
00010000
00100000
01000000
10000000
,
00020000
00000000
00000000
00130000
00001000
00010000
00000100
00000010
,
00000002
00000000
00000000
00000103
00001000
00010000
00100000
10000000
,
00020000
00000000
00000000
01030000
00002000
00000000
00000000
00013000
,
00000010
00000000
00000000
00000100
00000000
00000000
00001000
00000000
00000000
00010000
00000000
00000000
00100000
00000000
00000000
00000000
00100000
00000000
10000000
00000000
00010000
00000000
10000000
00000000
,
00010000
00000000
00010000
00100000
00000000
00100000
10000000
00000000
10000000
00010000
00000000
00010000
,
01000000
00000000
01000000
00001000
00000000
00001000
00000200
00000000
00000000
00000300
00000000
00000000
,
00000010
00000000
00000010
00000001
00000000
00000001
00000100
00000000
00000100
00001000
00000000
00001000
,
00010000
00100000
01000000
00100000
01000000
00100000
01000000
00000000
00010000
00000000
10000000
00000000
,
01000000
00000000
01000000
00100000
00000000
00100000
00010000
00000000
00000000
10000000
01000000
00100000
,
00001000
00000000
00001000
00010000
00000000
00010000
00000100
00000000
00000100
00000010
00000000
00000000
,
00000001
00000100
00000001
00000100
00000000
00000000
00000010
00001000
00000010
00001000
00000000
00000000
,
00010000
01000000
00100000
10000000
01000000
00100000
00010000
00000000
00000000
20000000
00000000
00000000
,
31000000
00000000
01000000
00100000
00010000
00001000
00000100
00000010
,
00000001
00000000
00001000
00000100
00001000
00000000
00000001
00000100
00000002
00000000
00000000
00000000
00001003
00000000
00000100
00000000
,
00010000
00000000
00000000
00000000
00001000
01000000
00001000
00000000
00100000
00000000
00000000
00000000
00001000
01000000
00001000
00000000
,
00100000
00000000
00100000
01000000
10000000
00100000
01000000
00001000
,
00010000
00001000
00010000
00001000
00000100
00000001
00000100
00001000
,
00010000
00001000
00010000
00001000
00010000
01000000
10000000
01000000
,
00010000
00001000
00000100
00000000
00001000
00010000
01000000
00000000
,
00010000
00001000
00000010
00000001
00000010
00001000
00100000
01000000
,
11000000
00000000
10000000
01000000
00010000
00001000
00000100
00000001
,
00000101
00000000
00000001
00000100
00001000
00010000
01000000
10000000
,
11000000
00000000
10000000
00100000
00010000
00001000
00000010
00000001
,
00001000
00000010
00001000
00000100
00001100
00000000
00110000
00000000
,
11000000
00000000
00000000
00000000
00000000
10000000
01000000
00000000
00010000
00000000
00001000
00000000
00000100
00000000
00000001
00000000
,
00000101
00000000
00000000
00000000
00000000
00000001
00000100
00000000
00001000
00000000
00010000
00000000
01000000
00000000
10000000
00000000
,
11000000
00000000
00000000
00000000
00000000
10000000
00100000
00000000
00010000
00000000
00001000
00000000
00000010
00000000
00000001
00000000
,
00001000
00000100
00010000
00001000
00100000
00100000
00010000
00010000
,
01000000
01000000
00100000
00100000
00010000
00010000
00001000
00001000
,
00000100
00000100
00000010
00000010
00010000
00001000
01000000
00001000
,
00010000
00000010
00001000
00000100
00000010
00000001
00000100
00001000
,
00010000
01000000
10000000
00100000
02000000
00000000
00000000
00000000
,
00000000
00000000
00000000
00000000
03000000
00000000
00000100
00000010
,
00000100
00000010
00000200
00000000
00000000
00000000
00000000
00000000
,
00000000
00000000
00000300
00000000
01000000
00100000
01000000
00100000
,
02000000
00000000
00000000
00000000
,
03000000
00000000
00000010
00000100
00000010
00000100
00000020
00000000
,
00000000
00000000
00000000
00000030
,
00100000
01000000
00100000
01000000
10000000
01000000
00100000
01000000
,
11000000
00000000
00010000
01000000
00001000
00010000
00100000
00010000
,
00011000
00000000
00000100
00001000
00000010
00000100
00000001
00000010
,
00000100
00001000
00000010
00000100
00001000
00001000
00010000
00010000
,
00001000
01000000
00001000
00000000
01000000
00100000
01000000
00000000
00100000
00000000
10000000
01000000
10000000
00000000
00010000
00000000
,
01000000
00000000
00010000
00100000
00010000
00000000
01000000
00000000
00001000
00000000
00010000
00000100
00010000
00000000
00000010
00000000
,
00000100
00000000
00010000
00000000
01000000
00000000
00010000
00000000
00000100
00000000
00000010
00001000
00000010
00000000
00010000
00000000
,
00001000
00000000
01000000
00100000
01000000
00000000
00010000
00000000
00100000
00000000
01000000
10000000
01000000
00000000
00100000
00000000
,
00001000
00000000
00000010
00000000
00001000
00000000
00100000
00000000
00010000
00000000
01000000
00100000
01000000
00000000
00001000
00000000
,
00010000
00000000
00000100
00000010
00000100
00000000
00001000
00000000
00010000
00000000
00100000
01000000
00100000
00000000
00001000
00000000
,
00011000
00000000
10010000
00000000
,
00000001
00000000
00000100
00000010
00010000
00000000
00001000
01000000
00100000
00000000
00000000
00000000
20020000
00000000
00000000
00000000
,
00000000
00000000
00000000
00000000
,
00000000
00000000
00000000
00000000
,
30030000
00000000
00000000
00000000
;

//---------------dance-double - ----------------
#NOTES:
     dance-double:
     :
     Medium:
     10:
     0.458,0.600,0.149,0.219,0.053: // measure 1
00000000
00000000
00000000
00000000
,  // measure 2
00000000
00000000
00000000
00000000
,  // measure 3
00000000
00000000
00000000
00000000
,  // measure 4
00000000
00000000
00000000
00000000
,  // measure 5
00011000
00000000
01010000
00000000
,  // measure 6
11000000
10000000
10100000
00000000
,  // measure 7
00110000
00010000
00011000
00001000
,  // measure 8
00000100
00000000
00000010
00000000
00010000
00000100
00000010
00000100
,  // measure 9
00010000
00000000
00000010
00000100
00000010
00000100
00000010
00000000
,  // measure 10
00010000
00000000
00001000
00000000
00100000
01000000
10000000
00000000
,  // measure 11
00100000
00000000
01000000
00000000
00001000
00010000
00001000
00000000
,  // measure 12
00000100
00000000
00000010
00000000
00001000
00000100
00000010
00000000
,  // measure 13
00000001
00000000
00000100
00000010
00001000
00000000
00000100
00000010
,  // measure 14
00000001
00000000
00000100
00000010
00010000
00000000
00001000
01000000
,  // measure 15
00100000
00000000
10000000
01000000
00010000
00000000
00001000
00000000
,  // measure 16
00000100
00000010
00001000
00000010
00000200
00000000
00000300
00000000
,  // measure 17
00001001
00000001
00001000
00010000
,  // measure 18
10000000
00010000
00001000
00000001
,  // measure 19
00001001
00000001
00001000
00010000
,  // measure 20
10000000
00010000
00001000
00000001
,  // measure 21
00001002
00000000
00000000
00001003
00000100
00001000
00000010
00000000
,  // measure 22
00000200
00000000
00000000
00000301
00000010
00000001
00001000
00000000
,  // measure 23
00000001
00000100
00001000
00000000
00010000
00000000
00100000
00000000
,  // measure 24
10000000
01000000
00010000
00000000
00001000
00000000
00000010
00000000
,  // measure 25
00000002
00000000
00000000
00001003
00000100
00010000
00001000
00000000
,  // measure 26
00200000
00000000
00000000
00310000
01000000
00100000
10000000
00000000
,  // measure 27
02000000
00000000
00000000
03100000
00020000
00000000
00000000
00130000
,  // measure 28
01000000
00001000
00000200
00000320
,  // measure 29
00000031
00000101
00000100
00000101
,  // measure 30
00000001
00001000
00020000
00030000
,  // measure 31
10000000
11000000
01000000
11000000
,  // measure 32
10000000
00010000
00001000
00000001
,  // measure 33
00000100
00000000
00000000
00000110
00000000
00000000
00000010
00001000
00000010
00001000
00000000
00000000
,  // measure 34
00000100
00000000
00000000
00010100
00000000
00000000
00010000
00001000
00010000
00001000
00000000
00000000
,  // measure 35
01000000
00010000
01000000
00010000
00000000
00000000
10000000
01000000
10000000
01000000
00000000
00000000
,  // measure 36
00100000
00010000
10000000
00100000
01000000
00010000
10000000
00000000
00000000
02000000
00000000
00000000
,  // measure 37
03100000
00000000
00001000
00000000
00010000
00000100
00001000
00000000
,  // measure 38
00000010
00000100
00000010
00000100
00000001
00000000
00001000
00000100
,  // measure 39
00010000
00002000
01003000
00200000
,  // measure 40
10300000
00000000
10000000
01000000
00100000
00000000
00100000
01000000
,  // measure 41
10000000
00100000
00010000
00001000
,  // measure 42
00000100
00000000
00000010
00000000
00001000
00000100
00000010
00000001
,  // measure 43
00000100
00000010
00000010
00000000
00001000
00000100
00000100
00000000
,  // measure 44
00010000
00000000
00001000
00000000
01000000
00100000
10000000
01000000
,  // measure 45
00100000
00010000
00010000
00010000
,  // measure 46
01000000
00001000
00001000
00001000
,  // measure 47
00010000
00000100
00000100
00000100
,  // measure 48
00000010
00000001
00000001
00000001
,  // measure 49
00001000
00000000
00001000
00000100
00000010
00000000
00000001
00000000
,  // measure 50
00000100
00000000
00000100
00000010
00010000
00000000
00001000
00000000
,  // measure 51
01000000
00000000
01000000
00010000
00100000
00000000
01000000
00000000
,  // measure 52
10000000
00100000
10000000
00000000
00010000
01000000
00010000
00000000
,  // measure 53
01000000
00001000
01000000
00000000
00001000
00010000
00001000
00000000
,  // measure 54
00010000
00000100
00010000
00000000
00000100
00000010
00000100
00000000
,  // measure 55
00000010
00000001
00000010
00000000
00000001
00000100
00000001
00000000
,  // measure 56
00000100
00000110
00020000
00000000
,  // measure 57
00000000
00000000
00000000
00031000
,  // measure 58
00001000
00020000
00000000
00000000
,  // measure 59
00000000
00000000
00031000
00001000
,  // measure 60
00002000
00000000
00000000
00000000
,  // measure 61
00000000
00013000
00010000
00002000
,  // measure 62
00000000
00000000
00000000
00000000
,  // measure 63
00013000
00010000
01000000
10000000
,  // measure 64
00100000
00010000
00100000
01000000
,  // measure 65
00001000
00000000
00010000
00000000
00000100
00000010
00000001
00000000
,  // measure 66
00000001
00000010
00000100
00000000
00010000
00001000
00010000
00001000
,  // measure 67
00010000
00010000
00010000
00000000
00002000
00000000
01003000
00000000
,  // measure 68
00002000
00013000
00002000
00103000
,  // measure 69
00001000
00010000
00001000
00000000
00020000
00000000
00030100
00000000
,  // measure 70
00020000
00031000
00020000
00030010
,  // measure 71
00010000
00001000
00010000
00000000
01000000
00000000
10000000
00000000
,  // measure 72
00100000
00010000
00001000
00000100
,  // measure 73
00000001
00000000
00001000
00000000
00000100
00000010
00000001
00000000
,  // measure 74
00000100
00000010
00010000
00001000
01000000
00000000
02200000
00000000
,  // measure 75
00000000
00000000
00000000
00000000
,  // measure 76
00000000
00000000
00000000
00000000
,  // measure 77
03300000
00000000
00000000
00000000
;

//---------------dance-double - ----------------
#NOTES:
     dance-double:
     :
     Easy:
     5:
     0.234,0.291,0.000,0.035,0.000: // measure 1
00000000
00000000
00000000
00000000
,  // measure 2
00000000
00000000
00000000
00000000
,  // measure 3
00000000
00000000
00000000
00000000
,  // measure 4
00000000
00000000
00000000
00000000
,  // measure 5
10000000
00000000
00010000
00000000
,  // measure 6
00001000
00000000
00000001
00000000
,  // measure 7
00000001
00000100
00000010
00010000
,  // measure 8
00001000
01000000
00200000
00300000
,  // measure 9
10000000
10000000
00010000
00000000
,  // measure 10
01000000
01000000
00001000
00010000
,  // measure 11
00000100
00000100
00001000
00000000
,  // measure 12
00000001
00000001
00000100
00001000
,  // measure 13
00010000
00000000
01000000
00000000
,  // measure 14
10000000
00100000
01000000
00000000
,  // measure 15
00001000
00010000
00001000
00010000
,  // measure 16
00000100
00000100
00000100
00000000
,  // measure 17
00000000
00000010
00000001
00000010
,  // measure 18
00000000
00000001
00000100
00000001
,  // measure 19
00000000
00000100
00001000
00000100
,  // measure 20
00000000
00001000
00010000
00001000
,  // measure 21
00020000
00030000
01000000
00000000
,  // measure 22
20000000
30000000
00100000
00000000
,  // measure 23
01000000
00100000
01000000
00100000
,  // measure 24
01000000
00010000
01000000
00010000
,  // measure 25
00100000
00000000
00001000
00000000
,  // measure 26
00010000
00000100
00001000
00000000
,  // measure 27
00000010
00000100
00000001
00000010
,  // measure 28
00000100
00010000
00001000
00000000
,  // measure 29
01000000
01000000
01000000
00000000
,  // measure 30
01000000
00000000
01000000
00000000
,  // measure 31
00100000
00100000
00100000
00000000
,  // measure 32
00100000
00000000
00100000
00000000
,  // measure 33
10000000
01000000
00010000
00000000
,  // measure 34
00001000
00000000
00000100
00000000
,  // measure 35
00000001
00001000
00000001
00001000
,  // measure 36
00000010
00000010
00000020
00000030
,  // measure 37
00000100
00000000
00000100
00000000
,  // measure 38
00000100
00000010
00010000
00000000
,  // measure 39
00001000
00000000
01000000
00000000
,  // measure 40
00010000
00100000
01000000
00000000
,  // measure 41
10000000
10000000
10000000
00000000
,  // measure 42
01000000
01000000
01000000
00000000
,  // measure 43
00100000
00000000
00001000
00000000
,  // measure 44
00010000
00000000
00000100
00000010
,  // measure 45
00000001
00000000
00000100
00000000
,  // measure 46
00001000
00000000
00010000
00000000
,  // measure 47
01000000
10000000
00010000
10000000
,  // measure 48
01000000
00000000
00010000
00000000
,  // measure 49
00001000
00000000
00000010
00000001
,  // measure 50
00000100
00000000
00000001
00000000
,  // measure 51
00001000
00000000
00000100
00000000
,  // measure 52
00010000
00100000
01000000
00000000
,  // measure 53
01000000
00000000
00100000
00000000
,  // measure 54
00100000
00000000
10000000
01000000
,  // measure 55
10000000
01000000
00100000
00100000
,  // measure 56
00100000
00000000
01000000
00000000
,  // measure 57
00000000
00000000
00000000
00000000
,  // measure 58
00000000
01000000
00000000
00000000
,  // measure 59
00000000
00000000
00000000
00000000
,  // measure 60
01000000
00000000
00000000
00000000
,  // measure 61
00000000
00000000
00000000
01000000
,  // measure 62
00000000
00000000
00000000
00000000
,  // measure 63
00000000
00000000
01000000
10000000
,  // measure 64
01000000
00000000
10000000
10000000
,  // measure 65
10000000
00000000
00010000
00000000
,  // measure 66
01000000
00000000
00001000
00000000
,  // measure 67
00010000
00000000
00000100
00000010
,  // measure 68
00000100
00000000
00001000
00000001
,  // measure 69
00001000
00000000
00000001
00000100
,  // measure 70
00000001
00000000
00000100
00000010
,  // measure 71
00000100
00000000
00000010
00010000
,  // measure 72
00001000
00000000
01000000
00010000
,  // measure 73
00100000
00000000
01000000
00000000
,  // measure 74
10000000
10000000
10000000
00010000
;
