#TITLE:カラフルミニッツ;
#SUBTITLE:;
#ARTIST:Qrispy Joybox feat.mao;
#TITLETRANSLIT:Colorful Minutes;
#SUBTITLETRANSLIT:;
#ARTISTTRANSLIT:;
#GENRE:;
#CREDIT:Silverhawke;
#MENUCOLOR:;
#METERTYPE:DDR;
#BANNER:Colorful Minutes.png;
#BACKGROUND:Colorful Minutes-bg.png;
#LYRICSPATH:;
#CDTITLE:cdtitle.png;
#MUSIC:Colorful Minutes.mp3;
#OFFSET:-0.028;
#SAMPLESTART:53.702;
#SAMPLELENGTH:15.000;
#SELECTABLE:YES;
#LISTSORT:;
#BPMS:0.000=152.000;
#STOPS:;
#BGCHANGES:;
#ATTACKS:;

//---------------dance-single - ----------------
#NOTES:
     dance-single:
     :
     Hard:
     10:
     0.542,0.519,0.264,0.654,0.000:
0000
0000
0000
0000
,
0000
0000
0000
0000
,
0000
0000
0000
0000
,
0000
0000
0000
0000
,
0001
0000
0100
0000
0010
1000
0100
1000
,
0000
0010
0100
0000
0101
0000
1010
0000
,
1000
0000
0100
0000
0010
0001
0100
0002
,
0000
0000
0000
0000
1003
0100
1000
0100
,
1100
0000
0101
0000
1000
0100
0010
0001
,
0000
0001
0010
0200
0000
2300
0000
3001
,
0200
0000
0310
0000
0100
0001
0000
0101
,
0000
1100
0000
2002
0000
0000
3003
0000
,
0101
0000
1100
0000
0001
0100
0010
1000
,
0000
1000
0010
0200
0000
0302
0000
1003
,
0200
0000
0300
0020
0000
0030
0001
0200
,
0000
0300
0001
0001
1000
2000
3000
0000
,
0010
0010
0000
0100
0100
0000
0001
2002
,
0000
0000
0000
3003
,
0001
0010
0200
0000
1300
1000
0000
0020
,
0000
0230
0000
0302
0000
0013
0100
0100
,
0000
1000
0001
0010
1000
0010
0001
2000
,
0000
0000
3001
0000
0100
0010
0010
1000
,
0000
0001
0010
0100
0010
0001
0000
1000
,
0010
0100
0010
1000
0000
0001
0100
1000
,
0000
0200
0000
0310
2000
0000
3001
0020
,
0000
0130
1000
0200
0010
0300
0110
0000
,
2001
0000
0010
0000
3100
0010
0001
0200
,
0000
0310
1000
0000
0001
0100
0001
0010
,
0200
0000
1300
0002
0000
0103
0020
0000
,
1000
0001
1030
1100
,
0200
0000
0310
0001
0000
0100
0010
0100
,
0002
0000
0013
0100
0000
1000
0100
0010
,
0020
0000
0031
0200
0000
0300
0010
1002
,
0000
0000
1000
0000
1003
0100
0001
0010
,
1000
0000
1200
0000
0310
0001
0100
1000
,
0000
1000
0100
0002
0000
0023
0000
0130
,
1000
0000
1100
0000
0100
0010
0100
0020
,
0000
0032
0000
2003
0010
3000
0110
0000
,
0001
0000
0201
0000
0310
1000
0100
0001
,
0000
0001
0100
2000
0000
3020
0000
0130
,
0002
0000
0003
0020
0000
0030
0100
0200
,
0000
0300
1000
0010
0100
0002
0003
0000
,
1000
1000
0100
0010
0001
0001
0100
0010
,
0000
1010
0000
0101
0000
1100
0000
0011
,
0000
0001
0100
1000
0100
0010
0000
0002
,
0000
0203
0000
2300
0001
3000
1001
0000
,
0001
0100
1000
0200
0000
0301
0010
2000
,
0000
3001
0100
2000
0000
3020
0000
0030
,
0100
0000
0001
0020
0000
0030
0100
2000
,
0001
3000
1001
0000
2000
0000
3010
0100
,
0001
0001
0000
0010
0010
0000
0100
0100
,
0000
1000
0020
0000
0230
0000
0301
0010
,
0100
0100
0000
1000
1000
0000
0010
0020
,
0000
0030
0100
0000
0001
1000
1001
0000
,
1000
1000
0000
0010
0010
0000
0100
0100
,
0000
0001
0020
0000
0230
0000
1300
0010
,
0100
0100
0000
0001
0001
0000
0010
0200
,
0000
0000
0000
0000
0000
0000
0000
0300
;

//---------------dance-single - ----------------
#NOTES:
     dance-single:
     :
     Medium:
     8:
     0.404,0.427,0.105,0.306,0.000:
0000
0000
0000
0000
,
0000
0000
0000
0000
,
0000
0000
0000
0000
,
0000
0000
0000
0000
,
1000
0000
0002
0000
0103
0000
0010
1000
,
0000
1000
0010
0000
0100
0000
0001
0000
,
0010
0000
0200
0000
1300
0000
0010
0200
,
0000
0301
1000
1001
,
0002
0000
0103
0000
0010
0000
1000
0100
,
0000
0100
0010
0000
0001
0000
0100
0000
,
0020
0000
1030
0000
0100
0000
0001
0100
,
0000
1000
0000
0002
0000
0000
1003
0000
,
2000
0000
3100
0000
0010
0000
0001
0100
,
0000
0100
0010
0000
1000
0000
0100
0000
,
0020
0000
0031
0200
0000
0300
1000
0200
,
0000
0300
0010
1000
0000
0001
0000
0000
,
1000
0001
0000
0001
0010
0000
0010
0200
,
0000
0000
0300
1001
,
1000
0000
0100
0000
0010
0010
0000
0001
,
0000
0100
0000
0001
0000
1000
0100
0000
,
1000
0000
0010
0000
0100
0001
1000
0002
,
0000
0000
0013
0010
,
0001
0000
0100
0000
0010
0010
0000
1000
,
0000
0100
0000
1000
0000
0001
0100
0000
,
0001
0000
0010
0000
0100
0000
1000
0001
,
0000
1000
0200
0000
0010
0000
0310
0000
,
0001
0101
0100
0010
,
1000
0000
0100
0000
0010
0100
1000
0000
,
0010
0000
0100
0001
0000
0100
0001
0000
,
0010
0000
0100
0000
1000
0001
0001
0000
,
0010
0000
0100
1000
0000
1000
0100
0000
,
0010
0000
0001
0100
0000
0100
0001
0000
,
1000
0000
0100
0020
0000
0030
0001
0020
,
0000
0030
0110
1001
,
0002
0000
0103
0000
0001
0000
0010
0100
,
0000
0100
0010
0000
0001
0000
0100
0000
,
0010
0000
1000
0000
0001
0100
0000
0010
,
0000
0100
0000
0002
0000
0000
0003
0000
,
2000
0000
3100
0000
1000
0000
0010
0100
,
0000
0100
0010
0000
1000
0000
0100
0000
,
0010
0000
0000
0001
0000
0000
0100
0010
,
0000
0000
1000
0001
0000
1000
0000
0000
,
0001
0001
0010
0000
0100
1000
0000
0010
,
0000
0100
0000
0001
0000
1000
0000
1001
,
0000
0001
0010
0000
0100
0010
0000
0001
,
0000
1000
0000
2002
0000
0000
3003
0000
,
1000
0010
0100
0010
0000
0010
1000
0000
,
0001
0000
0010
0100
0000
2000
0000
3000
,
0001
0000
0000
0100
0000
0000
0010
1000
,
0000
0100
0010
1001
,
1000
0100
0000
0100
0010
0000
0010
0001
,
0000
0001
0200
0000
0320
0000
2030
0000
,
3001
0010
0000
0010
0100
0000
0100
2000
,
0000
3000
0000
0000
1001
0000
1001
0000
,
0001
0100
0000
0100
0010
0000
0010
1000
,
0000
1000
0200
0000
0320
0000
0032
0000
,
1003
0010
0000
0010
0100
0000
0100
0002
,
0000
0000
0000
0000
0000
0000
0000
0003
;

//---------------dance-single - ----------------
#NOTES:
     dance-single:
     :
     Easy:
     6:
     0.329,0.336,0.095,0.105,0.000:
0000
0000
0000
0000
,
0000
0000
0000
0000
,
0000
0000
0000
0000
,
0000
0000
0000
0000
,
1000
0100
0020
0030
,
0001
0100
0001
0000
1000
0000
0000
0000
,
0001
0000
0010
0000
0100
0000
1000
0001
,
0000
0000
0110
0110
,
1000
0100
0010
0001
,
0010
0100
1000
0001
,
1000
0000
1000
0000
0010
0100
0000
0000
,
0001
1000
1001
0000
,
0001
0100
0010
1000
,
0010
0100
0001
1000
,
0100
0000
0000
0010
0000
0000
0002
0000
,
0000
1003
1000
1000
,
0001
0000
0000
1000
0000
0000
2002
0000
,
0000
0000
3003
0100
,
0001
0010
0100
1000
,
0100
0000
0010
0000
0001
0100
0001
0000
,
1000
0000
0010
0000
0100
0000
0001
1000
,
0000
0000
0100
0100
,
0010
0001
0100
0001
,
0010
0000
0100
0000
1000
0010
1000
0000
,
0010
0000
0100
0000
0001
0000
1000
0100
,
0000
0010
1001
1001
,
1000
1000
0100
0010
,
0001
0001
0100
0010
,
1000
0001
0010
0200
,
0000
0300
1000
1000
,
0001
0100
0010
0010
,
1000
0100
0010
0010
,
0001
0100
1000
0100
,
0001
1000
2002
3003
,
0001
0100
0001
0010
,
0100
0000
1000
0000
0001
1000
0001
0000
,
1000
0000
0100
0000
0010
0001
0000
0000
,
1000
0001
1001
0000
,
1000
0100
1000
0010
,
0100
0001
0010
0100
,
1000
0000
0000
0001
0000
0000
1001
0000
,
0000
0100
0100
0100
,
0010
1000
0100
1000
,
0010
0100
0001
0010
,
0100
1000
0001
1000
,
0010
0100
0010
0000
0200
0000
0300
0000
,
0001
0010
0100
0010
,
0001
0100
0010
0100
,
0001
0000
0000
1000
0000
0000
0001
1000
,
0000
0010
0100
0100
,
0001
0000
0000
0010
0000
0000
0100
0000
,
0000
1000
0010
0000
1000
0000
0001
0000
,
1000
0000
0000
0010
0000
0000
0200
0000
,
0000
0301
1000
0001
,
1000
1000
0000
0001
0001
0000
1000
1000
,
0000
0001
0001
0000
0100
0000
0100
0000
,
0010
0010
0000
0100
0100
0000
0010
0020
,
0000
0000
0000
0000
0000
0000
0000
0030
;

//---------------dance-double - ----------------
#NOTES:
     dance-double:
     :
     Hard:
     10:
     0.472,0.480,0.148,0.264,0.000:
00000000
00000000
00000000
00000000
,
00000000
00000000
00000000
00000000
,
00000000
00000000
00000000
00000000
,
00000000
00000000
00000000
00000000
,
00010000
00000100
00010000
00000000
00000010
00000000
00000100
00000001
,
00000000
00000001
00001000
00000000
00010000
00000000
10000000
00000000
,
00100000
01000000
00100000
00000000
10000000
00000000
01000000
00020000
,
00000000
00000000
00000000
00000000
00030100
00000010
00000100
00000010
,
00000001
00000000
00001100
00000000
00000001
00000100
00001000
00010000
,
00000000
00010000
01000000
10000000
00000000
10010000
00000000
00010000
,
01000000
00000000
01100000
00000000
00100000
00010000
00000000
00001000
,
00000000
00000100
00000000
00000020
00010000
00000000
00010030
00000000
,
00001000
00000000
01001000
00000000
01000000
00010000
00100000
01000000
,
00000000
01000000
00010000
00001000
00000000
00001000
00000100
00000010
,
00002000
00000000
00000000
00003200
00000000
00000000
00010300
00001000
,
00000000
00000000
01000000
00100000
10000000
00010000
10000000
00000000
,
00100000
00100000
00000000
01000000
01000000
00000000
00001000
00022000
,
00000000
00000000
00000000
00033000
,
00001000
00000100
00000010
00000000
00010000
00001000
00000000
00010000
,
00000000
01000000
00000000
10000000
00000000
00010000
01000000
00010000
,
00000000
10000000
01000000
00100000
00001000
00010000
00000100
00000020
,
00000000
00000000
00000031
00000000
00000100
00000010
00010000
00000000
,
00001000
00000000
00100000
00000000
01000000
10000000
01000000
00000000
,
00100000
00001000
00010000
00001000
00000000
00000100
00000010
00001000
,
00000000
00000001
00000000
00000010
00000100
00000000
00010000
00001000
,
00000000
01000000
00100000
01000000
00010000
00000000
10010000
00000000
,
20000000
00000000
32000000
00000000
03020000
00000000
00031000
00010000
,
00000000
01000000
10000000
00000000
01000000
00010000
00001000
00000100
,
00000020
00000000
00010030
00000200
00000000
00000310
00000002
00000000
,
00001003
00000000
00001010
00000000
00000010
00000100
00000010
00000100
,
00000001
00000000
00000010
00000100
00000000
00010000
00001000
00010000
,
01000000
00000000
10000000
00100000
00000000
01000000
00001000
00010000
,
00200000
00000000
01300000
00020000
00000000
00000000
10030000
02000000
,
00000000
03100000
10010000
10010000
,
10000000
00000000
01010000
00000000
10000000
01000000
00010000
00001000
,
00000000
00001000
00000100
00000001
00000000
00001001
00000000
00001000
,
00000100
00000000
00000110
00000000
00000010
00001000
00000000
00010000
,
00000000
01000000
00000000
00200000
00001000
00000000
00301000
00000000
,
00010000
00000000
00010100
00000000
00000100
00001000
00000010
00000100
,
00000000
00000100
00001000
00010000
00000000
00010000
01000000
00100000
,
00020000
00000000
00000000
02030000
00000000
00000000
03001000
00010000
,
00000000
00000000
00000100
00000010
00000001
00001000
00000001
00000000
,
00000010
00000100
00010000
00001000
01000000
00100000
10000000
01000000
,
00000000
00100000
00000000
00001000
00000000
00020000
00000000
00030010
,
00000000
00000100
00000001
00000010
00000100
00010000
00000000
00002000
,
00000000
02003000
00000000
03200000
10000000
00000000
10300000
00000000
,
10000000
01000000
00010000
00001000
00000000
00010000
01000000
00100000
,
00000000
00001000
00000100
00000010
00000000
00002000
00000000
00000000
,
00003001
00000000
00000000
00000020
00000000
00000000
00000130
00010000
,
00001000
00000000
00011000
00000000
00010000
00000000
01000000
10000000
,
00010000
00010000
00000000
01000000
01000000
00000000
00100000
00100000
,
00000000
10000000
00010000
00000000
00001000
00000000
00000001
00000000
,
00000100
00000100
00000000
00000010
00000010
00000000
00001000
00001000
,
00000000
00000000
00000000
00000000
00000100
00010000
00000100
00010000
,
00000010
00000010
00000000
00000100
00000100
00000000
00000001
00000001
,
00000000
00000100
00001000
00000000
01000000
00000000
00010000
00100000
,
01000000
10000000
01000000
00000000
00010000
00001000
00000100
00000001
;

//---------------dance-double - ----------------
#NOTES:
     dance-double:
     :
     Medium:
     8:
     0.357,0.360,0.084,0.032,0.000:
00000000
00000000
00000000
00000000
,
00000000
00000000
00000000
00000000
,
00000000
00000000
00000000
00000000
,
00000000
00000000
00000000
00000000
,
10000000
00010000
01000000
00001000
,
00010000
00000100
00001000
00000010
,
00000100
00000001
00000010
00000100
,
00010000
00000000
00001000
00001000
,
01000000
00100000
10000000
00010000
,
00100000
01000000
00010000
00001000
,
00000100
00000000
00000010
00000000
00001000
00000001
00000000
00000100
,
00000000
00000010
00000000
00020000
00000000
00000000
00030000
00000000
,
00001000
01000000
00100000
10000000
,
01000000
00010000
00001000
00000100
,
00000010
00000000
00000000
00001000
00000000
00000000
00000100
00010000
,
00000000
00001000
00001000
00001000
,
01000000
00010000
00000000
00010000
01000000
00000000
01000000
00200000
,
00000000
00000000
00000000
00300000
,
10000000
01000000
00010000
00001000
,
00010000
00000100
00000010
00000001
,
00000100
00000000
00001000
00000000
00010000
00000000
00100000
20000000
,
00000000
30000000
00010000
10010000
,
10000000
01000000
00100000
00001000
,
00010000
00000100
00000010
00000001
,
00000100
00000010
00001000
00000100
,
00010000
00000000
00001000
00010000
00001000
00000000
00011000
00000000
,
00010000
01000000
10000000
01000000
,
00010000
00001000
00000100
00000001
,
00000100
00001000
00010000
00100000
,
10000000
00000000
00010000
00000000
00100000
01000000
10000000
00000000
,
00010000
00000000
01000000
00000000
00001000
00000000
00010000
00000100
,
00000010
00000001
00000100
00000010
,
00010000
00000000
00001000
01000000
00000000
00000000
00100000
10000000
,
01000000
00100000
01100000
01100000
,
10000000
00000000
01000000
00000000
00100000
00000000
00001000
00010000
,
00000000
00010000
00000100
00010000
00000000
00000100
00000000
00000010
,
00000001
00000000
00000100
00000000
00000010
00001000
00000000
00000100
,
00000000
00010000
00000000
00001000
01000000
00000000
01010000
00000000
,
00010000
00000000
00100000
00000000
01000000
10000000
00000000
01000000
,
00000000
00100000
00001000
00010000
00000000
00001000
00000000
00010000
,
00000100
00000000
00000000
00001000
00000000
00000000
00000010
00000100
,
00000000
00000000
00000001
00001000
00000001
00001000
00000000
00000000
,
00000100
00000000
00010000
00000000
00001000
01000000
00001000
00000000
,
00100000
01000000
10000000
00010000
,
01000000
00000000
00001000
00000000
00010000
00000100
00000010
00000000
,
00000001
00000100
00001000
00011000
,
00010000
00000000
01000000
10000000
00000000
10000000
01000000
00100000
,
00000000
00100000
01000000
00010000
00000000
00001000
00000000
00000000
,
00000100
00000000
00000010
00001000
00000000
00000000
00000001
00000010
,
00000100
00010000
01000000
10000000
,
00010000
01000000
00000000
01000000
00100000
00000000
00100000
10000000
,
00000000
10000000
01000000
00000000
00100000
00000000
00001000
00000000
,
00010000
00000100
00000000
00000100
00001000
00000000
00001000
00000001
,
00000000
00000000
00001001
00001001
,
00000001
00000100
00000000
00000100
00000010
00000000
00000010
00010000
,
00000000
00010000
00001000
00000000
01000000
00000000
00010000
00000000
,
00100000
01000000
00000000
01000000
10000000
00000000
10000000
00010000
;

//---------------dance-double - ----------------
#NOTES:
     dance-double:
     :
     Easy:
     4:
     0.185,0.180,0.000,0.011,0.000:
00000000
00000000
00000000
00000000
,
00000000
00000000
00000000
00000000
,
00000000
00000000
00000000
00000000
,
00000000
00000000
00000000
00000000
,
00001000
00000000
00010000
00000000
,
00001000
00000100
00000010
00000000
,
00001000
00000000
00000001
00000000
,
00000010
00000000
00000000
00000000
,
00000100
00010000
00000100
00000000
,
00010000
00000000
00001000
00000000
,
01000000
00010000
01000000
00000000
,
00100000
00000000
10000000
00000000
,
00010000
00100000
01000000
00000000
,
00010000
00000000
00001000
00000000
,
00000100
00000000
00000010
00000000
,
00001000
00000001
00001000
00000000
,
00010000
00000000
10000000
00000000
,
02000000
00000000
00000000
03000000
,
10000000
00000000
01000000
00000000
,
00100000
00001000
00010000
00000000
,
00000010
00000000
00001000
00000000
,
00000001
00000000
00000000
00000000
,
00000010
00000000
00000100
00000000
,
00010000
00001000
01000000
00000000
,
00100000
00000000
10000000
00000000
,
01000000
00010000
00001000
00000000
,
00000100
00000000
00000010
00000000
,
00000100
00000000
00001000
00000000
,
00010000
00000000
01000000
00000000
,
00100000
00000000
01000000
00000000
,
10000000
00000000
00010000
00000000
,
00001000
00000000
00000001
00000000
,
00000100
00000000
00000010
00000000
,
00001000
00000100
00010000
00000000
,
00001000
01000000
00010000
00000000
,
00100000
00000000
01000000
00000000
,
00010000
00000000
00001000
00000000
,
00000100
00000010
00001000
00000000
,
00000001
00000010
00000100
00000000
,
00010000
00000000
01000000
00000000
,
10000000
00000000
00010000
00000000
,
01000000
00001000
00010000
00000000
,
00000100
00000000
00001000
00000000
,
00000010
00000100
00000001
00000000
,
00001000
00000000
00000100
00000000
,
00010000
00001000
01000000
00000000
,
00100000
00000000
10000000
00000000
,
01000000
00100000
00001000
00000000
,
00010000
00000000
00000100
00000000
,
00000010
00000000
00000001
00000001
,
00000100
00000000
00000010
00000000
,
00010000
00001000
01000000
00000000
,
00100000
00000000
10000000
00000000
,
01000000
00000000
00000000
00000000
,
00100000
00000000
00001000
00000000
,
00010000
00000100
00001000
00000000
,
00000001
00000000
00000000
00000000
00000100
00000000
00000000
00000010
;

//---------------dance-single - ----------------
#NOTES:
     dance-single:
     :
     Beginner:
     1:
     0.110,0.150,0.000,0.000,0.000: // measure 1
0000
0000
0000
0000
,  // measure 2
0000
0000
0000
0000
,  // measure 3
0000
0000
0000
0000
,  // measure 4
0000
0000
0000
0000
,  // measure 5
0100
0000
0100
0000
,  // measure 6
0010
0000
0010
0000
,  // measure 7
0001
0000
0001
0000
,  // measure 8
1000
0000
0000
0000
,  // measure 9
0001
0000
0001
0000
,  // measure 10
0001
0000
0000
0000
,  // measure 11
1000
0000
1000
0000
,  // measure 12
1000
0000
0000
0000
,  // measure 13
0010
0000
0010
0000
,  // measure 14
0010
0000
0000
0000
,  // measure 15
0100
0000
0000
0000
,  // measure 16
0100
0000
0000
0000
,  // measure 17
0001
0000
0000
0001
,  // measure 18
0000
0000
0000
0000
,  // measure 19
1000
0000
0000
0000
,  // measure 20
0001
0000
0000
0000
,  // measure 21
0100
0000
0000
0000
,  // measure 22
0010
0000
0000
0000
,  // measure 23
0001
0000
0000
0000
,  // measure 24
0010
0000
0000
0000
,  // measure 25
0100
0000
0000
0000
,  // measure 26
1000
0000
0000
0000
,  // measure 27
0001
0000
0000
0000
,  // measure 28
0000
0000
0000
0000
,  // measure 29
1000
0000
1000
0000
,  // measure 30
1000
0000
0000
0000
,  // measure 31
0010
0000
0000
0000
,  // measure 32
0100
0000
0000
0000
,  // measure 33
0001
0000
0000
0000
,  // measure 34
1000
0000
0000
0000
,  // measure 35
0001
0000
0001
0000
,  // measure 36
0001
0000
0000
0000
,  // measure 37
1000
0000
1000
0000
,  // measure 38
1000
0000
0000
0000
,  // measure 39
0010
0000
0010
0000
,  // measure 40
0010
0000
0000
0000
,  // measure 41
0100
0000
0100
0000
,  // measure 42
0100
0000
0000
0000
,  // measure 43
0001
0000
0001
0000
,  // measure 44
0001
0000
0000
0000
,  // measure 45
1000
0000
1000
0000
,  // measure 46
1000
0000
0000
0000
,  // measure 47
0010
0000
0010
0000
,  // measure 48
0010
0000
0000
0000
,  // measure 49
0100
0000
0100
0000
,  // measure 50
0100
0000
0100
0000
,  // measure 51
0100
0000
0000
0000
,  // measure 52
0001
0000
0001
0000
,  // measure 53
0001
0000
0000
0000
,  // measure 54
1000
0000
1000
0000
,  // measure 55
1000
0000
0000
0000
,  // measure 56
0010
0000
0010
0000
,  // measure 57
0010
0000
0010
0000
,  // measure 58
0010
0000
0000
0000
;
