#TITLE:Chain of pain;
#SUBTITLE:;
#ARTIST:kors k VS 猫叉Master+;
#TITLETRANSLIT:;
#SUBTITLETRANSLIT:;
#ARTISTTRANSLIT:kors k VS Nekomata Master+;
#GENRE:;
#CREDIT:Silverhawke VS Pandemonium X;
#MENUCOLOR:;
#METERTYPE:DDR;
#BANNER:Chain of pain.png;
#BACKGROUND:Chain of pain-bg.png;
#LYRICSPATH:;
#CDTITLE:cdtitle.png;
#MUSIC:Chain of pain.mp3;
#OFFSET:-0.028;
#SAMPLESTART:39.220;
#SAMPLELENGTH:15.000;
#SELECTABLE:YES;
#LISTSORT:;
#DISPLAYBPM:153.000;
#BPMS:0.000=153.000,160.000=19.000,160.188=50.000,160.250=100.000,160.500=150.000,160.750=240.000,161.000=306.000,162.000=459.000,163.000=153.000,258.500=459.000,260.000=76.500,260.750=153.000,261.000=306.000,261.500=459.000,262.500=76.500,263.000=153.000;
#STOPS:162.000=0.065
,162.250=0.065
,162.500=0.065
,162.750=0.066
,258.500=0.044
,258.667=0.044
,258.833=0.044
,259.000=0.043
,259.167=0.044
,259.333=0.044
,259.500=0.044
,259.667=0.043
,259.833=0.043
,261.500=0.065
,261.750=0.065
,262.000=0.065
,262.250=0.066
;
#BGCHANGES:0.000=Chain of pain.avi=1.000=1=0=0,
99999=-nosongbg-=1.000=0=0=0 // don't automatically add -songbackground-
;
#ATTACKS:;

//---------------dance-single - ----------------
#NOTES:
     dance-single:
     :
     Hard:
     13:
     0.537,0.631,0.135,0.143,0.362:
0000
0000
0000
0000
,
0000
0000
0000
0000
,
0000
0000
0000
0000
,
0000
0000
0000
0000
,
0000
0000
0000
0000
,
0000
0000
0000
0000
,
0000
0000
0000
0000
,
0000
0000
0000
0000
,
0000
0000
0000
0000
,
0000
0001
0000
0100
0000
0010
0000
0010
,
0000
1000
0000
0100
0000
0010
0000
0010
,
0000
0001
0000
0100
0000
0010
1000
0010
,
0000
1000
0000
0100
0000
0010
0001
0010
,
0000
0001
0100
0010
0000
1000
0100
0010
,
0000
0001
0100
1000
0000
0001
0010
1000
,
0001
0010
1000
0010
0100
0001
0100
1000
,
0010
0000
1000
0000
0001
1000
0010
0000
0010
0100
0002
0000
0000
0000
1003
0000
,
1001
0000
0001
0000
0000
0010
0001
0000
1000
0000
0010
0000
0000
1000
0010
0000
,
0100
0000
0001
0000
0000
0100
0001
0000
1000
0000
0100
0000
0000
1000
0100
0000
,
0010
0000
0001
0000
0000
0100
0001
0000
1000
0000
0010
0000
0000
0100
0010
0000
,
0100
0000
0001
0000
0000
0010
0001
0000
1000
0000
0100
0000
0000
0010
0100
0000
,
1100
0000
1000
0000
0000
0001
0100
0000
0001
0000
0010
0000
0000
0100
0010
0000
,
0001
0000
0100
0000
0000
0010
0100
0000
0010
0000
1000
0000
0000
0100
1000
0000
,
0100
0000
0010
0000
0000
0001
0010
0000
0001
0000
0010
0000
0100
0000
0000
0000
,
1001
0000
0001
0100
0001
0000
0010
0100
2000
0000
3100
0000
0020
0000
0000
0000
,
0031
0000
0100
0000
0010
0000
0000
0010
0100
0000
0000
0000
1010
0000
0000
0000
,
1000
0000
0100
0000
0001
0000
0100
0010
0100
0000
0000
0000
1000
0000
0000
1000
,
0001
0000
0100
0010
0100
0000
1001
0000
,
0001
0010
0100
1000
0010
0100
2000
0000
,
3100
0000
0001
0000
0100
0000
0000
0001
0010
0000
0100
0000
1000
0000
0000
0000
,
0010
0000
0100
0000
0001
0000
0000
1000
0001
0000
0000
0000
0010
0000
0100
1000
,
0100
0000
0000
0000
0000
0000
0000
0000
0010
0000
0000
0000
0001
0000
0100
0000
0001
0000
0000
0000
0000
0000
0000
0000
0110
0000
0000
0000
0000
0000
0000
0001
,
2000
0100
3001
1100
,
0011
0000
0001
0000
0100
0000
0010
1000
0020
0000
0000
0000
0130
0000
0000
0100
,
0001
0000
0010
0000
0100
0000
1000
0001
2000
0000
0000
0000
3001
0000
0010
0100
,
0020
0000
0000
0000
0031
0000
0100
0000
2000
0000
0000
0000
3100
0000
0000
0100
,
0001
0000
1000
0000
0100
0000
0001
0000
0100
0000
0000
1000
0001
0000
0100
0000
,
0210
0000
0310
1000
0100
0010
0001
0100
,
0110
0001
1000
0100
0010
0001
0100
0010
,
1000
0000
1000
0000
0100
0000
0100
0000
0010
0001
0010
0000
0001
0100
0001
0000
,
0220
0000
0000
0000
0000
0330
1001
0000
,
0000
0000
0000
0000
0000
1000
0000
0000
,
0000
0000
0000
0000
0010
1000
0000
0000
,
0000
0000
0000
0000
0100
0010
0000
0100
,
1000
0000
0010
0000
0000
0000
0100
0001
0100
0000
0000
0000
0010
0000
0000
0000
,
0000
0000
0000
0000
0000
0100
0000
0000
,
0000
0000
0000
0000
0001
0010
0000
0000
,
0000
0000
0000
0000
0100
1000
0000
0001
,
1000
0000
0010
0000
0000
0000
0100
0001
0100
0000
0000
0000
1010
0000
0000
0000
,
1000
0000
0010
0100
0010
1000
0000
0000
,
0100
0000
0010
0001
0010
0100
0000
0000
,
0010
0000
0001
0000
1000
0100
0000
0010
,
0001
0000
0100
0000
0000
0000
0010
1000
0001
0000
0000
0000
0100
0000
0010
0000
,
1000
0010
0100
0001
1000
0010
0100
0010
,
1000
0100
0010
0001
1000
0001
0100
0010
,
1000
0010
1000
0100
0010
0001
0010
0100
,
0010
0100
0010
1000
0010
0001
1002
0000
,
0103
0000
2001
0000
3100
0000
1001
0001
,
0010
0100
0000
0010
0000
0001
0000
1000
0000
0000
0010
1000
0000
0000
0010
0000
,
1000
0000
1000
0000
0010
0000
0100
0000
0001
0010
0000
0001
0000
0000
1000
0000
,
0001
0100
0000
0001
0000
0000
1000
0000
0010
0100
0010
1000
0000
0001
0000
0010
,
0100
0000
0010
0001
0000
0001
0100
0000
0100
0010
0000
0010
0000
0000
0100
0000
,
0010
1000
0000
0001
0000
0010
0000
0100
0000
0000
0100
0010
0000
0000
0010
0000
,
0001
0000
0100
0000
0010
1000
0000
1000
0010
1000
0010
0000
1000
0000
0001
0000
,
0010
0100
0000
0010
0000
0100
1000
0000
0010
0200
0010
0000
0000
0000
0000
0000
,
0000
0000
0000
0000
0000
0000
0000
0000
0000
0000
0300
0000
0001
1000
0000
0010
,
0000
1000
0000
0001
0000
0000
0010
0100
0000
0000
0100
0010
0001
1000
0001
1000
,
0000
1000
0000
0010
1000
0000
0001
0010
0000
0000
0100
0000
1000
0010
0000
1000
,
0000
0001
0010
0000
0100
1000
0000
0001
0000
0001
0000
0001
1000
0000
0001
0100
,
0000
0010
1000
0000
0010
0100
0000
0001
1000
0000
0100
0000
0001
0000
0100
0000
,
1000
0100
0001
0100
1000
0010
0001
0010
,
1000
0000
0010
0000
0001
0000
0010
0000
0100
0001
0100
0000
0010
0000
1000
0000
,
0100
1000
0100
0000
0010
0000
0001
0000
0100
0000
0001
0000
1000
0001
0100
0000
,
0100
0010
2000
0000
0000
0000
3001
0000
2002
0000
0000
0000
0000
0000
0000
0000
,
0000
0000
0000
0000
,
0000
0000
3003
0000
;

//---------------dance-single - ----------------
#NOTES:
     dance-single:
     :
     Medium:
     10:
     0.402,0.481,0.167,0.072,0.000:
0000
0000
0000
0000
,
0000
0000
0000
0000
,
0000
0000
0000
0000
,
0000
0000
0000
0000
,
0000
0000
0000
0000
,
0000
0000
0000
0000
,
0000
0000
0000
0000
,
0000
0000
0000
0000
,
0000
0000
0000
0000
,
0000
1000
0000
0100
0000
0010
0000
0010
,
0000
0001
0000
0100
0000
0010
0100
0010
,
0000
1000
0000
0100
0000
1000
0000
1000
,
0000
0001
0000
0100
0000
0010
0100
0010
,
0000
1000
0000
0001
0000
0010
0000
0100
,
0000
0010
0000
0001
0000
0100
0010
0100
,
0001
1000
0100
0000
0010
0100
1000
0000
,
0010
0100
0110
0010
1000
0200
0000
0310
,
0001
0100
0010
0000
0100
0001
0010
0000
,
0100
1000
0010
0000
0100
0010
1000
0000
,
0001
1000
0100
0000
0001
0100
1000
0000
,
0010
0100
1000
0000
0100
0010
1000
0000
,
1001
0001
0100
0000
0010
0100
0001
0000
,
0010
0100
0001
0000
0100
0010
0001
0000
,
1000
0010
0100
0000
0010
0000
0110
0000
,
1000
0100
0001
0100
0010
0110
1002
0000
,
0103
0000
0010
0000
1000
0100
0010
0000
,
0100
1000
0010
0100
0001
0000
1001
0000
,
1000
0000
0010
0100
1000
0000
0110
0000
,
0100
0001
0010
0100
1000
0000
1001
0001
,
0100
0000
0010
0100
0001
0000
0110
0000
,
0100
1000
0010
0100
0001
0000
1000
0100
,
0010
0000
0001
0100
1000
0000
0100
0000
,
0120
1000
0130
0001
,
0010
0100
0010
1000
0010
0000
0001
0100
,
0010
0000
1000
0100
0010
0000
0001
0000
,
0100
1000
0100
0010
0100
0000
0001
0010
,
0100
0000
1000
0000
0001
1000
1001
0000
,
0110
0000
1001
0001
1000
0100
1000
0000
,
0001
0010
0001
0000
1000
0010
1000
0000
,
0001
0100
1000
0100
0001
0010
1000
0010
,
1001
0000
0000
1000
,
0000
0000
0000
0000
0000
0001
0000
0000
,
0000
0000
0000
0000
0100
0001
0000
0000
,
0000
0000
0000
0000
1000
0100
0000
0010
,
0001
0010
0000
0001
0100
0000
0010
0000
,
0000
0000
0000
0000
0000
0100
0000
0000
,
0000
0000
0000
0000
0001
1000
0000
0000
,
0000
0000
0000
0000
0100
0010
0000
0100
,
1000
0010
0000
0100
0010
0000
1010
0000
,
0000
0000
0010
0000
0000
0100
0000
0000
,
0001
0000
1000
0000
0000
1000
0000
0000
,
0100
0000
1000
0000
0010
0100
0000
0010
,
1000
0001
0000
0010
0100
0000
0010
0000
,
0001
0010
0100
0010
,
0001
1000
0100
1000
,
0010
0001
0010
0100
,
0001
1000
0100
0110
,
0110
0000
1001
0000
1001
0000
0110
0100
,
0010
0000
0010
1000
0010
0000
0100
0010
,
0100
0000
0001
0100
0001
0000
1000
0100
,
0010
0000
0100
1000
0010
0000
0100
0010
,
1000
0000
0010
0100
0001
1000
0001
0100
,
0001
0000
0100
0010
0100
0000
0010
1000
,
0010
0000
1000
0100
0010
0000
0100
1000
,
0010
0000
0100
0010
1000
0002
0000
0000
,
0000
0000
0000
0000
0000
0003
1100
0000
,
0100
0010
0001
0000
0010
0100
1000
0000
,
0100
1000
0010
0000
0100
0010
1000
0000
,
1000
0010
0100
0000
0100
1000
0100
0000
,
0100
0010
1000
0000
0010
0100
0001
0000
,
0100
0010
1000
0000
1000
0100
0001
0000
,
0001
0100
1000
0000
1000
0010
0100
0000
,
0010
1000
0001
0000
2000
0000
3200
0000
,
0320
0032
2000
0000
,
0000
0000
0000
0000
,
0000
0000
3003
0000
;

//---------------dance-single - ----------------
#NOTES:
     dance-single:
     :
     Easy:
     5:
     0.245,0.361,0.064,0.080,0.000:
0000
0000
0000
0000
,
0000
0000
0000
0000
,
0000
0000
0000
0000
,
0000
0000
0000
0000
,
0000
0000
0000
0000
,
0000
0000
0000
0000
,
0000
0000
0000
0000
,
0000
0000
0000
0000
,
0000
0000
0000
0000
,
0000
1000
0000
1000
,
0000
0001
0000
0001
,
0000
0100
0000
0100
,
0000
0010
0000
0010
,
1000
0100
0000
0100
,
0010
0001
0000
0001
,
0100
0010
1000
0100
,
0020
0130
0200
0310
,
1001
0001
0100
0100
,
0010
1000
0100
0100
,
0010
0100
1000
1000
,
0001
0100
0010
0100
,
0001
0010
0100
0100
,
1000
0010
0100
0100
,
0001
1000
0001
0001
,
0110
0100
0100
0200
,
0310
1000
0100
0000
,
0010
0001
0100
0010
,
1000
0000
0000
0001
1000
0000
0000
0000
,
0010
0010
0100
0100
,
0001
0000
0000
1000
0001
0000
0000
0000
,
0100
0001
0010
0100
,
1000
0000
0000
0100
1000
0000
0000
0000
,
1001
0000
0000
0100
,
0001
0001
0010
0001
,
1000
0010
1000
1000
,
0100
0000
0000
0010
0001
0000
0000
0000
,
1000
0100
0001
0010
,
1000
0000
0000
0001
1000
0000
0100
0000
,
0010
0001
0100
0010
,
1000
1000
0001
0001
,
0010
0000
0000
1001
,
0000
0000
0000
0000
0000
0001
0000
0000
,
0000
0000
0000
0000
0000
0100
0000
0000
,
0000
0000
0000
0000
0000
0001
0000
0000
,
0000
1000
0000
0000
0100
0000
1000
0000
,
0000
0000
0000
0000
0000
0010
0000
0000
,
0000
0000
0000
0000
0000
0100
0000
0000
,
0000
0000
0000
0000
0000
0010
0000
0000
,
0000
0100
0000
0000
0001
0000
1001
0000
,
0000
0000
0001
0000
0000
0001
0000
0000
,
0000
0000
1000
0000
0000
1000
0000
0000
,
0000
0000
0000
0010
,
0000
0100
0000
0010
,
0000
0100
0000
0001
,
0000
1000
0000
0100
,
0000
1000
0000
0010
,
0000
0100
0000
2002
,
0000
0000
3003
0001
,
0100
0001
0001
1000
,
0100
1000
1000
0100
,
0010
0100
0100
0010
,
0001
1000
1000
0001
,
0100
0010
0010
0100
,
0001
1000
1000
0100
,
1000
0000
0010
0000
0010
0200
0000
0000
,
0000
0000
0000
0000
0000
0300
0110
0000
,
0100
0001
1000
0100
,
1000
0010
0100
0010
,
1000
0010
0100
0001
,
0010
0001
1000
0100
,
0010
0001
1000
0100
,
0010
0001
0010
0100
,
1000
0010
0200
0310
,
0020
0130
2002
0000
,
0000
0000
0000
0000
,
0000
0000
3003
0000
;

//---------------dance-single - ----------------
#NOTES:
     dance-single:
     :
     Beginner:
     2:
     0.122,0.205,0.064,0.008,0.000:
0000
0000
0000
0000
,
0000
0000
0000
0000
,
0000
0000
0000
0000
,
0000
0000
0000
0000
,
0000
0000
0000
0000
,
0000
0000
0000
0000
,
0000
0000
0000
0000
,
0000
0000
0000
0000
,
0000
0000
0000
0000
,
0000
0001
0000
0001
,
0000
1000
0000
1000
,
0000
0001
0000
0001
,
0000
1000
0000
1000
,
1000
0000
0000
0000
,
0001
0000
0000
0000
,
1000
0000
1000
0000
,
0002
0000
0003
0000
,
1000
0000
1000
0000
,
1000
0000
0000
0000
,
0001
0000
0001
0000
,
0001
0000
0000
0000
,
0100
0000
0100
0000
,
0100
0000
0000
0000
,
0010
0000
0010
0000
,
0010
0000
0000
0000
,
1000
0000
0001
0000
,
1000
0000
0000
0000
,
0001
0000
1000
0000
,
0001
0000
0000
0000
,
0100
0000
0010
0000
,
0100
0000
0000
0000
,
0010
0000
0100
0000
,
0010
0000
0000
0000
,
1000
1000
1000
0000
,
0001
0000
0000
0000
,
0001
0001
0001
0000
,
1000
0000
0000
0000
,
0100
0100
0100
0000
,
0010
0000
0000
0000
,
0010
0010
0010
0000
,
0100
0000
0000
1001
,
0000
0000
0000
0000
,
0000
0000
0000
0000
,
0000
0000
0000
0000
,
0000
0000
0000
0001
,
0000
0000
0000
0000
,
0000
0000
0000
1000
,
0000
0000
0000
0010
,
0000
0100
0000
1001
,
0000
0000
0000
0001
,
0000
0000
0000
1000
,
0000
0000
0000
0010
,
0000
0100
0000
0010
,
0000
0000
0000
0100
,
0000
0000
0000
0001
,
0000
0000
0000
1000
,
0000
0000
0000
0001
,
1000
0010
0000
0110
,
0000
0000
0000
0100
,
0000
0100
0000
0010
,
0000
0000
0000
1000
,
0000
0001
0000
0010
,
0000
0000
0000
0001
,
0000
1000
0000
1000
,
0000
0000
0010
0000
,
0000
0000
0000
1001
,
0001
0000
0001
0000
,
1000
0000
1000
0000
,
0010
0000
0010
0000
,
0100
0010
0010
0000
,
0100
0000
0001
0000
,
1000
0000
1001
0000
,
0110
0000
1001
0000
,
0000
0000
0110
0000
;

//---------------dance-double - ----------------
#NOTES:
     dance-double:
     :
     Hard:
     13:
     0.540,0.752,0.064,0.191,0.382: // measure 1
00000000
00000000
00000000
00000000
,  // measure 2
00000000
00000000
00000000
00000000
,  // measure 3
00000000
00000000
00000000
00000000
,  // measure 4
00000000
00000000
00000000
00000000
,  // measure 5
00000000
00000000
00000000
00000000
,  // measure 6
00000000
00000000
00000000
00000000
,  // measure 7
00000000
00000000
00000000
00000000
,  // measure 8
00000000
00000000
00000000
00000000
,  // measure 9
00000000
00000000
00000000
00000000
,  // measure 10
00001000
00010000
01000000
10000000
,  // measure 11
00100000
00010000
00001000
00000100
,  // measure 12
00000010
00010000
00001000
01000000
,  // measure 13
00100000
00010000
00001000
01000000
,  // measure 14
00010000
00001000
00000010
00000100
,  // measure 15
00000001
00000010
00000100
00010000
,  // measure 16
00001000
01000000
00010000
00100000
01000000
00010000
00001000
00000100
,  // measure 17
00000010
00000000
00000010
00000000
00001000
00000100
00010000
00000000
00010000
00001000
02000000
00000000
00000000
00000000
03100000
00000000
,  // measure 18
10000000
01000000
00010000
01000000
10000000
00100000
01000000
00001000
,  // measure 19
00010000
00000100
00000010
00000100
00010000
00000010
00000100
00000001
,  // measure 20
00000010
00000100
00010000
00001000
00010000
00100000
01000000
00010000
,  // measure 21
00100000
00000000
01000000
00000000
00010000
00000000
01000000
00000000
00100000
00000000
00000000
00001000
00010000
00000000
00000100
00000000
,  // measure 22
00001100
00010000
00001000
01000000
00100000
10000000
01000000
00010000
,  // measure 23
00001000
00100000
00001000
00010000
00000100
00001000
00000010
00000100
,  // measure 24
00000001
00001000
00000100
00010000
00001000
00100000
00010000
10000000
,  // measure 25
02000000
00000000
03100000
00010000
00100000
00000000
01000000
10000000
00020000
00000000
01030000
00000000
02200000
00000000
03300000
00000000
,  // measure 26
10000000
00000000
01000000
00000000
00010000
00000000
00001000
00010000
00002000
00000000
00000000
00000000
01003000
00000000
00000000
00000000
,  // measure 27
00001000
00000000
00010000
00000000
00000100
00000000
00000010
00000001
00000010
00000000
00000100
00000000
00001000
00000000
00000010
00010000
,  // measure 28
00000010
00001000
00000100
00010000
00002000
00000000
01003000
00000000
,  // measure 29
00100000
00000000
10000000
00000000
01000000
00000000
00100000
00000000
00010000
00000000
00000000
01000000
00001000
00000000
00010000
00000000
,  // measure 30
00011000
00000000
00000000
00000000
00000100
00000000
00001000
00000010
00002000
00000000
00000000
00000000
00013000
00000000
00000000
00000000
,  // measure 31
01000000
00000000
00100000
00000000
10000000
00000000
01000000
00100000
02000000
00000000
00000000
00000000
03010000
00000000
00001000
00010000
,  // measure 32
00002000
00000000
00000000
00000000
00003010
00000000
00000000
00000001
00002000
00000000
00000000
00000000
00003010
00000000
00000000
00000000
,  // measure 33
00000210
00000001
00001000
00020300
,  // measure 34
01030000
00000000
00100000
00000000
10000000
00000000
01000000
00000000
00010000
00000000
00001000
00000000
00000100
00000000
00000010
00001000
,  // measure 35
00000020
00000000
00000000
00000000
00010030
00000000
00000100
00001000
00000200
00000000
00000000
00000000
00010300
00000000
00001000
01000000
,  // measure 36
00002000
00000000
00000000
00000000
00013000
00000000
01000000
00000000
20000000
00000000
00000000
00000000
30010000
00000000
00000000
00010000
,  // measure 37
01000000
00001000
00010000
00000100
00000010
00000001
00000100
00000010
,  // measure 38
00001010
00000000
00001000
00000100
00010000
00001000
00100000
00010000
,  // measure 39
01000000
10000000
01000000
00100000
10000000
01000000
00010000
00001000
,  // measure 40
00010000
00000100
00010000
00000100
00010000
00001000
00010000
00001000
01000000
00001000
01000000
00001000
01000000
00010000
01000000
00010000
,  // measure 41
00200000
00000000
00000000
00000000
00000000
00000000
00000000
00000000
00000000
00000000
00000000
00300000
01000000
00000000
00000000
00000000
,  // measure 42
00000000
00000000
00000000
00000000
00000000
10000000
00000000
00000000
,  // measure 43
00000000
00000000
00000000
00000000
00001000
00010000
00000000
00000000
,  // measure 44
00000000
00000000
00000000
00000000
00000001
00000100
00000000
00000010
,  // measure 45
00001000
00000100
00000000
00010000
00001000
00000000
01000000
00000000
,  // measure 46
00000000
00000000
00000000
00000000
00000000
00000100
00000000
00000000
,  // measure 47
00000000
00000000
00000000
00000000
00000010
00000001
00000000
00000000
,  // measure 48
00000000
00000000
00000000
00000000
00010000
00001000
00000000
01000000
,  // measure 49
00010000
00100000
00000000
01000000
10000000
00000000
10010000
00000000
,  // measure 50
00010000
00000000
01000000
00100000
01000000
00001000
00000000
00000000
,  // measure 51
00010000
00000000
00000100
00001000
00000100
00000010
00000000
00000000
,  // measure 52
00000001
00000000
00000100
00000010
00001000
00000010
00000000
00010000
,  // measure 53
00001000
01000000
00000000
00010000
00100000
00000000
01000000
10000000
,  // measure 54
01000000
00000000
10000000
00100000
10000000
00000000
00100000
00010000
,  // measure 55
00100000
00000000
00010000
00001000
00010000
00000000
00001000
00000100
,  // measure 56
00001000
00000100
00000000
00000000
00000001
00000000
00000010
00000000
00000001
00000010
00000000
00000000
00001000
00000000
00010000
00000000
,  // measure 57
00001000
00010000
00000000
00000000
01000000
00000000
10000000
00000000
01000000
10000000
00000000
00000000
01020000
00000000
00000000
00000000
,  // measure 58
00130000
00000000
00001000
00000100
00000002
00000000
00000013
00000100
,  // measure 59
00010000
00001000
00000000
00010000
00000000
00001000
00000000
01000000
00000000
00000000
00010000
00100000
00000000
01000000
10000000
00000000
,  // measure 60
01000000
00100000
01000000
00000000
00000000
00100000
00001000
00000000
00010000
00000100
00000000
00001000
00000000
00000000
00000010
00000000
,  // measure 61
00000100
00000001
00000000
00001000
00000000
00000100
00010000
00000000
00010000
00001000
00000000
01000000
00000000
01000000
00000000
00100000
,  // measure 62
10000000
00000000
10000000
01000000
00000000
01000000
00010000
00000000
00010000
00001000
00000000
00010000
00000000
00000100
00001000
00000000
,  // measure 63
00000010
00000100
00000000
00000001
00000000
00001000
00000000
00000100
00000000
00000000
00010000
00001000
00000000
00000000
01000000
00000000
,  // measure 64
00010000
01000000
00000000
00100000
00000000
10000000
00000000
01000000
00100000
01000000
10000000
00000000
00000000
00000000
00010000
00000000
,  // measure 65
01000000
00001000
00000000
00010000
00000000
00000100
00000010
00000000
00000001
00000100
00000020
00000000
00000000
00000000
00000000
00000000
,  // measure 66
00000000
00000000
00000000
00000000
00000000
00000000
00000000
00000000
00000000
00000000
00000030
00000000
00010000
00001000
00000000
01000000
,  // measure 67
00000000
00100000
00000000
10000000
00000000
00000000
01000000
00010000
00000000
00001000
00010000
00000000
00000100
00000010
00000001
00000000
,  // measure 68
00000000
00000100
00000000
00000010
00001000
00000000
00001000
00000100
00000000
00000000
00010000
00000000
00001000
01000000
00000000
10000000
,  // measure 69
00000000
01000000
00100000
00000000
10000000
01000000
00000000
00010000
00000000
00010000
00000000
00001000
00010000
00000000
00000100
00000010
,  // measure 70
00000000
00000001
00000100
00000000
00001000
00000100
00000000
00000010
00001000
00000000
00000001
00000000
00000100
00000000
00001000
00000000
,  // measure 71
00000100
00000010
00010000
00001000
01000000
00010000
00100000
10000000
,  // measure 72
00100000
00000000
00010000
00000000
00001000
00000000
00000100
00000000
00010000
00000100
00010000
00000100
00010000
00001000
00010000
00001000
,  // measure 73
01000000
00001000
01000000
00001000
01000000
00010000
01000000
00010000
00100000
00000000
00100000
00000000
00010000
00100000
00001000
00000000
,  // measure 74
00001000
00010000
00000200
00000000
00000000
00000000
00000310
00000000
00002002
00000000
00000000
00000000
00000000
00000000
00000000
00000000
,  // measure 75
00000000
00000000
00000000
00000000
,  // measure 76
00000000
00000000
00003003
00000000
;

//---------------dance-double - ----------------
#NOTES:
     dance-double:
     :
     Medium:
     10:
     0.378,0.481,0.024,0.072,0.000: // measure 1
00000000
00000000
00000000
00000000
,  // measure 2
00000000
00000000
00000000
00000000
,  // measure 3
00000000
00000000
00000000
00000000
,  // measure 4
00000000
00000000
00000000
00000000
,  // measure 5
00000000
00000000
00000000
00000000
,  // measure 6
00000000
00000000
00000000
00000000
,  // measure 7
00000000
00000000
00000000
00000000
,  // measure 8
00000000
00000000
00000000
00000000
,  // measure 9
00000000
00000000
00000000
00000000
,  // measure 10
00010000
00001000
00010000
00001000
,  // measure 11
01000000
00010000
01000000
00010000
,  // measure 12
10000000
01000000
10000000
01000000
,  // measure 13
10000000
00100000
10000000
00100000
,  // measure 14
01000000
00001000
01000000
00001000
,  // measure 15
00010000
00000100
00010000
00000100
,  // measure 16
00001000
00000010
00001000
00000010
,  // measure 17
00000100
00000100
00000001
00000010
00000100
00000200
00000000
00001300
,  // measure 18
00000001
00000100
00001000
00000000
00001000
00000100
00000001
00000000
,  // measure 19
00001000
00000100
00000010
00000000
00000010
00000100
00010000
00000000
,  // measure 20
00001000
01000000
00010000
00000000
00010000
01000000
00100000
00000000
,  // measure 21
10000000
01000000
00100000
00000000
00100000
01000000
10000000
00000000
,  // measure 22
00010000
01000000
00001000
00000000
00001000
00010000
00000100
00000000
,  // measure 23
00001000
00000010
00000100
00000000
00000100
00000001
00001000
00000000
,  // measure 24
00000001
00000010
00000100
00001000
00000100
00010000
00001000
00000000
,  // measure 25
00010000
00010000
00001000
01000000
00010000
00010000
20000000
00000000
,  // measure 26
31000000
00000000
00100000
01000000
00100000
00000000
00001000
00000000
,  // measure 27
00010000
00000000
00010000
00000000
00000100
00000000
00001000
00000010
,  // measure 28
00000100
00000001
00000010
00000100
,  // measure 29
00000010
00000001
00000100
00001000
,  // measure 30
00010000
00000000
00001000
00010000
00001000
00000000
01000000
00000000
,  // measure 31
00010000
00000000
00100000
00000000
01000000
00000000
10000000
01000000
,  // measure 32
00010000
00001000
00010000
00000100
,  // measure 33
00001000
00001000
00000010
00000000
00000100
00000100
00000001
00000000
,  // measure 34
00000010
00000100
00001000
00000010
00000100
00000001
00000010
00000000
,  // measure 35
00000100
00010000
00001000
00010000
00000100
00001000
00000100
00000000
,  // measure 36
00010000
00001000
01000000
00010000
01000000
00001000
00010000
00000000
,  // measure 37
00100000
10000000
01000000
00100000
01000000
10000000
00100000
00000000
,  // measure 38
01100000
00000000
01000000
00001000
00010000
00001000
00010000
00000000
,  // measure 39
00010100
00000000
00000100
00001000
00000010
00000100
00000001
00000000
,  // measure 40
00000010
00000010
00000100
00000100
00001000
00000010
00000100
00000001
,  // measure 41
00002000
00000000
00000000
00013000
,  // measure 42
00000000
00000000
00000000
00000000
00000000
00100000
00000000
00000000
,  // measure 43
00000000
00000000
00000000
00000000
00010000
01000000
00000000
00000000
,  // measure 44
00000000
00000000
00000000
00000000
00100000
10000000
00000000
01000000
,  // measure 45
00100000
00010000
00000000
00100000
00001000
00000000
00010000
00000000
,  // measure 46
00000000
00000000
00000000
00000000
00000000
00000100
00000000
00000000
,  // measure 47
00000000
00000000
00000000
00000000
00000010
00000001
00000000
00000000
,  // measure 48
00000000
00000000
00000000
00000000
00000100
00000010
00000000
00001000
,  // measure 49
00000100
00010000
00000000
00001000
01000000
00000000
00100000
00000000
,  // measure 50
10000000
00000000
01000000
00000000
00000000
00100000
00000000
00000000
,  // measure 51
00001000
00000000
00010000
00000000
00000000
00000100
00000000
00000000
,  // measure 52
00001000
00000000
00000010
00000000
00000100
00000001
00000000
00000010
,  // measure 53
00000100
00010000
00000000
00001000
01000000
00000000
00010000
00000000
,  // measure 54
00100000
01000000
10000000
01000000
,  // measure 55
00100000
00010000
00001000
00000100
,  // measure 56
00000010
00000000
00000001
00000000
00000100
00000000
00000010
00001000
,  // measure 57
00000010
00000000
00000100
00000001
00000100
00000000
00002000
00000000
,  // measure 58
00013000
00000000
01000000
02000000
13000000
00000000
00010000
01000000
,  // measure 59
00010000
00000000
00100000
00001000
00100000
00000000
00001000
00010000
,  // measure 60
00000100
00000010
00000100
00010000
00001000
00000000
00000100
00000000
,  // measure 61
00000001
00000000
00000010
00000100
00001000
00000000
00000100
00000000
,  // measure 62
00010000
00000000
00001000
01000000
00100000
01000000
00000000
00100000
,  // measure 63
10000000
00000000
01000000
00000000
00100000
00000000
00010000
01000000
,  // measure 64
00001000
00000000
00010000
00000100
00010000
00000100
00001000
00000000
,  // measure 65
00000010
00000000
00000100
00000001
00000010
00000200
00000000
00000000
,  // measure 66
00000000
00000000
00000000
00000000
00000000
00000300
00010000
00000000
,  // measure 67
00001000
00000000
01000000
00010000
00100000
00000000
01000000
00000000
,  // measure 68
10000000
00100000
01000000
00000000
00010000
00000000
00100000
00000000
,  // measure 69
00001000
00010000
00001000
00000000
00010000
00000100
00010000
00000000
,  // measure 70
00000100
00001000
00000100
00000010
00000100
00000000
00001000
00000000
,  // measure 71
00000100
00010000
00001000
00000000
01000000
00000000
00010000
00000000
,  // measure 72
01000000
00010000
00100000
00000000
01000000
10000000
01000000
10000000
,  // measure 73
00010000
01000000
00100000
00000000
01000000
01000000
00010000
00100000
,  // measure 74
01000000
02000000
00000000
13000000
20020000
00000000
00000000
00000000
,  // measure 75
00000000
00000000
00000000
00000000
,  // measure 76
00000000
00000000
30030000
00000000
;

//---------------dance-double - ----------------
#NOTES:
     dance-double:
     :
     Easy:
     5:
     0.258,0.331,0.008,0.088,0.000: // measure 1
00000000
00000000
00000000
00000000
,  // measure 2
00000000
00000000
00000000
00000000
,  // measure 3
00000000
00000000
00000000
00000000
,  // measure 4
00000000
00000000
00000000
00000000
,  // measure 5
00000000
00000000
00000000
00000000
,  // measure 6
00000000
00000000
00000000
00000000
,  // measure 7
00000000
00000000
00000000
00000000
,  // measure 8
00000000
00000000
00000000
00000000
,  // measure 9
00000000
00000000
00000000
00000000
,  // measure 10
00010000
00000000
00010000
00000000
,  // measure 11
00000100
00000000
00000100
00000000
,  // measure 12
00000010
00000000
00000010
00000000
,  // measure 13
00000001
00000000
00000001
00000000
,  // measure 14
00000100
00000100
00000100
00000000
,  // measure 15
00000010
00000010
00000010
00000000
,  // measure 16
00010000
00010000
00001000
00001000
,  // measure 17
00200000
01300000
20000000
30010000
,  // measure 18
01000000
01000000
00010000
00100000
,  // measure 19
00001000
00001000
00010000
00000100
,  // measure 20
00001000
00001000
00000010
00000100
,  // measure 21
00000001
00000010
00000100
00000010
,  // measure 22
00000001
00000001
00000100
00000010
,  // measure 23
00001000
00001000
00000100
00010000
,  // measure 24
00001000
00001000
01000000
00010000
,  // measure 25
00100000
00000000
00100000
00000000
00100000
01000000
00200000
00000000
,  // measure 26
00301000
00001000
00010000
00000100
,  // measure 27
00001000
00000000
00001000
00000000
,  // measure 28
00000010
00000100
00000001
00000001
,  // measure 29
00000010
00000000
00000010
00000000
,  // measure 30
00000100
00001000
00000010
00001000
,  // measure 31
00000100
00000000
00000100
00000000
,  // measure 32
00010000
00001000
01000000
00010000
,  // measure 33
00100000
00000000
00100000
00000000
,  // measure 34
01000000
10000000
00010000
00100000
,  // measure 35
01000000
00100000
00010000
00000000
,  // measure 36
01000000
00001000
00010000
00000100
,  // measure 37
00010000
00001000
00010000
00000000
,  // measure 38
00000100
00001000
00000010
00000100
,  // measure 39
00000001
00000010
00000100
00001000
,  // measure 40
00000100
00010000
00001000
00100000
,  // measure 41
00020000
00000000
00000000
10030000
,  // measure 42
00000000
00000000
00000000
00000000
00000000
01000000
00000000
00000000
,  // measure 43
00000000
00000000
00000000
00000000
00000000
00100000
00000000
00000000
,  // measure 44
00000000
00000000
00000000
00000000
00000000
00001000
00000000
00010000
,  // measure 45
00000000
00000100
00000000
00001000
00001000
00000000
00000001
00000000
,  // measure 46
00000000
00000000
00000000
00000000
00000000
00000100
00000000
00000000
,  // measure 47
00000000
00000000
00000000
00000000
00000000
00000010
00000000
00000000
,  // measure 48
00000000
00000000
00000000
00000000
00000000
00001000
00000000
00000100
,  // measure 49
00000000
00010000
00000000
00001000
00001000
00000000
00010000
00000000
,  // measure 50
00000000
00000000
01000000
00000000
00000000
10000000
00000000
00000000
,  // measure 51
00000000
00000000
01000000
00000000
00000000
00010000
00000000
00000000
,  // measure 52
00000000
00000000
00001000
00000100
,  // measure 53
00000001
00001000
00001000
00000001
,  // measure 54
00000010
00000100
00001000
00000001
,  // measure 55
00000010
00000100
00010000
00001000
,  // measure 56
00100000
01000000
10000000
00010000
,  // measure 57
00100000
01000000
10000000
00200000
,  // measure 58
01300000
02000000
03100000
10000000
,  // measure 59
01000000
00100000
00001000
00010000
,  // measure 60
00000100
00000010
00000001
00000010
,  // measure 61
00000100
00010000
00001000
00100000
,  // measure 62
01000000
00000000
10000000
00000000
00100000
01000000
00100000
00000000
,  // measure 63
10000000
01000000
00100000
00001000
,  // measure 64
00010000
00000100
00000010
00000001
,  // measure 65
00000100
00000000
00000010
00000000
00010000
00002000
00000000
00000000
,  // measure 66
00000000
00000000
00000000
00000000
00000000
00003000
00010000
00000000
,  // measure 67
01000000
10000000
01000000
00100000
,  // measure 68
00010000
00001000
00000100
00000010
,  // measure 69
00000001
00000100
00000010
00001000
,  // measure 70
00000100
00000000
00010000
00001000
00010000
00000000
00010000
00000000
,  // measure 71
01000000
01000000
10000000
10000000
,  // measure 72
00100000
00100000
00010000
00010000
,  // measure 73
00001000
00001000
00000020
00000130
,  // measure 74
00002000
00003001
00002002
00000000
,  // measure 75
00000000
00000000
00000000
00000000
,  // measure 76
00000000
00000000
00003003
00000000
;
