#TITLE:Blow Me Up;
#SUBTITLE:;
#ARTIST:Sota Fujimori feat. Calin;
#TITLETRANSLIT:;
#SUBTITLETRANSLIT:;
#ARTISTTRANSLIT:;
#GENRE:;
#CREDIT:Silverhawke;
#MENUCOLOR:;
#METERTYPE:DDR;
#BANNER:Blow Me Up.png;
#BACKGROUND:Blow Me Up-bg.png;
#LYRICSPATH:;
#CDTITLE:cdtitle.png;
#MUSIC:Blow Me Up.mp3;
#OFFSET:-0.448;
#SAMPLESTART:79.116;
#SAMPLELENGTH:15.000;
#SELECTABLE:YES;
#LISTSORT:;
#BPMS:0.000=146.000;
#STOPS:;
#BGCHANGES:;
#ATTACKS:;

//---------------dance-single - ----------------
#NOTES:
     dance-single:
     :
     Hard:
     11:
     0.511,0.512,0.142,0.166,0.047:
0000
0000
0000
0000
,
0000
0000
0000
0000
,
0000
0000
0000
0000
,
0000
0000
0000
0000
,
1000
0100
0010
0100
0001
0100
0010
0000
,
0001
0100
0010
0100
1000
0100
0010
0000
,
1000
0100
0010
0100
0001
0100
0010
0100
,
2002
0000
3003
0000
0010
0100
0010
0010
,
1000
0000
0002
0000
0013
0100
1000
0001
,
0100
0000
0010
1000
0200
0000
0310
0001
,
1000
0000
0020
0000
0130
0001
0100
1000
,
0100
0000
0000
0000
0101
0000
0000
0000
1100
0000
0000
0000
0010
0000
0000
1001
,
0000
0000
2000
0000
3010
0100
0001
1000
,
0100
0000
0010
0001
0200
0000
0310
1000
,
0001
0000
0020
0000
0130
1000
0100
0001
,
0100
1100
0101
0010
,
0100
0000
0001
0010
0100
1000
0001
0100
,
0020
0000
0130
0200
0000
0300
0001
0100
,
0010
0000
1000
0100
0001
0100
1000
0100
,
0020
0000
0000
0000
0100
0000
0100
0000
0030
0000
0000
0000
0010
0000
0000
1001
,
0000
0000
0001
0100
1000
0100
0001
0010
,
0200
0000
0010
0010
0300
0000
0001
0100
,
1000
0000
0100
0010
1000
0100
0010
0000
,
0012
0000
1000
1003
0000
0100
0010
0100
,
1000
0001
0100
1000
0100
0000
0010
1000
,
0200
0000
0310
0200
0000
1300
0100
0010
,
0001
0000
0100
1000
0100
0001
0010
0100
,
2000
0000
0000
0000
3001
0000
0200
0000
0000
0000
0310
0000
1000
0000
0000
1001
,
0000
0001
0100
0010
1000
0100
0001
0100
,
2000
0000
3010
0200
0000
0301
0100
0000
,
0110
0000
0010
1000
0100
1000
0010
0100
,
0002
0000
0013
0200
0000
1300
0100
0010
,
0001
0000
0000
0000
0100
0000
0001
0000
0100
0000
0000
0010
0000
0000
1000
0000
,
0000
0000
0100
0000
0000
0000
1001
0000
0000
0000
0001
0000
0100
0000
0000
0001
,
0000
0000
0000
0000
0010
0000
0001
0000
0010
0000
0000
0100
0000
0000
1000
0000
,
0000
0000
0010
0000
0000
0000
1001
0000
0000
0000
0001
0000
0010
0000
0000
0100
,
0000
0000
0000
0000
1000
0000
0001
0000
1000
0000
0000
0010
0000
0000
0100
0000
,
0000
0000
0001
0000
0000
0000
0110
0000
0000
0000
0010
0000
1000
0000
0000
0100
,
0000
0000
0000
0000
1000
0000
0001
0000
1000
0000
0000
0100
0000
0000
0010
0000
,
0000
0001
0000
0110
0000
0100
1001
0000
,
0010
1000
0100
1000
0000
0010
0100
0001
,
0000
0010
0100
0000
1000
0100
0010
0001
,
0000
0100
0001
0000
1000
0100
0000
0010
,
0000
0100
1000
0000
0001
0100
0000
0101
,
0000
0100
0001
0000
1000
0100
0010
0001
,
0000
0100
0010
0000
1000
0010
0100
0001
,
0000
0010
0100
0000
1000
0100
0001
0100
,
0000
1000
0001
0000
1000
0100
0001
0100
,
0000
1000
0010
0000
0100
0001
0000
0010
,
0000
0100
1000
0000
0100
0010
0001
0100
,
0000
0010
0100
0000
0001
0010
0000
0100
,
0000
1000
0100
0000
0001
0100
0000
1100
,
0000
0010
0100
0000
0001
0100
0000
0010
,
0000
1000
0100
0000
0010
0001
0000
0100
,
0000
0010
1000
0000
0010
0100
0001
0010
,
0000
0100
1000
0000
0100
0010
1001
0000
,
0010
1000
0010
0100
0000
0100
0010
0000
,
0001
0010
1000
0100
0000
0001
0100
0000
,
0010
0001
0010
0100
0000
0100
0010
0000
,
1000
0010
0001
0100
0000
1000
0100
0000
,
0100
0001
0100
0010
0000
0010
0100
0000
,
1000
0100
0001
0010
0000
1000
0010
0000
,
0100
1000
0100
0010
0000
0010
0100
0000
,
0001
0100
1000
0010
0000
0001
0010
0100
,
0100
0001
0010
1000
0010
0001
0100
1000
,
0100
0010
0001
0010
1000
0100
0001
0100
,
0100
1000
0010
0001
0010
1000
0100
0001
,
0100
0010
1000
0010
0001
0100
1000
0100
,
0100
0001
0100
1000
0100
0001
0010
1000
,
0010
0100
0001
0100
1000
0010
0001
0010
,
0010
1000
0100
0001
0100
1000
0010
0001
,
0010
0000
0100
0000
0001
0000
1000
0000
0100
0000
0010
0000
0001
1000
0001
1000
;

//---------------dance-single - ----------------
#NOTES:
     dance-single:
     :
     Medium:
     9:
     0.447,0.483,0.055,0.127,0.020:
0000
0000
0000
0000
,
0000
0000
0000
0000
,
0000
0000
0000
0000
,
0000
0000
0000
0000
,
1000
0000
0100
0000
0001
0100
1000
0000
,
0010
0000
0001
0000
0100
1000
0001
0000
,
0010
0000
0100
0000
0001
0010
0100
0000
,
2000
0000
0001
0000
3001
0001
0001
0000
,
0100
0000
0001
1000
0100
0000
0010
0100
,
1000
0000
0001
0100
1000
0000
0100
0001
,
1000
0000
0100
0010
0001
0000
0010
0100
,
2000
0000
0000
0000
3002
0000
0000
0000
2003
0000
0000
0000
3000
0000
0000
0100
,
0000
0000
0001
0000
1000
0100
0001
0000
,
0100
1000
0001
0000
0010
0000
0100
0001
,
1000
0000
0010
0100
0001
0100
1000
0000
,
0100
0001
1000
0100
0010
0000
0001
0000
,
1100
0101
1100
0010
,
0100
0000
0001
0000
1000
0100
0001
0000
,
0100
0000
0001
0100
1000
0000
0001
0100
,
1000
0000
0000
0000
0010
0000
0000
0000
0100
0000
0000
0000
0001
0000
0000
1000
,
0000
0000
0001
0000
0100
1000
0001
0000
,
0100
0010
1000
0001
0000
0010
0000
0100
,
1000
0000
0001
0000
0010
0100
0001
0000
,
0100
0010
1000
0100
0000
0001
0100
0000
,
0101
0010
1100
0010
,
0100
0001
1000
0000
0100
0000
0001
0000
,
0100
0000
0010
1000
0001
0000
0010
0000
,
0100
0000
0000
0000
0001
0000
0000
0000
0100
0000
1000
0000
0001
0000
0000
1000
,
0000
0000
0010
0100
0001
0000
1000
0100
,
0001
0100
0010
0001
,
1000
0100
0001
0000
0010
0100
1000
0000
,
0001
0000
1000
0000
0010
0100
0010
0100
,
0010
0000
0100
0010
0000
0100
0000
0010
,
0100
0000
0010
0100
0000
0010
0000
0100
,
0010
0000
1000
0100
0000
0010
0000
0100
,
1000
0000
0000
0000
1000
0000
0100
0000
0000
0000
0010
0000
0100
0000
0000
0100
,
0000
0000
0001
0100
0000
0010
0000
0100
,
0001
0000
0000
0000
0001
0000
0100
0000
0000
0000
0010
0000
0000
0000
0000
0100
,
0000
0000
1000
0010
0000
0100
0000
0010
,
1000
0010
0000
0100
0010
0100
0000
0010
,
0001
0000
0010
0000
1000
0001
0010
0100
,
0001
0000
1000
0000
0100
0100
0100
0100
,
0100
0000
0010
1000
0100
0010
0001
0000
,
0100
0010
0000
1000
0100
0001
0000
0010
,
0100
0000
1000
0100
0001
0000
0010
0100
,
0001
0000
1000
0000
0001
0100
0001
0000
,
0000
1000
0100
1000
0000
0001
0100
0001
,
0000
1000
0010
0100
0001
0000
1000
0100
,
0001
0010
0100
0000
0001
0100
1000
0000
,
0001
0100
0010
0100
0000
0010
0010
0000
,
2000
0000
0000
0000
3200
0000
0000
0000
0320
0000
0000
0000
0002
0030
0000
0000
,
2003
0000
0000
0000
3020
0000
0000
0030
0200
0000
0000
0000
0002
0300
0000
0000
,
1003
1100
0001
0101
,
1000
0100
0001
0000
0010
0100
1000
0000
,
0002
0203
0320
2030
,
3010
0010
0010
0100
0100
0010
0100
0000
,
1000
0100
0010
0001
,
0100
1000
0000
0001
0100
0010
1000
0000
,
0001
0100
0010
0000
1000
0100
0010
0000
,
0001
1000
0001
0000
0100
0010
0100
0000
,
1000
0001
0100
0100
,
0010
1000
0001
0010
0000
0100
1000
0000
,
0001
0100
1000
0000
0010
0100
0001
0000
,
0010
0100
1000
0000
0001
0100
1000
0000
,
0001
0100
0001
0100
0010
0000
1000
0100
,
1000
0100
0010
0000
0001
0100
1000
0000
,
0100
0010
0100
0010
0001
0000
0010
1000
,
0100
0010
1000
0000
0001
0100
1000
0000
,
0001
0100
0001
0001
0100
0000
0010
1000
,
0010
0010
0100
0000
0001
0010
1000
0000
,
0001
0100
0001
0001
0100
0100
0010
1000
,
0100
0100
0100
0100
0010
0010
0010
0010
;

//---------------dance-single - ----------------
#NOTES:
     dance-single:
     :
     Easy:
     5:
     0.238,0.255,0.000,0.000,0.000:
0000
0000
0000
0000
,
0000
0000
0000
0000
,
0000
0000
0000
0000
,
0000
0000
0000
0000
,
1000
0100
0010
0001
,
1000
0010
0100
0001
,
0100
0010
0000
0000
,
0100
0010
0000
0000
,
1000
0100
1000
0000
,
0001
0100
0001
0000
,
1000
0010
1000
0000
,
0001
0010
0001
0000
,
1000
0100
0001
0000
,
0010
1000
0100
0000
,
0001
0100
1000
0000
,
0010
0001
0100
0000
,
0001
0100
0001
0100
,
0010
0000
1000
0100
,
1000
0100
0010
0000
,
0001
0100
0001
0000
,
1000
0100
1000
0100
,
0010
0000
0001
0100
,
0001
0100
0000
0010
,
1000
0100
1000
1000
,
0001
0100
0001
0000
,
0010
1000
0010
0000
,
0001
0100
0001
0000
,
0010
1000
0010
0000
,
1000
0100
1000
0000
,
0010
0001
0010
0000
,
1000
0100
1000
0000
,
0010
0001
0010
0000
,
1000
0100
0001
0000
,
0100
1000
0001
0000
,
1000
0100
0001
0000
,
0100
1000
0001
0000
,
1000
0100
0001
0000
,
0010
0100
1000
0000
,
0001
0100
0010
0000
,
1000
0010
0100
0001
,
0010
0000
0100
1000
,
0100
0010
0001
0000
,
1000
0000
0001
0000
,
0100
0010
1000
0000
,
0001
0001
0100
0100
,
0010
1000
0100
0000
,
0010
0100
1000
0001
,
0100
1000
0010
0000
,
0100
0001
0100
0001
,
1000
0100
0000
0010
,
0100
1000
0000
0001
,
0100
0010
0000
0100
,
0001
0000
1000
0100
,
0001
0000
0100
1000
,
0001
0100
0010
0000
,
0100
0100
0100
0000
,
0001
0010
0100
1000
,
0000
0001
0100
0000
,
0100
0000
0010
0001
,
1000
0000
0100
0010
,
0000
1000
0000
0100
,
0000
0100
1000
0001
,
0100
0000
0010
0100
,
0001
0000
1000
0000
,
0100
0010
0100
1000
,
0001
0100
0010
0010
,
0100
0000
1000
0100
,
0010
0100
1000
0000
,
0001
0100
0010
0100
,
0001
0000
1000
0001
,
0100
0000
0010
1000
,
0100
0000
0010
0100
;

//---------------dance-single - ----------------
#NOTES:
     dance-single:
     :
     Beginner:
     1:
     0.077,0.084,0.000,0.000,0.000:
0000
0000
0000
0000
,
0000
0000
0000
0000
,
0000
0000
0000
0000
,
0000
0000
0000
0000
,
0010
0000
0000
0000
,
1000
0000
0000
0000
,
0001
0000
0000
0000
,
0010
0000
0000
0000
,
0001
0000
0000
0000
,
0010
0000
0000
0000
,
1000
0000
0000
0000
,
0010
0000
0000
0000
,
0010
0000
0000
0000
,
0010
0000
0000
0000
,
1000
0000
0000
0000
,
0001
0000
0000
0000
,
0001
0000
0000
0000
,
0001
0000
0000
0000
,
0100
0000
0000
0000
,
0100
0000
0000
0000
,
0010
0000
0000
0000
,
0001
0000
0000
0000
,
0100
0000
0000
0000
,
0001
0000
0000
0000
,
0001
0000
0000
0000
,
0010
0000
0000
0000
,
0001
0000
0000
0000
,
0010
0000
0000
0000
,
0010
0000
0000
0000
,
1000
0000
0000
0000
,
0010
0000
0000
0000
,
1000
0000
0000
0000
,
0100
0000
0000
0000
,
0010
0000
0000
0000
,
1000
0000
0000
0000
,
1000
0000
0000
0000
,
0010
0000
0000
0000
,
0001
0000
0000
0000
,
0001
0000
0000
0000
,
0001
0000
0000
0000
,
1000
0000
0000
0000
,
0001
0000
0000
0000
,
0100
0000
0000
0000
,
0001
0000
0000
0000
,
0001
0000
0000
0000
,
0100
0000
0000
0000
,
0100
0000
0000
0000
,
0100
0000
0000
0000
,
0100
0000
0000
0000
,
0010
0000
0000
0000
,
0100
0000
0000
0000
,
0001
0000
0000
0000
,
0100
0000
0000
0000
,
0100
0000
0000
0000
,
1000
0000
0000
0000
,
0001
0000
0000
0000
,
0100
0000
0000
0000
,
0001
0000
0000
0000
,
0100
0000
0000
0000
,
0100
0000
0000
0000
,
1000
0000
0000
0000
,
0001
0000
0000
0000
,
0010
0000
0000
0000
,
1000
0000
0000
0000
,
0100
0000
0000
0000
,
0010
0000
0000
0000
,
0001
0000
0000
0000
,
0100
0000
0000
0000
,
1000
0000
0000
0000
,
1000
0000
0000
0000
,
0010
0000
0000
0000
,
0001
0000
0000
0000
;

//---------------dance-double - ----------------
#NOTES:
     dance-double:
     :
     Hard:
     11:
     0.500,0.483,0.221,0.111,0.028:
00000000
00000000
00000000
00000000
,
00000000
00000000
00000000
00000000
,
00000000
00000000
00000000
00000000
,
00000000
00000000
00000000
00000000
,
10000000
01000000
00100000
01000000
10000000
00100000
00010000
00001000
,
00000100
00000010
00000001
00000010
00001000
00000100
00000010
00000001
,
00001000
00000100
00010000
00000100
00001000
00010000
00100000
01000000
,
02200000
00000000
00000000
03300000
,
10000000
00000000
01200000
00000000
00310000
00000000
01000000
00100000
,
10000000
00000000
00100000
00010000
00001000
00000000
00010000
00000100
,
00000010
00000001
00000010
00000100
00001000
00000010
00000100
00000001
,
00002000
00000000
00000000
00000000
00023000
00000000
00000000
00000000
20030000
00000000
00000000
00000000
30010000
00000000
00000000
10010000
,
00000000
00000000
20000000
00000000
30100000
01000000
00001000
00010000
,
00001000
00000000
00010000
00000100
00000010
00000000
00000001
00000100
,
00001000
00000100
00000010
00001000
00000100
00010000
00001000
01000000
,
00200000
00000000
02300000
00000000
03010000
10000000
10010000
00000000
,
01000000
00000000
00001000
00010000
00000100
00000000
00000010
00000100
,
00001000
00000000
00000001
00000100
00000010
00000000
00001000
00000000
,
00000100
00010000
00001000
00000000
01000000
00010000
00100000
01000000
,
10000000
00000000
00000000
00000000
00010000
00000000
01000000
00000000
00100000
00000000
00000000
00000000
01000000
00000000
00000000
01100000
,
00000000
00000000
00100000
10000000
01000000
00100000
00010000
00100000
,
01000000
00000000
00010000
00001000
00000010
00000000
00000001
00000100
,
00001000
00000000
00000100
00000010
00010000
00001000
01000000
00100000
,
01000000
00000000
00010000
00100000
01000000
00000000
10000000
00010000
,
10000000
00000000
00010000
00100000
01000000
00100000
00010000
00000000
,
00100000
00000000
00001000
00001000
00010000
00000000
00000100
00000000
,
00001000
00000000
00000010
00000100
00000001
00000100
00000010
00000000
,
00001000
00000000
00000000
00000000
00000100
00000000
00010000
00000000
00000000
00000000
00000000
00000000
00001000
00000000
00000000
00011000
,
00000000
00000000
00001000
01000000
00100000
10000000
01000000
00100000
,
00010000
00000000
01000000
01000000
00001000
00000000
00010000
00000000
,
00000100
00000000
00000010
00000100
00001000
00000010
00000100
00000000
,
00000001
00000000
00002000
00000200
00000000
00000000
00003300
00000000
,
00000101
00001100
00000101
00001100
,
00000001
00000000
00000100
00000000
00001000
00000000
00010000
00000000
01000000
00000000
10000000
00000000
00010000
00000000
00000000
10010000
,
00000000
11000000
01010000
11000000
,
10000000
00000000
01000000
00000000
00010000
00000000
00001000
00000000
00000100
00000000
00000001
00000000
00001000
00000000
00000000
00001001
,
00000000
00000011
00000101
00000011
,
00000001
00000000
00000010
00000000
00001000
00000000
00010000
00000000
00100000
00000000
10000000
00000000
00010000
00000000
00000000
10010000
,
00000000
10100000
11000000
10100000
,
10000000
00100000
00010000
00001000
00000010
00000001
00001001
00000000
,
00000001
00000001
00000010
00000000
00000100
00001000
00000100
00010000
,
00000000
00010000
00001000
00000000
01000000
00100000
10000000
01000000
,
00000000
01000000
00100000
00000000
00010000
01000000
00000000
00001000
,
00000000
00001000
00010000
00000000
00000100
00000010
00000000
00000110
,
00000000
00000000
00000001
00000000
00001000
00000100
00000000
00010000
,
00000000
00001000
01000000
00000000
00100000
01000000
00000000
00020000
,
00000000
00130000
01000000
00000000
01000000
10000000
00100000
02000000
,
00000000
03010000
00100000
00000000
00100000
00001000
00010000
01010000
,
00000000
00000000
10000000
00000000
00100000
01000000
00000000
00010000
,
00000000
00100000
00001000
00010000
00001000
00000100
00000010
00001000
,
00000000
00000001
00001000
00000000
00000100
00000000
00001000
00000100
,
00000000
00010000
00001000
00000000
00001000
00100000
00000000
21000000
,
00000000
00000000
30100000
00000000
01000000
00001000
00000000
00010000
,
00000000
00000100
00000010
00000000
00000001
00000100
00000000
00000010
,
00000000
00000100
00000001
00000000
00000001
00001000
00000100
00010000
,
00000000
00001000
00100000
00000000
00100000
01000000
10010000
00000000
,
10000000
01000000
00100000
01000000
00000000
10000000
00100000
00000000
,
01000000
00010000
00100000
00010000
00000000
00100000
00001000
00000000
,
00010000
00000100
00000010
00000100
00000000
00001000
00000010
00000000
,
00000100
00000001
00000010
00000001
00000000
00000100
00000010
00001000
,
00000100
00010000
00001000
00010000
00000000
00001000
01000000
00000000
,
00100000
10000000
01000000
00100000
00000000
00001000
00100000
00000000
,
00001000
00010000
00000100
00000010
00000000
00000001
00000100
00000000
,
00001000
00010000
01000000
10000000
00000000
00100000
01000000
00000000
,
00100000
00100000
10000000
10000000
01000000
00100000
01000000
10000000
,
00010000
00010000
01000000
01000000
00001000
00010000
00000100
00000000
,
00000010
00000010
00000001
00000001
00000100
00000010
00001000
00000100
,
00010000
00000000
00010000
00000000
00001000
00000000
00001000
00000000
01000000
00000000
00100000
00000000
10000000
00000000
00000000
10010000
,
00000000
00010000
00100000
00000000
01000000
10000000
00100000
00000000
,
01000000
01000000
00010000
00010000
00100000
00001000
00010000
00000000
,
00000100
00000100
00000010
00000010
00000001
00000100
00001000
00010000
,
01000000
10000000
00100000
10000000
01000000
00010000
00001000
00000100
;

//---------------dance-double - ----------------
#NOTES:
     dance-double:
     :
     Medium:
     8:
     0.357,0.369,0.079,0.055,0.008: // measure 1
00000000
00000000
00000000
00000000
,  // measure 2
00000000
00000000
00000000
00000000
,  // measure 3
00000000
00000000
00000000
00000000
,  // measure 4
00000000
00000000
00000000
00000000
,  // measure 5
00001000
00010000
00001000
00000000
01000000
00010000
01000000
00000000
,  // measure 6
00010000
10000000
00010000
00000000
10000000
01000000
00100000
00000000
,  // measure 7
00010000
01000000
00010000
00000000
01000000
00001000
01000000
00000000
,  // measure 8
00002000
00000000
00010000
00013000
,  // measure 9
00010000
00000000
00000200
00000000
00000310
00000000
00000001
00000100
,  // measure 10
00000010
00000000
00001000
00000000
00000100
00000000
00010000
00001000
,  // measure 11
01000000
00000000
00010000
00000000
00100000
00000000
01000000
10000000
,  // measure 12
00010000
01000000
00200000
00300000
,  // measure 13
00000000
00000000
20000000
00000000
31000000
00000000
00100000
00001000
,  // measure 14
00010000
00000000
00000100
00000000
00000010
00000000
00000001
00000100
,  // measure 15
00001000
00010000
00100000
10000000
,  // measure 16
00010000
10010000
02200000
03300000
,  // measure 17
10000000
01000000
00010000
01000000
,  // measure 18
10000000
00000000
00100000
01000000
00000000
01000000
00001000
00000000
,  // measure 19
00010000
00000100
00000001
00000100
,  // measure 20
00001000
00000000
00000000
00000000
00000001
00000000
00000100
00000000
00000000
00000000
00000100
00000000
00000010
00000000
00000000
00000010
,  // measure 21
00000000
00000000
00001000
00000000
00000100
00000000
00010000
00001000
,  // measure 22
01000000
00000000
00010000
10000000
00000000
10000000
01000000
00000000
,  // measure 23
00100000
00010000
01000000
10000000
,  // measure 24
01000000
00000000
00001000
00010000
00000000
00000000
00001000
00000000
,  // measure 25
00000100
00000000
00000010
00001000
00000100
00000000
00000010
00000000
,  // measure 26
00000001
00000000
00000100
00000010
00000000
00010000
00001000
00000000
,  // measure 27
01000000
00000000
00010000
00000000
00100000
01000000
10000000
00000000
,  // measure 28
00010000
00000000
00000000
00000000
01000000
00000000
00100000
00000000
00000000
00000000
00000000
00000000
10000000
00000000
00000000
01000000
,  // measure 29
00000000
00000000
10000000
00000000
00010000
01000000
00001000
00000000
,  // measure 30
00010000
00000000
00000100
00000010
00000000
00000000
00000001
00000000
,  // measure 31
00000100
00000000
00000010
00000000
00001000
00000100
00010000
00000000
,  // measure 32
01000000
00000000
10000000
00020000
00000000
00000000
00030000
00000000
,  // measure 33
01000000
00100000
01100000
01100000
,  // measure 34
10000000
01000000
00010000
00001000
,  // measure 35
00000010
00000001
00000011
00000011
,  // measure 36
00001000
00000100
00010000
00001000
,  // measure 37
01000000
00100000
01100000
01100000
,  // measure 38
01000000
00001000
00010000
00000100
,  // measure 39
00000010
00000100
00011000
00011000
,  // measure 40
00010000
00000000
01000000
00000000
10000000
00010000
10000000
00000000
,  // measure 41
00010000
00000000
00010000
00000000
01000000
00100000
00000000
01000000
,  // measure 42
00000000
00000000
00010000
00000000
01000000
00001000
01000000
00000000
,  // measure 43
00001000
00010000
00000100
00000010
,  // measure 44
00000001
00000000
00000100
00000000
00000010
00001000
00000000
00000100
,  // measure 45
00000000
00000000
00010000
00000000
00001000
01000000
00000000
00010000
,  // measure 46
00000000
00000000
10000000
00000000
01000000
00100000
00000000
00010000
,  // measure 47
00000000
00000000
01000000
00000000
01000000
00000000
00000000
00010000
,  // measure 48
00000000
00000000
01000000
00000000
01000000
00000000
00000000
00001000
,  // measure 49
00000000
00000000
00010000
00000000
00000100
00000010
00000000
00000001
,  // measure 50
00000000
00000000
00000100
00000000
00000010
00010000
00000010
00000000
,  // measure 51
00010000
00001000
01000000
00010000
,  // measure 52
00100000
00000000
01000000
00000000
10000000
00010000
00000000
01000000
,  // measure 53
00000000
00000000
00100000
00000000
10000000
00010000
00000000
01000000
,  // measure 54
00000000
00000000
00100000
00000000
10000000
01000000
00000000
00100000
,  // measure 55
00000000
00000000
00001000
00000000
00001000
00000000
00000000
00100000
,  // measure 56
00000000
00001000
00001000
00000000
,  // measure 57
00010000
00000100
00000010
00000100
,  // measure 58
00010000
00000000
00000100
00000000
00000010
00000100
00001000
00000000
,  // measure 59
00000010
00000100
00000001
00000100
,  // measure 60
00000010
00000000
00000100
00000000
00000001
00000100
00001000
00000000
,  // measure 61
00010000
00100000
10000000
00100000
,  // measure 62
00010000
00000000
00100000
00000000
10000000
00100000
01000000
00000000
,  // measure 63
00010000
00100000
01000000
00100000
,  // measure 64
00010000
00000000
00100000
00000000
01000000
10000000
00010000
00000000
,  // measure 65
10000000
01000000
10000000
00000000
01000000
00000000
00100000
00000000
,  // measure 66
00001000
00100000
00001000
00000000
00010000
00000000
00000100
00000000
,  // measure 67
00000010
00000001
00000010
00000000
00000001
00000000
00000100
00000000
,  // measure 68
00000010
00010000
00000010
00000000
00010000
00000000
00001000
00000000
,  // measure 69
01000000
00100000
01000000
00000000
00100000
00000000
10000000
00000000
,  // measure 70
00010000
00100000
00010000
00000000
00100000
00000000
01000000
00000000
,  // measure 71
10000000
01000000
00010000
00000000
00001000
00000000
00000010
00000000
,  // measure 72
00000001
00000100
00000010
00000000
00001000
00000000
00000100
00010000
;

//---------------dance-double - ----------------
#NOTES:
     dance-double:
     :
     Easy:
     5:
     0.235,0.284,0.008,0.047,0.000: // measure 1
00000000
00000000
00000000
00000000
,  // measure 2
00000000
00000000
00000000
00000000
,  // measure 3
00000000
00000000
00000000
00000000
,  // measure 4
00000000
00000000
00000000
00000000
,  // measure 5
00010000
00001000
00000100
00000010
,  // measure 6
00000100
00001000
00010000
00100000
,  // measure 7
00010000
00001000
00000010
00000001
,  // measure 8
00002002
00000000
00003003
00000000
,  // measure 9
00000001
00002000
00003100
00010000
,  // measure 10
00001000
00010000
00001000
01000000
,  // measure 11
00010000
00100000
01000000
01000000
,  // measure 12
10000000
00010000
02000000
03000000
,  // measure 13
00000000
00200000
10300000
00010000
,  // measure 14
10000000
01000000
00010000
00001000
,  // measure 15
00010000
00001000
00000010
00000100
,  // measure 16
00001000
00000001
00000200
00000300
,  // measure 17
00000010
00000010
00001000
00000100
,  // measure 18
00010000
00000000
00001000
00000000
,  // measure 19
00100000
00100000
00010000
01000000
,  // measure 20
00100000
00000000
10000000
00000000
,  // measure 21
01000000
01000000
00100000
01000000
,  // measure 22
10000000
00000000
00010000
00000000
,  // measure 23
01000000
01000000
00001000
00010000
,  // measure 24
00000100
00000000
00010000
00000000
,  // measure 25
00000010
00001000
00000100
00000010
,  // measure 26
00000001
00000000
00000100
00000000
,  // measure 27
00000001
00000010
00000100
00001000
,  // measure 28
00000100
00000000
00010000
00000000
,  // measure 29
00001000
00100000
00001000
00100000
,  // measure 30
00010000
00000000
01000000
00000000
,  // measure 31
00100000
10000000
01000000
00100000
,  // measure 32
01000000
00000000
10000000
00000000
,  // measure 33
00010000
00000000
10000000
10000000
,  // measure 34
10000000
00000000
01000000
00000000
,  // measure 35
00010000
00000000
00001000
00001000
,  // measure 36
00001000
00000000
00000100
00000000
,  // measure 37
00000010
00000000
00001000
00001000
,  // measure 38
00001000
00000000
00000001
00000000
,  // measure 39
00000010
00000000
00000100
00000100
,  // measure 40
00000100
00000000
00000000
00010000
,  // measure 41
00001000
01000000
00001000
00000000
,  // measure 42
01000000
00000000
00010000
00000000
,  // measure 43
10000000
01000000
10000000
00000000
,  // measure 44
01000000
00000000
00100000
00000000
,  // measure 45
00001000
00100000
00001000
00000000
,  // measure 46
00010000
00000000
00000100
00000000
,  // measure 47
00001000
00000010
00000100
00000000
,  // measure 48
00000001
00000010
00000100
00000000
,  // measure 49
00000010
00000001
00000100
00000000
,  // measure 50
00000010
00000000
00001000
00000000
,  // measure 51
00000100
00010000
00001000
00000000
,  // measure 52
00100000
00000000
00010000
00000000
,  // measure 53
01000000
00100000
10000000
00000000
,  // measure 54
01000000
00000000
00100000
00000000
,  // measure 55
00010000
01000000
00001000
00000000
,  // measure 56
00010000
00000100
00001000
00000000
,  // measure 57
00000010
00000010
00000010
00000010
,  // measure 58
00000010
00000000
00000100
00000000
,  // measure 59
00000001
00000001
00000001
00000001
,  // measure 60
00000001
00000000
00001000
00000000
,  // measure 61
00000100
00000100
00000100
00000100
,  // measure 62
00000100
00000000
00010000
00000000
,  // measure 63
00001000
00001000
00001000
00001000
,  // measure 64
00001000
00000000
01000000
00000000
,  // measure 65
00010000
00100000
01000000
10000000
,  // measure 66
00010000
00000000
10000000
00000000
,  // measure 67
01000000
00100000
00010000
01000000
,  // measure 68
00100000
00000000
01000000
00000000
,  // measure 69
00001000
00010000
00000100
00010000
,  // measure 70
00000100
00000000
00000010
00000000
,  // measure 71
00000001
00000100
00000010
00001000
,  // measure 72
00000100
00000000
00001000
00001000
;
