#TITLE:Be quiet;
#SUBTITLE:;
#ARTIST:Ryu☆;
#TITLETRANSLIT:;
#SUBTITLETRANSLIT:;
#ARTISTTRANSLIT:Ryu*;
#GENRE:;
#CREDIT:Silverhawke;
#MENUCOLOR:;
#METERTYPE:DDR;
#BANNER:Be quiet.png;
#BACKGROUND:Be quiet-bg.png;
#LYRICSPATH:;
#CDTITLE:cdtitle.png;
#MUSIC:Be quiet.mp3;
#OFFSET:-0.025;
#SAMPLESTART:73.625;
#SAMPLELENGTH:15.000;
#SELECTABLE:YES;
#LISTSORT:;
#BPMS:0.000=150.000;
#STOPS:;
#BGCHANGES:0.000=Be quiet.avi=1.000=1=1=0,
99999=-nosongbg-=1.000=0=0=0 // don't automatically add -songbackground-
;
#ATTACKS:;

//---------------dance-single - ----------------
#NOTES:
     dance-single:
     :
     Hard:
     15:
     0.736,0.881,0.226,0.035,0.898:
0000
0000
0000
0000
,
0000
0000
0000
0000
,
0000
0000
0000
0000
,
0000
0000
0000
0000
,
0000
0000
0000
0000
,
1100
0100
0010
0000
0001
0100
0001
0100
,
0010
1000
0100
0000
0010
0001
0010
0001
,
0101
0100
0010
0000
0100
0001
0100
0001
,
1001
0000
0000
1100
0000
0000
0110
0000
0011
0000
0000
0000
1000
0001
1000
0001
,
0010
0000
0010
0100
0000
0100
0000
0000
0000
0000
1000
0100
0000
0100
0010
0000
,
0001
0000
0001
0100
0000
0100
0000
0000
0000
0000
0010
1000
0000
1000
0001
0000
,
0010
0000
0100
1000
0000
1000
0000
0000
0000
0000
0001
0100
0000
0100
0010
0000
,
0100
0000
0001
0010
0000
0010
0000
0000
0000
0000
0100
1000
0000
1000
0001
0000
,
0100
0000
0001
0100
0001
0100
0000
0100
0010
0000
1000
0100
1000
0100
0000
0100
,
0010
0000
0001
0010
0001
0010
0000
0010
0100
0000
1000
0010
1000
0010
0000
0010
,
0100
0000
0001
0010
0001
0000
1000
0010
1000
0000
0001
0100
0001
0000
1000
0100
,
0010
0000
0010
0100
1000
0000
0001
0100
0010
1000
0010
0100
0001
1000
0100
0000
,
0010
0001
0010
0100
0000
0000
0000
0000
0000
0000
1000
0000
0000
1000
0000
0000
,
0001
0100
0000
0000
0100
0000
0010
0000
0000
0000
1000
0000
0000
1000
0000
0000
,
0001
0010
0001
1000
0000
0000
0000
0000
0000
0000
0010
0000
0000
0010
0000
0000
,
0100
0001
0000
0000
0001
0000
1000
0000
0001
1000
0001
1000
0001
1000
0001
0000
,
0010
0100
1000
0100
0010
0001
0100
0010
,
1000
0100
0010
0001
0100
1000
0100
0010
,
1000
0100
0010
0001
0100
0010
1000
0100
,
1100
0000
0000
1001
0000
0000
0101
0000
0110
0000
0000
0000
0010
0100
0010
0100
,
0010
0000
1000
0010
0000
0000
0000
0000
0100
0000
0001
0010
0000
0000
0000
0000
,
0100
0000
1000
0001
0000
0000
0000
0000
0101
0000
0110
0000
1010
0000
0000
0000
,
1000
0100
1000
0001
0000
0000
0000
0000
0001
0100
0001
0010
0000
0000
0000
0000
,
0100
1000
0100
0010
0000
0000
0001
0000
1001
0000
0000
0000
1000
0100
0010
0100
,
1000
0001
0100
0001
0000
0000
0000
0000
1000
0010
0100
0001
0000
0000
0000
0000
,
0010
0100
1000
0001
0000
0000
0000
0000
1000
0100
0010
0001
0000
0000
0000
0000
,
1000
0000
1000
0100
0000
0100
0010
0000
0011
0000
1001
0000
,
1000
0100
1000
0001
0100
0001
1000
0010
0100
0001
0010
0100
,
2000
0000
0001
0002
,
0000
0000
0000
3003
,
0001
0000
1000
0000
0100
0010
0000
0010
0000
0000
0000
0000
0001
0000
0001
0000
,
1000
0000
0001
0000
0010
0100
0000
0100
0000
0000
0000
0000
1000
0000
1000
0000
,
0010
0000
0100
0000
0001
0010
0000
0010
0000
0000
0000
0000
0100
0000
0100
0000
,
1000
0000
0001
0000
0100
0010
0000
0010
0000
0000
0000
0000
0100
0000
0100
0000
,
0001
0000
1000
0100
0000
0010
0000
0100
1000
0000
0001
0100
0000
0010
0000
0100
,
0001
0000
1000
0010
0000
0100
0000
0010
1000
0000
0001
0010
0000
0100
0000
0010
,
0001
0000
1000
0100
1000
0000
0001
0100
0001
0000
1000
0010
1000
0000
0001
0010
,
0001
0000
1000
0010
0100
0000
0100
0010
1000
0000
0001
0010
0100
0000
0100
0010
,
0001
0000
1100
0000
,
0101
0000
0011
1010
,
2002
0000
0000
3003
,
1000
0000
0100
0000
0010
0000
0100
1000
0000
1000
0100
0000
0010
0000
0001
0100
,
0010
0000
0100
0000
0001
0000
0010
0100
0000
0100
1000
0000
0001
0000
0100
0010
,
0100
0000
0001
0000
0010
0000
0100
1000
0000
1000
0100
0000
0010
0000
0001
0100
,
0010
0000
1000
0000
0100
0000
0010
0100
0000
0100
1000
0000
0001
0000
0100
0010
,
1000
0000
0001
0000
0100
0000
0010
0100
0000
0001
0100
0000
0010
0000
1000
0100
,
0010
0000
0100
0000
1000
0000
0001
0010
0000
0100
0010
0000
0001
0000
0100
0010
,
1000
0000
0100
0000
1000
0000
0010
0100
0000
0010
1000
0000
0100
0000
0010
0001
,
1000
0000
0000
0001
0000
0000
0100
0000
0110
0000
0000
0000
0001
0010
0100
0010
,
0001
0000
1000
0100
0000
1000
0001
0000
0100
0001
0000
0100
0000
0010
0000
0100
,
0001
0000
1000
0000
0100
0000
0010
0100
0000
1000
0100
0000
0010
0000
0001
0100
,
0010
0000
1000
0100
0000
0010
0001
0000
0100
0010
0000
0100
0000
0001
0000
1000
,
0010
0000
1000
0000
0100
0000
0010
0100
0000
1000
0001
0000
0010
0000
0100
1000
,
0010
0000
0100
0001
0000
0100
0001
0000
0010
0000
0100
1000
0000
0100
1000
0000
,
0001
0000
0100
0010
0000
0100
0010
0000
1000
0000
0100
0010
0000
0100
0010
0000
,
0001
0000
0100
0010
1000
0000
0001
0010
0100
0000
0010
0001
1000
0000
0010
0100
,
0001
0010
0001
0010
0100
1000
0100
1000
0001
0100
0010
1000
0010
0100
0001
0010
,
0100
0000
0100
0000
0100
0000
1000
0100
0000
1000
0100
0000
0010
0000
0001
1000
,
0010
0000
0010
0000
0010
0000
0100
0001
0000
0100
0001
0000
0010
0000
0100
1000
,
0001
0000
0101
0000
0101
0000
0100
0010
0000
0100
0010
0000
1000
0000
0100
1000
,
0001
0000
1001
0000
1001
0000
1000
0100
0000
1000
0100
0000
0010
0000
0001
1000
,
0100
0000
0010
0100
0000
1000
0010
0000
0100
0001
0000
1000
0000
0100
0000
0010
,
0100
0000
1000
0000
0001
0000
0100
0001
0000
1000
0100
0000
0010
0000
0100
1000
,
0001
0100
0000
0000
1000
0100
0000
0000
0001
0010
0000
0000
1000
0010
0000
0000
,
0100
0001
0000
0000
0100
1000
0000
0000
0010
0100
0001
0100
0010
1000
0100
0010
,
0001
0000
0000
0000
;

//---------------dance-single - ----------------
#NOTES:
     dance-single:
     :
     Medium:
     11:
     0.492,0.547,0.069,0.026,0.369:
0000
0000
0000
0000
,
0000
0000
0000
0000
,
0000
0000
0000
0000
,
0000
0000
0000
0000
,
0000
0000
0000
0000
,
1000
0001
1000
0000
0001
1000
0001
0000
,
1000
0100
1000
0000
0100
1000
0100
0000
,
1000
0010
0100
0000
0010
0100
0001
0000
,
1000
0000
0000
0100
0000
0000
1000
0000
0001
0000
0000
0000
1000
0000
1000
0000
,
0100
0000
0000
0100
0010
0000
0000
0000
0010
0000
0000
0010
0001
0000
0000
0000
,
0001
0000
0000
0001
1000
0000
0000
0000
1000
0000
0000
1000
0010
0000
0000
0000
,
0010
0000
0000
0010
0100
0000
0000
0000
0100
0000
0000
0100
0001
0000
0000
0000
,
0001
0000
0000
0001
1000
0000
0000
0000
1000
0000
0000
1000
0100
0000
0010
0000
,
0100
0000
0000
0100
1000
0000
0000
1000
0001
0000
0000
0001
0100
0000
0000
0000
,
0100
0000
0000
0100
0010
0000
0000
0010
1000
0000
0000
1000
0001
0000
0000
0000
,
0001
0000
0000
1000
0010
0000
0000
1000
0100
0000
0000
1000
0001
0000
0000
1000
,
0100
0100
0010
0010
0001
1000
1001
0000
,
0001
0000
1000
0100
0000
0000
0000
0000
0000
0000
1000
0000
0000
1000
0000
0000
,
1000
0000
0000
0000
0000
0000
0000
0000
0000
0000
0001
0000
0000
0001
0000
0000
,
0001
0000
0000
0000
0000
0000
0000
0000
0000
0000
0100
0000
0000
0100
0000
0000
,
0100
0000
0000
0000
0010
1000
1001
0000
,
0001
0010
0100
0000
0010
0001
0100
0000
,
0010
1000
0100
0000
0010
0100
1000
0000
,
0001
0100
1000
0000
1000
0100
0001
0000
,
1000
0000
0000
0001
0000
0000
1000
0000
0100
0000
0000
0000
0020
0000
0001
0000
,
0031
0100
0010
0000
1000
0100
0010
0000
,
0001
0100
1000
0000
1100
0100
0101
0000
,
1000
0100
0010
0000
0100
1000
0001
0000
,
1000
0000
0000
0010
0000
0000
0001
0000
0011
0000
0000
0000
0010
0000
1000
0000
,
0001
0100
0001
0100
0010
0100
0001
0000
,
1000
0100
1000
0100
0010
0100
1000
0000
,
0001
0000
0000
1000
0000
0000
0010
0000
0010
0000
0010
0000
,
0100
0000
0100
0001
0000
0001
1000
0000
1000
0100
0000
0100
,
0020
0000
0030
0000
,
0000
0000
0000
0000
,
1000
0000
0001
0000
0100
0000
0000
0100
0000
0000
0000
0000
0100
0000
0100
0000
,
0001
0000
1000
0000
0100
0000
0000
0100
0000
0000
0000
0000
0100
0000
0100
0000
,
1000
0000
0001
0000
0010
0000
0000
0010
0000
0000
0000
0000
0010
0000
0010
0000
,
0001
0000
1000
0000
0010
0000
0000
0010
0000
0000
0000
0000
0010
0000
0010
0000
,
1000
0000
0000
1000
0100
0000
0000
0000
0001
0000
0000
0001
0100
0000
0000
0000
,
1000
0000
0000
1000
0010
0000
0000
0000
0001
0000
0000
0001
0010
0000
0000
0000
,
1000
0000
0000
1000
0100
0000
0000
0100
0010
0000
0000
0010
0001
0000
0000
0001
,
0100
0000
0000
0100
0010
0000
0000
0010
1000
0000
0000
1000
0001
0000
0000
0001
,
0200
0000
0001
0000
,
0010
0000
1000
0010
,
0301
0000
0000
0000
,
1000
0000
0001
0000
0100
0000
0000
0100
0000
0000
0100
0000
0001
0000
0000
0000
,
0001
0000
0010
0000
0100
0000
0000
0100
0000
0000
0100
0000
1000
0000
0000
0000
,
1000
0000
0010
0000
0100
0000
0000
0100
0000
0000
0100
0000
0010
0000
0000
0000
,
0010
0000
1000
0000
0001
0000
0000
0001
0000
0000
0001
0000
0010
0000
0100
0000
,
1000
0000
0010
0000
0100
0000
0000
0100
0000
0000
0100
0000
0001
0000
0000
0000
,
0001
0000
0010
0000
0100
0000
0000
0100
0000
0000
0100
0000
1000
0000
0000
0000
,
1000
0000
0010
0000
0100
0000
0000
0100
0000
0000
0100
0000
0001
0000
0000
0000
,
0001
0000
0000
0010
0000
0000
0100
0000
1000
0000
0000
0000
0001
0000
0001
0000
,
1000
0000
0000
0100
0000
0000
1000
0000
0000
0001
0000
0100
0000
0000
0001
0000
,
1000
0000
0100
0000
0010
0000
0000
0100
0000
0000
1000
0000
0010
0000
0100
0000
,
0001
0000
0000
1000
0000
0000
0100
0000
0000
1000
0000
0010
0000
0000
0100
0000
,
0001
0000
1000
0000
0100
0000
0010
0100
0000
0000
1000
0000
1001
0000
0000
0000
,
0001
0000
0000
0100
0000
0000
0001
0000
1000
0000
0000
0100
0000
0000
1000
0000
,
0001
0000
0000
0010
0000
0000
0001
0000
1000
0000
0000
0010
0000
0000
1000
0000
,
0001
0000
0000
0100
0001
0000
0000
1000
0010
0000
0000
1000
0100
0000
0000
0010
,
0001
0100
1000
0100
0001
0010
1000
0010
,
0100
0000
1000
0000
1000
0000
0001
0100
0000
0000
0001
0000
1000
0000
0000
0000
,
1000
0000
0001
0000
0001
0000
1000
0100
0000
0000
0010
0000
0001
0000
0000
0000
,
0001
1000
1100
0000
1000
0000
0001
0000
,
1000
0010
0010
0000
0100
0001
1000
0100
,
0010
0000
0000
0001
0000
0000
1000
0000
0000
0010
0000
1000
0000
0000
0100
0000
,
0010
0000
0001
0000
0100
0000
0000
1000
0000
0000
0100
0000
0001
0000
1000
0000
,
0100
0010
0000
0000
0010
0001
0000
0000
0001
1000
0000
0000
1000
0010
0000
0000
,
0010
1000
0000
0000
0001
0100
0000
0000
0001
0010
0000
0000
0100
1000
0000
0000
,
1001
0000
0000
0000
;

//---------------dance-single - ----------------
#NOTES:
     dance-single:
     :
     Easy:
     6:
     0.315,0.456,0.052,0.121,0.000:
0000
0000
0000
0000
,
0000
0000
0000
0000
,
0000
0000
0000
0000
,
0000
0000
0000
0000
,
0000
0000
0000
0000
,
1000
1000
0001
0001
,
0100
0000
0010
0000
0100
0010
0100
0000
,
0001
0001
1000
1000
,
0100
0010
0110
0000
,
2000
3100
0001
0100
,
0002
0103
1000
0100
,
2000
3010
0001
0010
,
0002
0013
1000
0010
,
0002
0103
0020
1030
,
0200
0310
0002
1003
,
0020
2030
3002
0203
,
0310
0000
0010
0000
0010
0100
0010
0000
,
1000
0000
0000
0000
,
0001
0100
0000
0000
,
0010
0000
0000
0000
,
1000
0100
0010
0010
,
0001
1000
0001
1000
,
0100
0100
0010
0001
,
1000
0001
1000
0001
,
0100
0100
0010
1000
,
0001
0001
0010
0010
,
0100
0100
1000
0001
,
1000
1000
0010
0010
,
0100
0001
1001
0000
,
0001
0001
1000
1000
,
0001
0001
1000
1000
,
0100
0010
0001
1000
,
2002
0000
0000
0000
,
3003
0000
0000
0000
,
0000
0000
0000
0000
,
1000
0100
0000
0010
,
0001
0100
0000
0010
,
1000
0100
0000
0010
,
0001
0100
0000
0010
,
1000
0100
0010
0001
,
1000
0010
0100
0001
,
1000
0100
0100
0100
,
0100
0100
0100
0100
,
0100
0000
0010
0000
,
0001
0000
1000
0001
,
1001
0000
0000
0000
,
1000
0100
0010
0010
,
0001
0100
0010
0010
,
1000
0001
0100
0100
,
0001
1000
0100
0100
,
1000
1000
0100
0010
,
0001
0001
0100
0010
,
1000
1000
0001
0100
,
0001
1000
1001
0000
,
0010
0010
1000
1000
,
0001
0010
0100
1000
,
0001
0001
0100
0100
,
0010
0000
1000
0000
0001
0010
0001
0000
,
1000
0100
1000
0100
,
0010
0001
0010
0001
,
1000
0010
1000
0010
,
0100
0000
0001
0000
0100
0001
1000
0000
,
0001
0001
1000
1000
,
0100
0010
0001
0001
,
1000
0001
1000
0001
,
0100
0010
0100
0010
,
1000
0100
0010
0001
,
0010
0100
1000
0001
,
0100
0100
0010
0010
,
1000
0000
0100
0000
0010
0001
1000
0000
,
1001
0000
0000
0000
;

//---------------dance-single - ----------------
#NOTES:
     dance-single:
     :
     Beginner:
     4:
     0.161,0.213,0.000,0.000,0.000:
0000
0000
0000
0000
,
0000
0000
0000
0000
,
0000
0000
0000
0000
,
0000
0000
0000
0000
,
0000
0000
0000
0000
,
1000
0000
1000
0000
,
0001
0000
0001
0000
,
1000
0000
1000
0000
,
0001
0000
0001
0000
,
0100
0100
0000
0000
,
0010
0010
0000
0000
,
0100
0100
0000
0000
,
0010
0010
0000
0000
,
1000
1000
0000
0000
,
0001
0001
0000
0000
,
1000
1000
0000
0000
,
0001
0001
0001
0001
,
0001
0000
0000
0000
,
0100
0000
0000
0000
,
0010
0000
0010
0000
,
0010
0000
0000
0000
,
1000
0000
0000
0000
,
0001
0000
0000
0000
,
1000
0000
0000
0000
,
0001
0001
0001
0000
,
1000
0000
1000
0000
,
0001
0000
0001
0000
,
1000
0000
0001
0000
,
1000
0000
0001
0000
,
0100
0000
0100
0000
,
0010
0000
0010
0000
,
0100
0000
0010
0000
,
0100
0000
0010
0000
,
0100
0000
0000
0000
,
0000
0000
0000
0000
,
0001
0000
0000
0000
,
1000
0000
0000
0000
,
0100
0000
0000
0000
,
0001
0000
0000
0000
,
0010
0000
0010
0000
,
1000
0000
1000
0000
,
0100
0000
0100
0000
,
0001
0000
0001
0000
,
0010
0000
0010
0000
,
0010
0000
0010
0010
,
0010
0000
0000
0000
,
1000
0000
1000
0000
,
0001
0000
0001
0000
,
1000
0000
1000
0000
,
0001
0000
0001
0000
,
0100
0000
0010
0000
,
0100
0000
0010
0000
,
0100
0000
0010
0000
,
0100
0000
0010
0000
,
1000
1000
1000
0000
,
0001
0000
1000
0000
,
0001
0001
0001
0000
,
1000
0000
0001
0000
,
0100
0100
0100
0000
,
0010
0010
0010
0000
,
0100
0100
0100
0000
,
0010
0010
0010
0000
,
1000
0000
1000
0000
,
0001
0000
0001
0000
,
1000
0000
0001
0000
,
0100
0000
0100
0000
,
0001
0000
1000
0000
,
0100
0100
0100
0000
,
1000
0000
0001
0000
,
0100
0100
0100
0100
,
0100
0000
0000
0000
;

//---------------dance-double - ----------------
#NOTES:
     dance-double:
     :
     Hard:
     15:
     0.683,0.820,0.243,0.061,0.781:
00000000
00000000
00000000
00000000
,
00000000
00000000
00000000
00000000
,
00000000
00000000
00000000
00000000
,
00000000
00000000
00000000
00000000
,
00000000
00000000
00000000
00000000
,
00001000
00010000
01000000
10000000
00000000
01000000
00010000
00001000
,
00000000
00000100
00000001
00001000
00000000
00000001
00000010
00001000
,
00000000
00010000
01000000
10000000
00000000
00100000
01000000
00001000
,
00011000
00000000
00000000
00010100
00000000
00000000
01001000
00000000
00011000
00000000
00000000
00000000
00001000
00010000
00001000
00000000
,
00010000
00000000
00000000
01000000
10000000
00000000
00000000
00000000
10000000
00000000
00000000
01000000
00010000
00000000
00000000
00010000
,
00001000
00000000
00000000
00001000
00000100
00000000
00000000
00000000
00000001
00000000
00000000
00000001
00000010
00000000
00000000
00000010
,
00000100
00000000
00000000
00000100
00010000
00000000
00000000
00000000
01000000
00000000
00000000
01000000
10000000
00000000
00000000
10000000
,
00100000
00000000
00000000
00100000
00010000
00000000
00000000
00000000
00001000
00000000
00000000
00001000
00000010
00000000
00000000
00000010
,
00000100
00000000
00000000
00000100
00010000
00000000
00000000
00010000
00100000
00000000
00000000
00100000
01000000
00000000
00000000
01000000
,
00001000
00000000
00000000
00001000
00000010
00000000
00000000
00000010
00000001
00000000
00000000
00000001
00000100
00000000
00000000
00000100
,
00001000
00010000
00100000
00010000
00001000
00010000
01000000
10000000
,
00100000
01000000
00100000
01000000
00010000
00000000
10000000
00000000
01000000
00100000
01000000
00100000
00010000
00000000
10000000
00000000
,
01000000
00000000
00010000
00001000
00000000
00000000
00000000
00000000
00000000
00000000
00000100
00000000
00000000
00000100
00000000
00000000
,
00000100
00000001
00000000
00000000
00000010
00000000
00000000
00000000
00000000
00000000
00001000
00000000
00000000
00001000
00000000
00000000
,
00001000
00000000
00010000
01000000
00000000
00000000
00000000
00000000
00000000
00000000
10000000
00000000
00000000
10000000
00000000
00000000
,
10000000
00010000
00000000
00000000
01000000
00000000
00001000
00000000
00010000
00000100
00010000
00000100
00000010
00000000
00000001
00000000
,
00000100
00000000
00000010
00001000
00000010
00000000
00010000
00000000
00001000
00000000
00100000
00000000
00010000
00000000
01000000
00000000
,
00100000
01000000
00000000
00000000
00010000
00000000
10000000
00000000
01000000
00000000
00010000
00000000
00001000
00000000
00000100
00000000
,
00000010
00000000
00001000
00000100
00001000
00000000
00000010
00000000
00010000
00000000
00001000
00000000
00100000
00000000
00010000
00000000
,
01010000
00000000
00000000
10100000
00000000
00000000
11000000
00000000
00110000
00000000
00000000
00000000
10000000
01000000
10000000
01000000
,
00100000
00000000
00001000
00100000
00000000
00000000
00000000
00000000
00001000
00000000
00010000
00000100
00000000
00000000
00000000
00000000
,
00000010
00000000
00000001
00001000
00000000
00000000
00000000
00000000
00000101
00000000
00000100
00000000
00001100
00000000
00000000
00000000
,
00001000
00000000
00100000
00010000
00000000
00000000
00000000
00000000
10000000
00000000
01000000
00100000
00000000
00000000
00000000
00000000
,
00001000
00000000
00010000
00000100
00000000
00000000
00000010
00000000
00000011
00000000
00000000
00000000
00000001
00000100
00000001
00000100
,
00000010
00010000
00000010
00010000
00000000
00000000
00000000
00000000
00001000
01000000
00001000
01000000
00000000
00000000
00000000
00000000
,
00010000
00100000
00010000
00100000
00000000
00000000
00000000
00000000
01000000
10000000
01000000
10000000
00020000
00000000
00000000
00000000
,
10030000
01000000
10000000
01000000
00100000
01000000
00100000
00000000
00001000
00000000
00101000
00000000
,
00100000
00001000
00010000
00000100
00010000
00001000
01000000
00001000
00010000
00000010
00000100
00002000
,
00020000
00000000
00003000
00030000
,
00000000
00000000
00000000
00000000
,
01000000
00000000
10000000
00000000
00010000
10000000
00000000
10000000
00000000
00000000
00000000
00000000
00010000
00000000
01000000
00000000
,
00001000
00000000
00010000
00000000
00000100
00001000
00000000
00001000
00000000
00000000
00000000
00000000
00000010
00000000
00000100
00000000
,
00000001
00000000
00000010
00000000
00000001
00001000
00000000
00001000
00000000
00000000
00000000
00000000
00000100
00000000
00010000
00000000
,
00001000
00000000
00100000
00000000
00010000
01000000
00000000
01000000
00000000
00000000
00000000
00000000
00010000
00000000
10000000
00000000
,
00010000
00000000
01000000
00001000
00000000
00010000
00000000
00010000
00001000
00000000
00100000
00001000
00000000
00010000
00000000
00010000
,
00000100
00000000
00001000
00000010
00000000
00000100
00000000
00000100
00000001
00000000
00001000
00000100
00000000
00010000
00000000
00010000
,
00001000
00000000
00000000
00100000
00010000
00000000
00000000
10000000
01000000
00000000
00000000
00100000
00010000
00000000
00000000
00001000
,
00000100
00000000
00000000
00000010
00000001
00000000
00000000
00000100
00001000
00000000
00000000
00010000
00100000
00000000
00000000
10000000
,
00010000
00000000
01010000
00000000
,
00110000
00000000
00101000
00011000
,
00010010
00000000
00000000
00000000
,
00000010
00000000
00001000
00000000
00000100
00000000
00010000
00001000
00000000
00000000
00100000
00000000
00110000
00000000
00000000
00010000
,
01000000
00000000
00100000
00000000
10000000
00000000
01000000
00100000
00000000
00000000
00001000
00000000
00011000
00000000
00000000
00010000
,
00000100
00000000
00000010
00000000
00000001
00000000
00000100
00000010
00000000
00000000
00010000
00000000
00011000
00000000
00000000
00001000
,
01000000
00000000
00001000
00000000
00010000
00000000
00000100
00000010
00000000
00000000
00000001
00000000
00000101
00000000
00000000
00000100
,
00001000
00000000
00010000
00000000
01000000
00000000
10000000
00010000
00000000
00010000
10000000
00000000
11000000
00000000
00000000
01000000
,
00100000
00000000
00001000
00000000
00010000
00000000
00000100
00000010
00000000
00000010
00000100
00000000
00001100
00000000
00000000
00001000
,
00000010
00000000
00000100
00000000
00000001
00000000
00000010
00000100
00000000
00000100
00010000
00000000
00011000
00000000
00000000
00001000
,
01000000
00000000
00000000
01100000
00000000
00000000
10100000
00000000
10010000
00000000
00000000
00000000
10000000
01000000
00100000
01000000
,
10000000
00000000
00010000
01000000
00000000
01000000
00010000
00000000
00100000
00001000
00000000
00001000
00000000
00001000
00000000
00010000
,
00000100
00000000
00000010
00000000
00000100
00000000
00001000
00000010
00000000
00000100
00000001
00000000
00000011
00000000
00000000
00000001
,
00001000
00000000
00000100
00010000
00000000
00010000
00000100
00000000
00010000
00001000
00000000
01000000
00000000
01000000
00000000
01000000
,
00100000
00000000
10000000
00000000
01000000
00000000
00100000
00010000
00000000
00000000
10000000
01000000
00020000
00000000
00000000
00000000
,
00031000
00000000
00001000
00000100
00000000
00000100
00000010
00000000
00010000
00000000
00010000
01000000
00000000
01000000
00100000
00000000
,
00001000
00000000
00001000
00000100
00000000
00000100
00000010
00000000
00010000
00000000
00010000
01000000
00000000
01000000
00100000
00000000
,
00010000
00000000
01000000
00100000
01000000
00000000
00100000
10000000
00100000
00000000
10000000
01000000
10000000
00000000
01000000
00100000
,
01000000
00000000
01000000
00000000
00010000
00000000
00010000
00000000
00001000
01000000
00001000
01000000
00200000
00000000
00000000
00000000
,
10300000
00000000
00010000
00000000
10000000
00000000
01000000
00100000
00000000
00100000
00001000
00000000
00010000
00000000
00000100
00000010
,
00000100
00000000
00001000
00000000
00000010
00000000
00000100
00000001
00000000
00000001
00001000
00000000
00000100
00000000
00010000
00001000
,
02000000
00000000
00100000
00000000
03100000
00000000
10000000
01000000
00000000
01000000
00100000
00000000
00001000
00000000
00010000
00000100
,
00002000
00000000
00000010
00000000
00003010
00000000
00000100
00000001
00000000
00000001
00001000
00000000
00000100
00000000
00010000
00001000
,
01000000
00000000
00100000
10000000
00000000
10000000
00010000
00000000
00100000
00001000
00000000
00001000
00000000
00001000
00000000
00010000
,
00000100
00000000
00001000
00000000
00000010
00000000
00000100
00000001
00000000
00001000
00000100
00000000
00000010
00000000
00000001
00000000
,
00001000
00000100
00001000
00000000
00000100
00010000
00000100
00000000
00010000
00001000
00010000
00000000
00001000
01000000
00001000
00000000
,
01000000
00100000
01000000
00000000
00100000
10000000
00100000
00000000
01000000
00010000
10000000
01000000
00100000
01000000
10000000
00010000
,
01000000
00000000
00000000
00000000
;

//---------------dance-double - ----------------
#NOTES:
     dance-double:
     :
     Medium:
     11:
     0.490,0.516,0.087,0.043,0.265:
00000000
00000000
00000000
00000000
,
00000000
00000000
00000000
00000000
,
00000000
00000000
00000000
00000000
,
00000000
00000000
00000000
00000000
,
00000000
00000000
00000000
00000000
,
10000000
00010000
01000000
00000000
00010000
01000000
00001000
00000000
,
00010000
00000100
00001000
00000000
00000100
00001000
00000010
00000000
,
00000100
00000001
00001000
00000000
00000001
00000100
00000010
00000000
,
00000100
00000000
00000000
00000001
00000000
00000000
00001000
00000000
00001001
00000000
00000000
00000000
00000110
00000000
00000000
00000000
,
00000001
00000000
00000000
00001000
00000000
00000000
00000100
00000000
00000000
00000000
00010000
00000000
00000000
00001000
00000000
00000000
,
01000000
00000000
00000000
00010000
00000000
00000000
00100000
00000000
00000000
00000000
01000000
00000000
00000000
10000000
00000000
00000000
,
00100000
00000000
00000000
01000000
00000000
00000000
00010000
00000000
00000000
00000000
00100000
00000000
00000000
00001000
00000000
00000000
,
00010000
00000000
00000000
00000100
00000000
00000000
00000010
00000000
00000000
00000000
00000001
00000000
00000000
00000100
00000000
00000000
,
00000010
00000000
00000000
00001000
00000000
00000000
00000100
00000000
00010000
00000000
00000000
00001000
00000000
00000000
00100000
00000000
,
00010000
00000000
00000000
01000000
00000000
00000000
00100000
00000000
10000000
00000000
00000000
01000000
00000000
00000000
00010000
00000000
,
00001000
00000000
00000000
00001000
00010000
00000000
00000000
00010000
00000100
00000000
00000000
00000100
00000010
00000000
00000000
00000010
,
00000001
00000100
00001000
00000000
00010000
00100000
10000000
00010000
,
00100000
00000000
00000000
00100000
00000000
00000000
00000000
00000000
00000000
00000000
01000000
00000000
00000000
01000000
00000000
00000000
,
01000000
00000000
00000000
00000000
01000000
00000000
00000000
00000000
00000000
00000000
10000000
00000000
00000000
10000000
00000000
00000000
,
10000000
00000000
00000000
10000000
00000000
00000000
00000000
00000000
00000000
00000000
00010000
00000000
00000000
00010000
00000000
00000000
,
00010000
00000000
00010000
00000000
00100000
01000000
10000000
00010000
,
01000000
00001000
00010000
00000000
00001000
00010000
00000100
00000000
,
00000010
00000100
00000001
00000000
00000100
00010000
00001000
00000000
,
00100000
00010000
01000000
00000000
10000000
01000000
00010000
00000000
,
00100000
00000000
00000000
00001000
00000000
00000000
00010000
00000000
00010100
00000000
00000000
00000000
01001000
00000000
00000000
00000000
,
00010000
01000000
10000000
00000000
01000000
00001000
00010000
00000000
,
00001000
00010000
00000100
00000000
00000010
00000010
00000011
00000000
,
00000001
00000100
00001000
00000000
00010000
00100000
10000000
00000000
,
00010000
00000000
00000000
10000000
00000000
00000000
01000000
00000000
01100000
00000000
00000000
00000000
10010000
00000000
00000000
00000000
,
10000000
01000000
00010000
00000000
00001000
00000010
00000001
00000000
,
00000001
00000100
00001000
00000000
00010000
00100000
20000000
00000000
,
30010000
00000000
00010000
01000000
00000000
01000000
00001000
00000000
00001000
00000000
00001000
00000000
,
00010000
00000000
00010000
00000100
00000000
00000100
00000010
00000000
00000010
00000001
00000100
00000010
,
00002000
00000000
00000200
00003300
,
00000000
00000000
00000000
00000000
,
00000001
00000000
00000100
00000000
00000010
00000000
00000000
00000010
00000000
00000000
00000000
00000000
00010000
00000000
00000000
00000000
,
00001000
00000000
01000000
00000000
00100000
00000000
00000000
00100000
00000000
00000000
00000000
00000000
10000000
00000000
00000000
00000000
,
00010000
00000000
01000000
00000000
00001000
00000000
00000000
00001000
00000000
00000000
00000000
00000000
00010000
00000000
00000000
00000000
,
00000100
00000000
00000010
00000000
00000001
00000000
00000000
00000001
00000000
00000000
00000000
00000000
00001000
00000000
00000000
00000000
,
00000100
00000000
00000000
00000100
00010000
00000000
00000000
00000000
00001000
00000000
00000000
00001000
01000000
00000000
00000000
00000000
,
01000000
00000000
00000000
01000000
00100000
00000000
00000000
00000000
10000000
00000000
00000000
10000000
01000000
00000000
00000000
00000000
,
10000000
00000000
00000000
10000000
00010000
00000000
00000000
00010000
01000000
00000000
00000000
01000000
00001000
00000000
00000000
00001000
,
00010000
00000000
00000000
00010000
00000100
00000000
00000000
00000100
00001000
00000000
00000000
00001000
00000010
00000000
00000000
00000010
,
00000200
00000000
00000001
00000000
,
00000010
00000000
00001000
00010000
,
00001300
00000000
00000000
00000000
,
00001000
00000000
00010000
00000000
01000000
00000000
00000000
01000000
10000000
00000000
00010000
00000000
10000000
00000000
00000000
00000000
,
00010000
00000000
01000000
00000000
00001000
00000000
00000000
00001000
00010000
00000000
00000100
00000000
00001000
00000000
00000000
00000000
,
00000010
00000000
00000100
00000000
00000001
00000000
00000000
00000001
00001000
00000000
00000100
00000000
00010000
00000000
00000000
00000000
,
00001000
00000000
01000000
00000000
00010000
00000000
00000000
00010000
00100000
00000000
01000000
00000000
10000000
00000000
00000000
00000000
,
00010000
00000000
01000000
00000000
00010000
00000000
00000000
00010000
10000000
00000000
01000000
00000000
00010000
00000000
00000000
00000000
,
00001000
00000000
00010000
00000000
00001000
00000000
00000000
00001000
00010000
00000000
00000100
00000000
00000010
00000000
00000000
00000000
,
00000001
00000000
00000100
00000000
00000001
00000000
00000000
00000001
00001000
00000000
00000100
00000000
00010000
00000000
00001000
00000000
,
01000000
00000000
00000000
00100000
00000000
00000000
01000000
00000000
01100000
00000000
00000000
00000000
10010000
00000000
00000000
00000000
,
10000000
01000000
00100000
01000000
10000000
00100000
01000000
00000000
,
00010000
01000000
00010000
00100000
00001000
00010000
00001000
00000000
,
00010000
00000100
00010000
00000100
00001000
00000100
00000010
00000000
,
00000001
00000100
00000010
00000000
00001000
00000100
00000010
00000000
,
00000001
00000100
00000010
00000100
00000001
00001000
00000100
00000000
,
00010000
00001000
00100000
00010000
01000000
00100000
10000000
00000000
,
00010000
00000000
00000000
00010000
00100000
00000000
00000000
00100000
00001000
00000000
00000000
00001000
00010000
00000000
00000000
00010000
,
00000100
00001000
00000100
00001000
00000001
00000100
00000020
00000000
,
00001030
00001000
00000100
00000100
00010000
00001000
01000000
00000000
,
00010000
00010000
10000000
10000000
01000000
00100000
00010000
00000000
,
10000000
01000000
01000000
00000000
00100000
00010000
01000000
00000000
,
00001000
00010000
00010000
00000000
00000100
00001000
00000010
00000000
,
00000100
00000001
00000100
00000001
00001000
00000100
00000100
00000000
,
00010000
00001000
00010000
00001000
00100000
00010000
00010000
00000000
,
10000000
00010000
00001000
00000001
,
00001000
00000000
00010000
00000000
10000000
01000000
00100000
00010000
,
10010000
00000000
00000000
00000000
;

//---------------dance-double - ----------------
#NOTES:
     dance-double:
     :
     Easy:
     4:
     0.224,0.273,0.009,0.043,0.000: // measure 1
00000000
00000000
00000000
00000000
,  // measure 2
00000000
00000000
00000000
00000000
,  // measure 3
00000000
00000000
00000000
00000000
,  // measure 4
00000000
00000000
00000000
00000000
,  // measure 5
00000000
00000000
00000000
00000000
,  // measure 6
10000000
00000000
00100000
00000000
,  // measure 7
01000000
00000000
00001000
00000000
,  // measure 8
00010000
00000000
00000010
00000000
,  // measure 9
00000100
00000010
00000010
00000000
,  // measure 10
00010000
00001000
00000000
01000000
,  // measure 11
00100000
01000000
00000000
01000000
,  // measure 12
00001000
00010000
00000000
00010000
,  // measure 13
00000100
00000010
00000000
00000010
,  // measure 14
00000001
00000001
00001000
00001000
,  // measure 15
00010000
00010000
10000000
10000000
,  // measure 16
01000000
00100000
01000000
00100000
,  // measure 17
00010000
10000000
00010000
10000000
,  // measure 18
00200000
00000000
00300000
00000000
,  // measure 19
02000000
00000000
03000000
00000000
,  // measure 20
00002000
00000000
00003000
00000000
,  // measure 21
00020000
00000000
00030000
00000000
,  // measure 22
00000100
00000000
00000010
00000000
,  // measure 23
00000001
00001000
00000001
00000000
,  // measure 24
00000010
00000000
00000010
00000000
,  // measure 25
00000100
00010000
00000100
00000000
,  // measure 26
00010000
00000000
00001000
00000000
,  // measure 27
01000000
00000000
00100000
00100000
,  // measure 28
01000000
00000000
00010000
00000000
,  // measure 29
10000000
00010000
10000000
00000000
,  // measure 30
01000000
00000000
00010000
00000000
,  // measure 31
00001000
00000000
00000100
00000000
,  // measure 32
00000001
00001000
00000001
00000010
,  // measure 33
00000100
00000100
00010000
00010000
,  // measure 34
00002000
00000000
00003000
00000000
,  // measure 35
00000000
00000000
00000000
00000000
,  // measure 36
00010000
00000000
00000000
01000000
,  // measure 37
10000000
00000000
00000000
10000000
,  // measure 38
00100000
00000000
00000000
00100000
,  // measure 39
00010000
00000000
00000000
00010000
,  // measure 40
00001000
00000000
00000100
00000000
,  // measure 41
00000001
00000000
00000010
00000000
,  // measure 42
00000100
00010000
00000100
00010000
,  // measure 43
00001000
01000000
00001000
01000000
,  // measure 44
00100000
00000000
10000000
00000000
,  // measure 45
01000000
00000000
00100000
00010000
,  // measure 46
10010000
00000000
00000000
00000000
,  // measure 47
10000000
00010000
10000000
00000000
,  // measure 48
00010000
01000000
00010000
00000000
,  // measure 49
01000000
00001000
01000000
00000000
,  // measure 50
00001000
00001000
00001000
00000000
,  // measure 51
00010000
00000100
00010000
00000000
,  // measure 52
00000100
00000010
00000100
00000000
,  // measure 53
00000010
00000001
00000010
00000000
,  // measure 54
00000001
00000001
00000001
00000000
,  // measure 55
00001000
00000000
00001000
00000000
,  // measure 56
00001000
00000100
00001000
00000100
,  // measure 57
00010000
00000000
00010000
00000000
,  // measure 58
00010000
00001000
00010000
00001000
,  // measure 59
01000000
00000000
01000000
00000000
,  // measure 60
00100000
00000000
00100000
00000000
,  // measure 61
10000000
10000000
10000000
10000000
,  // measure 62
10000000
00010000
10000000
00010000
,  // measure 63
00100000
00000000
00100000
00000000
,  // measure 64
00001000
00010000
00000100
00001000
,  // measure 65
00000010
00000000
00000010
00000000
,  // measure 66
00000010
00000100
00000001
00001000
,  // measure 67
00000100
00000000
00010000
00000000
,  // measure 68
00001000
01000000
00010000
00100000
,  // measure 69
01000000
10000000
01000000
10000000
,  // measure 70
00010000
01000000
00010000
01000000
,  // measure 71
00100000
00000000
00000000
00000000
;
