#TITLE:BLAOWOAW;
#SUBTITLE:;
#ARTIST:Noisia feat. Foreign Beggars vs. Junior Campbell and Mike O'Donnell;
#TITLETRANSLIT:;
#SUBTITLETRANSLIT:;
#ARTISTTRANSLIT:;
#GENRE:;
#CREDIT:Silverhawke;
#MENUCOLOR:;
#METERTYPE:DDR;
#BANNER:BLAOWOAW.png;
#BACKGROUND:BLAOWOAW-bg.png;
#LYRICSPATH:;
#CDTITLE:cdtitle.png;
#MUSIC:BLAOWOAW.mp3;
#OFFSET:-0.028;
#SAMPLESTART:50.188;
#SAMPLELENGTH:15.000;
#SELECTABLE:YES;
#LISTSORT:;
#DISPLAYBPM:110.010;
#BPMS:0.000=110.010;
#STOPS:;
#BGCHANGES:;
#ATTACKS:;

//---------------dance-single - ----------------
#NOTES:
     dance-single:
     :
     Hard:
     12:
     0.522,0.475,0.259,0.278,0.333:
0000
0000
0000
0000
,
0000
0000
0000
0000
,
0000
0000
0000
0000
,
0000
0000
0000
0000
,
1000
0100
0010
0001
0000
0001
0100
0010
,
1000
0000
0001
0100
0001
0000
1000
0100
1000
0000
0001
0000
0010
0000
0100
0000
,
0000
1001
0000
0010
0001
1000
0000
0010
,
0100
0000
0001
0010
0001
0000
1000
0010
1000
0000
0001
0000
0010
0000
0100
0000
,
2002
0000
0000
0000
3003
0000
0100
0010
0100
0000
1000
0000
0000
0000
0001
0000
,
0100
0000
0010
0100
0010
0000
1000
0100
1000
0000
0001
0000
0100
0000
0010
0000
,
2002
0000
3003
0100
0001
1000
0000
0100
,
0010
0000
0001
1000
0001
0000
0100
0010
0100
0000
0001
0000
0010
0000
0100
0000
,
1000
0000
0001
0000
0000
0101
0000
0000
1000
0000
0000
1100
0000
0000
0001
0000
,
0010
0000
0100
0000
0000
1100
0000
0000
0010
0000
0000
0011
0000
0000
1000
0000
,
0010
0000
0100
0000
0000
0101
0000
0000
0010
0000
0000
1010
0000
0000
0100
0000
,
0001
0000
1000
0000
0000
1100
0000
0000
0002
0000
0003
0000
2000
0000
3000
0000
,
0001
0000
1000
0000
0000
1100
0000
0000
0001
0000
0000
0101
0000
0000
1000
0000
,
0010
0000
0100
0000
0000
0101
0000
0000
0010
0000
0000
1010
0000
0000
0001
0000
,
0010
0000
0100
0000
0000
1100
0000
0000
0010
0000
0000
0011
0000
0000
0100
0000
,
2000
0000
3000
0001
0200
0000
0300
0010
,
2000
0000
3000
0100
0020
0000
0030
0001
,
0200
0000
1300
0001
0020
0000
1030
0001
,
0010
0000
0100
1000
0000
0100
0010
0000
0100
1000
0000
0100
0010
0000
0000
0000
0000
0000
1001
0000
0000
0000
0000
0000
,
0001
0000
0100
0000
0010
0000
1000
0100
1000
0000
0001
0000
0100
0010
0000
0000
,
1000
0100
1000
0000
0001
0100
0001
0000
0010
0000
0100
0000
1000
0001
0000
0000
,
0000
1001
0000
0010
1000
0001
0010
0100
,
1000
0000
1000
0000
0001
0000
0001
0010
0100
0000
1000
0000
0010
0000
0100
0000
,
0001
0000
1000
0000
0001
0010
0001
0000
0010
0000
0100
0000
1000
0000
1000
0000
,
0010
0000
1000
0100
1000
0000
0001
0100
0001
0000
1000
0000
0100
0000
0010
0000
,
0001
0000
1000
0100
0010
0000
0010
0100
1000
0000
0001
0000
0100
0000
0010
0000
,
1000
0000
0001
1000
0001
0000
0100
0010
0100
0000
0010
0000
1000
0000
0100
0000
,
0010
0000
0001
0000
0100
0001
0000
0001
1000
0000
1000
0100
0000
0000
0010
0000
,
0001
0000
0100
0000
0010
1000
0000
1000
0001
0000
0001
0010
0000
0000
0100
0000
,
1000
0000
0001
0000
0100
0010
0000
0010
1000
0000
1000
0100
0000
0000
0010
0000
,
0100
0000
1000
0000
0001
0100
0000
0100
0020
0000
0030
0000
0200
0000
0300
0000
,
0010
0000
1000
0000
0100
1000
0000
1000
0001
0000
0001
0100
0000
0000
0010
0000
,
1000
0000
0100
0000
0010
0001
0000
0001
1000
0000
1000
0010
0000
0000
0100
0000
,
0001
0000
1000
0000
0100
0010
0000
0010
0001
0000
0001
0100
0000
0100
0010
0000
,
1000
0000
0100
0010
0000
0100
0010
0000
0001
0000
0000
0000
0110
0000
0000
0000
,
2002
0000
0000
0000
3003
0000
1000
0100
1000
0000
0001
0000
0000
0000
0010
0000
,
0100
0000
1000
0010
1000
0000
0001
0100
0001
0000
0010
0000
0100
0000
1000
0000
,
2002
0000
3003
0010
1000
0001
0000
0010
,
0100
0000
1000
0010
1000
0000
0001
0010
0001
0000
1000
0000
0010
0000
0100
0000
,
2002
0000
0000
0000
3003
0000
0100
0010
0100
0000
0001
0000
0000
0000
1000
0000
,
0100
0000
0010
0100
0010
0000
0001
0100
0001
0000
1000
0000
0100
0000
0010
0000
,
2002
0000
3003
0100
1000
0001
0000
0100
,
0010
0000
1000
0001
1000
0000
0100
0010
0100
0000
1000
0000
0010
0000
0100
0000
,
1001
0000
2200
3300
0000
0000
0202
0303
,
0000
0000
2002
3003
0000
0000
0220
0330
;

//---------------dance-single - ----------------
#NOTES:
     dance-single:
     :
     Medium:
     9:
     0.389,0.406,0.176,0.231,0.074:
0000
0000
0000
0000
,
0000
0000
0000
0000
,
0000
0000
0000
0000
,
0000
0000
0000
0000
,
0001
0100
0010
1000
0000
1000
0100
0010
,
0001
0000
0100
0010
0000
0100
0010
0000
,
1000
0100
0010
0100
0000
1000
0000
0010
,
0100
0001
0010
0100
1000
0001
0100
0010
,
0220
0000
0330
1000
0100
1000
0000
0001
,
0100
0001
0010
0100
1000
0001
1000
0100
,
0120
0031
0100
0010
,
1000
0000
0000
0100
0000
0000
0010
0000
0001
0000
0000
0000
1001
0000
0000
0000
,
1000
0100
0010
0001
1000
0100
0010
0000
,
0001
0100
0010
1000
0001
0100
0010
0000
,
1000
0010
0100
0001
1000
0010
0100
0000
,
0001
0010
0100
1000
0002
0003
2000
3000
,
0001
0010
0001
0010
0100
1000
0001
0000
,
1000
0010
1000
0010
0100
0001
1000
0000
,
0001
0100
0001
0100
0010
1000
0001
0000
,
2000
3000
0002
0003
,
0200
0300
0020
0030
,
2002
3003
0220
0330
,
1000
0001
0100
0010
0100
0000
0110
0000
,
1000
0100
0010
0001
0000
0001
0100
0010
,
1000
0000
0100
0010
0000
0001
0000
0100
,
0010
1000
0100
0010
0000
0100
0000
1000
,
0001
0100
0010
0100
0001
1000
0100
0010
,
0001
0000
0010
0000
0100
1000
0001
1000
,
0100
0000
1000
0000
0010
0100
0001
0010
,
0200
1300
0020
0031
,
0100
0010
0100
0000
0001
1000
0100
0010
,
0001
0000
0010
0000
0000
0100
0000
0000
1000
0000
0000
0001
0000
0000
0000
0000
,
1000
0000
0010
0000
0000
0100
0000
0000
0001
0000
0000
1000
0000
0000
0000
0000
,
0001
0000
0100
0000
0000
0010
0000
0000
1000
0000
0000
0001
0000
0000
0000
0000
,
1000
0000
0100
0000
0000
0010
0000
0000
0002
0000
0003
0000
2000
0000
3000
0000
,
0001
0000
0010
0000
0000
0001
0000
0000
0100
0000
0000
0010
0000
0000
0000
0000
,
1000
0000
0100
0000
0000
1000
0000
0000
0010
0000
0000
0100
0000
0000
0000
0000
,
0001
0000
0100
0000
0000
0001
0000
0000
0010
0000
0000
0100
0000
0000
0000
0000
,
1000
0000
0000
0001
0000
0000
0100
0000
0110
0000
0000
0000
1001
0000
0000
0000
,
0220
0000
0330
1000
0100
0010
0000
0100
,
1000
0100
1000
0001
0100
0010
1000
0001
,
0220
0000
0330
0001
1000
0100
0000
0001
,
0100
1000
0010
0100
0001
1000
0100
0000
,
0220
0000
0330
0001
0100
1000
0000
0100
,
0001
1000
0100
0010
0100
1000
0010
0100
,
0220
0000
0330
1000
0100
0010
0000
0001
,
0100
0000
0000
0010
0000
0000
0100
0000
0110
0000
0000
0000
1001
0000
0000
0000
,
1100
0101
0000
0011
,
0000
1010
0000
1001
;

//---------------dance-single - ----------------
#NOTES:
     dance-single:
     :
     Easy:
     4:
     0.200,0.203,0.000,0.065,0.000:
0000
0000
0000
0000
,
0000
0000
0000
0000
,
0000
0000
0000
0000
,
0000
0000
0000
0000
,
1000
0100
0010
0010
,
0001
0100
0010
0100
,
0001
1000
0100
0010
,
0001
0010
0100
0000
,
2000
3000
0001
0001
,
1000
0100
0010
0001
,
2000
3000
0001
0001
,
1000
0010
0100
0000
,
0001
0100
1000
0000
,
0001
0100
1000
0000
,
0001
0100
1000
0000
,
0001
0100
1000
0000
,
1000
0100
0001
0000
,
1000
0100
0001
0000
,
1000
0100
0001
0000
,
1000
0000
0100
0000
,
0010
0000
0001
0000
,
1000
0000
0010
0000
,
0100
0100
0100
0000
,
0001
0010
0100
1000
,
0010
0010
0100
0001
,
0000
1000
0100
0010
,
0001
0100
0001
0000
,
1000
0100
0010
0100
,
1000
0100
0010
0100
,
1000
0010
0100
0010
,
1000
0010
0100
0000
,
0001
0010
0100
0000
,
0001
0010
1000
0000
,
0001
0010
0100
0000
,
0001
0100
1000
0000
,
0001
0010
0100
0000
,
0001
0010
1000
0000
,
0001
0100
1000
0000
,
0001
0001
0001
0000
,
2000
3000
0001
0100
,
0010
0100
0001
0001
,
2000
3000
0010
1000
,
0100
0100
1000
0010
,
2000
3000
0100
0010
,
0001
0100
0010
0010
,
2000
3000
0010
0100
,
0001
0010
0100
0100
,
2000
3100
0000
0100
,
0000
0100
0000
0100
;

//---------------dance-single - ----------------
#NOTES:
     dance-single:
     :
     Beginner:
     1:
     0.085,0.135,0.000,0.065,0.000:
0000
0000
0000
0000
,
0000
0000
0000
0000
,
0000
0000
0000
0000
,
0000
0000
0000
0000
,
1000
0000
0000
0000
,
0100
0000
0000
0000
,
0001
0000
0000
0000
,
0010
0000
0000
0000
,
2000
3000
0000
0000
,
0001
0000
0000
0000
,
0200
0300
0000
0000
,
0010
0000
0000
0000
,
1000
0000
1000
0000
,
1000
0000
0000
0000
,
0001
0000
0001
0000
,
0001
0000
0000
0000
,
0100
0000
0100
0000
,
0100
0000
0000
0000
,
0010
0000
0010
0000
,
0010
0000
0000
0000
,
0001
0000
0000
0000
,
0100
0000
0000
0000
,
1000
1000
1000
0000
,
0001
0000
0001
0000
,
0001
0000
0000
0000
,
1000
0000
1000
0000
,
1000
0000
0000
0000
,
0100
0000
0100
0000
,
0100
0000
0000
0000
,
0010
0000
0010
0000
,
0010
0000
0000
0000
,
0001
0000
0000
0000
,
0100
0000
0000
0000
,
1000
0000
0000
0000
,
0010
0000
0000
0000
,
0001
0000
0000
0000
,
0010
0000
0000
0000
,
1000
0000
0000
0000
,
0100
0000
0000
0000
,
0002
0003
0000
0000
,
0100
0000
0000
0000
,
2000
3000
0000
0000
,
0100
0000
0000
0000
,
0002
0003
0000
0000
,
0010
0000
0000
0000
,
2000
3000
0000
0000
,
0100
0000
0000
0000
,
0002
0003
0000
1000
,
0000
1000
0000
1000
;

//---------------dance-double - ----------------
#NOTES:
     dance-double:
     :
     Hard:
     12:
     0.477,0.451,0.130,0.204,0.278: // measure 1
00000000
00000000
00000000
00000000
,  // measure 2
00000000
00000000
00000000
00000000
,  // measure 3
00000000
00000000
00000000
00000000
,  // measure 4
00000000
00000000
00000000
00000000
,  // measure 5
00010000
00001000
00000100
00000001
00000000
00000001
00000010
00001000
,  // measure 6
00010000
00000000
00001000
01000000
00001000
00000000
01000000
00100000
01000000
00000000
00100000
00000000
00010000
00000000
00001000
00000000
,  // measure 7
00000000
00011000
00000000
00010000
01000000
10000000
00000000
10000000
,  // measure 8
00100000
00000000
01000000
00010000
01000000
00000000
00010000
00100000
00010000
00000000
00100000
00000000
00001000
00000000
00010000
00000000
,  // measure 9
00020200
00000000
00030300
00000100
00001000
00000010
00000000
00000100
,  // measure 10
00000001
00000000
00001000
00000100
00001000
00000000
00000100
00010000
00000100
00000000
00010000
00000000
00001000
00000000
01000000
00000000
,  // measure 11
20200000
00000000
30300000
10000000
01000000
00010000
00000000
00001000
,  // measure 12
00000100
00000000
00000010
00001000
00000010
00000000
00001000
00000001
00001000
00000000
00000001
00000000
00000010
00000000
00000100
00000000
,  // measure 13
00010000
00000000
00001000
00000000
00000000
01000000
00000000
00000000
00100000
00000000
00000000
10000000
00000000
00000000
00010000
00000000
,  // measure 14
00100000
00000000
00001000
00000000
00000000
00010000
00000000
00000000
00000100
00000000
00000000
00000010
00000000
00000000
00000001
00000000
,  // measure 15
00000100
00000000
00001000
00000000
00000000
00010000
00000000
00000000
00100000
00000000
00000000
01000000
00000000
00000000
00001000
00000000
,  // measure 16
00010000
00000000
00000010
00000000
00000000
00001000
00000000
00000000
00000200
00000000
00000300
00000000
00000200
00000000
00000300
00000000
,  // measure 17
00010000
00000000
01000000
00000000
00000000
00100000
00000000
00000000
00010000
00000000
00000000
10000000
00000000
00000000
01000000
00000000
,  // measure 18
00010000
00000000
00001000
00000000
00000000
00000010
00000000
00000000
00000001
00000000
00000000
00000100
00000000
00000000
00000010
00000000
,  // measure 19
00010000
00000000
00001000
00000000
00000000
01000000
00000000
00000000
00100000
00000000
00000000
10000000
00000000
00000000
01000000
00000000
,  // measure 20
00200000
00000000
00300000
00001000
00020000
00000000
00030000
00000100
,  // measure 21
00002000
00000000
00003000
00010000
00200000
00000000
00300000
01000000
,  // measure 22
00020000
00000000
00031000
00000010
00000002
00000000
00000103
00001000
,  // measure 23
00010000
00000000
00001000
00010000
00000000
00001000
01000000
00000000
00001000
00010000
00000000
00001000
01000000
00000000
00000000
00000000
00000000
00000000
01100000
00000000
00000000
00000000
00000000
00000000
,  // measure 24
10000000
01000000
00010000
00001000
00000000
00001000
00000100
00000010
,  // measure 25
00001000
00000000
00000001
00000100
00000001
00000000
00000010
00000000
00000100
00000000
00010000
00000000
00001000
00010000
00000000
00000000
,  // measure 26
00001000
01000000
00010000
10000000
00000000
10000000
01000000
00100000
,  // measure 27
00001000
00010000
00000100
00001000
00000010
00000100
00000001
00001000
,  // measure 28
00000100
00000100
00010000
00010000
00001000
00001000
01000000
01000000
,  // measure 29
00100000
10000000
01000000
00010000
01000000
10000000
00100000
00010000
,  // measure 30
00001000
00000000
00010000
00000100
00010000
00000000
00000010
00000000
00000100
00000000
00000001
00000000
00001000
00000000
00000100
00000000
,  // measure 31
00000001
00000000
00000100
00001000
00000100
00000000
00010000
00000000
00001000
00000000
01000000
00000000
00010000
00000000
00010000
00000000
,  // measure 32
10000000
00000000
00010000
00000000
01000000
00001000
00000000
00001000
00010000
00000000
00010000
00000100
00000000
00000000
00000010
00000000
,  // measure 33
00000001
00000000
00000100
00000000
00001000
00010000
00000000
00010000
01000000
00000000
01000000
00100000
00000000
00000000
00010000
00000000
,  // measure 34
10000000
00000000
01000000
00000000
00010000
00001000
00000000
00001000
00000010
00000000
00000010
00000100
00000000
00000000
00001000
00000000
,  // measure 35
00000001
00000000
00000100
00000000
00001000
00010000
00000000
00010000
00200000
00000000
00300000
00000000
00200000
00000000
00300000
00000000
,  // measure 36
10000000
00000000
00010000
00000000
01000000
00001000
00000000
00001000
00000100
00000000
00000100
00000010
00000000
00000000
00001000
00000000
,  // measure 37
00000001
00000000
00000010
00000000
00000100
00010000
00000000
00010000
01000000
00000000
01000000
00100000
00000000
00000000
00010000
00000000
,  // measure 38
10000000
00000000
00100000
00000000
01000000
00001000
00000000
00001000
00010000
00000000
00010000
00000100
00000000
00000100
00000010
00000000
,  // measure 39
00000001
00000000
00000000
00001000
00000000
00000100
00001000
00000000
00000010
00000000
00000000
00000000
00000110
00000000
00000000
00000000
,  // measure 40
00002002
00000000
00003003
00001000
00000100
00010000
00000000
00001000
,  // measure 41
01000000
00000000
00010000
00100000
00010000
00000000
10000000
00100000
10000000
00000000
01000000
00000000
00100000
00000000
00001000
00000000
,  // measure 42
00020200
00000000
00030300
00010000
00000010
00001000
00000000
00000001
,  // measure 43
00000100
00000000
00000010
00010000
00000010
00000000
00010000
00001000
00010000
00000000
00001000
00000000
00100000
00000000
01000000
00000000
,  // measure 44
20020000
00000000
30030000
00010000
00100000
00001000
00000000
00010000
,  // measure 45
00000100
00000000
00001000
00000010
00001000
00000000
00000001
00000010
00000001
00000000
00000100
00000000
00001000
00000000
00010000
00000000
,  // measure 46
02200000
00000000
03300000
00100000
10000000
00010000
00000000
00010000
,  // measure 47
00100000
00000000
00001000
00010000
00001000
00000000
00010000
00000100
00010000
00000000
00000100
00000000
00000010
00000000
00000001
00000000
,  // measure 48
00001001
00000110
00000000
00011000
,  // measure 49
00000000
01100000
00000000
10010000
;

//---------------dance-double - ----------------
#NOTES:
     dance-double:
     :
     Medium:
     9:
     0.349,0.338,0.019,0.093,0.009: // measure 1
00000000
00000000
00000000
00000000
,  // measure 2
00000000
00000000
00000000
00000000
,  // measure 3
00000000
00000000
00000000
00000000
,  // measure 4
00000000
00000000
00000000
00000000
,  // measure 5
00001000
00100000
01000000
10000000
00000000
01000000
00100000
00001000
,  // measure 6
00010000
00000000
00000100
00001000
00000000
00000010
00000000
00000100
,  // measure 7
00000001
00001000
00000100
00010000
00000000
00001000
00000000
01000000
,  // measure 8
00010000
00100000
01000000
10000000
00000000
01000000
00000000
00100000
,  // measure 9
00002000
00000000
00013000
00000100
00000000
00000100
00001000
00000100
,  // measure 10
00000010
00000000
00000001
00000100
00000000
00000100
00000010
00010000
,  // measure 11
00002000
02003000
03020000
00230000
,  // measure 12
01300000
00000000
10000000
00000000
00010000
10000000
00100000
01000000
,  // measure 13
00010000
00100000
00001000
00000000
00010000
00000100
00001000
00000000
,  // measure 14
00000010
00000100
00000001
00000000
00000010
00000100
00010000
00000000
,  // measure 15
00001000
00100000
01000000
00000000
00010000
00001000
00010000
00000000
,  // measure 16
00001000
00000100
00000010
00000000
00001000
00000000
00001001
00000000
,  // measure 17
00000001
00000010
00000100
00000000
00000010
00000001
00000100
00000000
,  // measure 18
00001000
00010000
00001000
00000000
01000000
00010000
00100000
00000000
,  // measure 19
01000000
10000000
00010000
00000000
10000000
01000000
00010000
00000000
,  // measure 20
00001000
00000000
00000000
00001000
00000100
00000000
00000000
00000100
,  // measure 21
00000010
00000000
00000000
00000010
00001000
00000000
00000000
00001000
,  // measure 22
00000100
00000000
00000000
00000100
00010000
00000000
00000000
00010000
,  // measure 23
00001000
01000000
00100000
01000000
00001000
00000000
00011000
00000000
,  // measure 24
00010000
00000100
00001000
00000010
00000000
00000100
00000001
00000100
,  // measure 25
00001000
00000000
00010000
00001000
00000000
00010000
00000000
01000000
,  // measure 26
10000000
00010000
01000000
00100000
00000000
01000000
00000000
00010000
,  // measure 27
10000000
01000000
00010000
00001000
00000000
00010000
00000100
00001000
,  // measure 28
00000100
00000010
00000001
00000000
00000100
00000010
00010000
00000000
,  // measure 29
00001000
01000000
00010000
00000000
00100000
01000000
00010000
01000000
,  // measure 30
10000000
00010000
00001000
00000001
,  // measure 31
00000100
00000010
00010000
00000010
00000100
00000000
00001000
00000000
,  // measure 32
00010000
00001000
01000000
00000000
00100000
10000000
01000000
00000000
,  // measure 33
00010000
00001000
00010000
00000000
00001000
00000100
00000010
00000000
,  // measure 34
00001000
00000001
00000010
00000000
00000100
00010000
00001000
00000000
,  // measure 35
01000000
00010000
00100000
01000000
10000000
00000000
00010000
00000000
,  // measure 36
01000000
00001000
00010000
00000000
00000100
00001000
00000010
00000000
,  // measure 37
00000100
00000001
00000010
00000100
00001000
00000100
00000010
00000000
,  // measure 38
00000001
00000100
00000001
00000000
00000100
00001000
00000100
00000000
,  // measure 39
00001000
00000000
00000000
00010000
00000000
00000000
00001000
00000000
00000100
00000000
00000000
00000000
00000010
00000000
00000000
00000000
,  // measure 40
00020000
00031000
01000000
00100000
00000000
10000000
01000000
00100000
,  // measure 41
00001000
00000000
00010000
00000100
00000000
00001000
00000000
00000010
,  // measure 42
00000200
00000301
00001000
00000100
00000000
00010000
00000000
00001000
,  // measure 43
01000000
00010000
00100000
01000000
10000000
00000000
00010000
10000000
,  // measure 44
02000000
03000000
00100000
00000000
00001000
00010000
00001000
00000100
,  // measure 45
00000010
00000000
00001000
00000000
00000001
00000010
00000100
00001000
,  // measure 46
00000002
00000003
00001000
00000000
00010000
00000000
10000000
00000000
,  // measure 47
00100000
00000000
00000000
01000000
00000000
00000000
00100000
00000000
10000000
00000000
00000000
00000000
00010000
00000000
00000000
00000000
,  // measure 48
20000000
30000000
01000000
00000000
00000000
00000000
00010000
00000000
,  // measure 49
00000000
00001000
00000000
00000100
;

//---------------dance-double - ----------------
#NOTES:
     dance-double:
     :
     Easy:
     3:
     0.182,0.203,0.000,0.074,0.000: // measure 1
00000000
00000000
00000000
00000000
,  // measure 2
00000000
00000000
00000000
00000000
,  // measure 3
00000000
00000000
00000000
00000000
,  // measure 4
00000000
00000000
00000000
00000000
,  // measure 5
00010000
00000000
00001000
00010000
,  // measure 6
01000000
10000000
01000000
00010000
,  // measure 7
00001000
00000000
00010000
00001000
,  // measure 8
00000100
00000001
00000100
00001000
,  // measure 9
00010000
00000000
00001000
00010000
,  // measure 10
00100000
10000000
00100000
00010000
,  // measure 11
00001000
00000000
00010000
00001000
,  // measure 12
00000010
00000001
00000010
00001000
,  // measure 13
00010000
00000000
00010000
00000000
,  // measure 14
01000000
00000000
01000000
00000000
,  // measure 15
10000000
00000000
10000000
00000000
,  // measure 16
00100000
00000000
00100000
00000000
,  // measure 17
00010000
00000000
00010000
00000000
,  // measure 18
00001000
00000000
00001000
00000000
,  // measure 19
00000100
00000000
00000100
00000000
,  // measure 20
00000002
00000003
00000020
00000030
,  // measure 21
00000200
00000300
00020000
00030000
,  // measure 22
00002000
00003000
00200000
00300000
,  // measure 23
01000000
01000000
02000000
03000000
,  // measure 24
10000000
01000000
00010000
00001000
,  // measure 25
00010000
00001000
00000100
00000000
,  // measure 26
00000001
00000100
00001000
00010000
,  // measure 27
00001000
00010000
01000000
00000000
,  // measure 28
10000000
00100000
00010000
00001000
,  // measure 29
00010000
00001000
00000010
00000000
,  // measure 30
00000001
00000010
00001000
00010000
,  // measure 31
00001000
00010000
00100000
00000000
,  // measure 32
10000000
00000000
10000000
00000000
,  // measure 33
01000000
00000000
01000000
00000000
,  // measure 34
00010000
00000000
00010000
00000000
,  // measure 35
00001000
00000100
00000001
00000000
,  // measure 36
00000001
00000000
00000001
00000000
,  // measure 37
00000010
00000000
00000010
00000000
,  // measure 38
00001000
00000000
00001000
00000000
,  // measure 39
00010000
00100000
02000000
03000000
,  // measure 40
00001000
00000000
00010000
00001000
,  // measure 41
00000100
00000001
00000100
00001000
,  // measure 42
00010000
00000000
00001000
00010000
,  // measure 43
01000000
10000000
01000000
00010000
,  // measure 44
00001000
00000000
00010000
00001000
,  // measure 45
00000010
00000001
00000010
00001000
,  // measure 46
00010000
00000000
00001000
00010000
,  // measure 47
00100000
10000000
00100000
00010000
,  // measure 48
00001000
00010000
00000000
00010000
,  // measure 49
00000000
00010000
00000000
00010000
;
