#TITLE:Almace;
#SUBTITLE:;
#ARTIST:Qrispy Joybox;
#TITLETRANSLIT:;
#SUBTITLETRANSLIT:;
#ARTISTTRANSLIT:;
#GENRE:;
#CREDIT:Silverhawke;
#MENUCOLOR:;
#METERTYPE:DDR;
#BANNER:Almace.png;
#BACKGROUND:Almace-bg.png;
#LYRICSPATH:;
#CDTITLE:cdtitle.png;
#MUSIC:Almace.mp3;
#OFFSET:-0.028;
#SAMPLESTART:19.549;
#SAMPLELENGTH:15.000;
#SELECTABLE:YES;
#LISTSORT:;
#BPMS:0.000=172.000;
#STOPS:;
#BGCHANGES:0.000=Almace.avi=1.000=1=1=0,
99999=-nosongbg-=1.000=0=0=0 // don't automatically add -songbackground-
;
#ATTACKS:;

//---------------dance-single - ----------------
#NOTES:
     dance-single:
     :
     Hard:
     12:
     0.605,0.735,0.330,0.396,0.019: // measure 1
0000
0000
0000
0000
,  // measure 2
0000
0000
0000
0000
,  // measure 3
0000
0000
0000
0000
,  // measure 4
0000
0000
0000
0000
,  // measure 5
0100
0000
0100
0000
0100
0000
0100
0001
,  // measure 6
1000
0000
1000
0000
1000
0000
1000
0001
,  // measure 7
0010
0000
0010
0000
0010
0000
0010
0100
,  // measure 8
1000
0000
1000
0000
1000
0000
1000
0002
,  // measure 9
0000
0000
0000
0000
0003
0100
0100
0000
,  // measure 10
0110
0000
0100
0000
0001
0000
1000
1100
,  // measure 11
0000
0100
0010
0001
,  // measure 12
0101
0000
0010
0000
1100
0000
0001
0101
,  // measure 13
0000
0110
1001
0100
,  // measure 14
0020
0000
0000
0000
0000
0000
0000
0030
,  // measure 15
0100
0001
1000
0100
0010
0100
1000
0001
,  // measure 16
0100
0010
0100
0010
0000
1000
0100
0010
,  // measure 17
0100
0000
0100
0000
1000
0001
1000
0020
,  // measure 18
0000
0130
0000
0001
0000
1000
0100
0010
,  // measure 19
0001
0000
0001
0000
0100
0001
0100
0020
,  // measure 20
0000
1030
0000
0100
0000
0020
0000
0031
,  // measure 21
0100
0000
1000
0000
0100
0001
1000
1100
,  // measure 22
0000
0101
0000
1001
0000
0220
0000
0330
,  // measure 23
0100
1000
0001
0100
0010
0100
0000
0100
,  // measure 24
0001
1000
0100
0010
0000
0001
0100
0010
,  // measure 25
1000
0100
0010
0100
1000
0001
0000
0001
,  // measure 26
0100
1000
0100
0001
0000
1000
0100
0010
,  // measure 27
0001
0100
0010
1000
0100
0010
0000
0010
,  // measure 28
0001
0100
0001
0010
0000
1002
0000
0103
,  // measure 29
0000
0001
0010
0100
1000
0001
0000
0001
,  // measure 30
1000
0100
0010
0001
0000
0220
0000
0330
,  // measure 31
0002
0100
2003
0010
,  // measure 32
3200
0001
0320
1000
,  // measure 33
0032
0100
0023
0100
,  // measure 34
0032
1000
0203
1000
,  // measure 35
0320
1000
2030
0000
3002
0000
0023
0000
,  // measure 36
0230
1000
2300
0000
3002
0000
0203
0000
,  // measure 37
0302
0010
0023
0000
2030
0000
3200
0000
,  // measure 38
0301
0000
1000
0000
0001
0000
1000
0000
0001
1000
0001
1000
0001
1000
0001
1000
,  // measure 39
0020
0000
0000
0000
0000
0000
0000
0030
,  // measure 40
0110
0000
0110
0000
0100
1000
0100
0002
,  // measure 41
0000
0013
0100
1000
0100
0000
0010
0000
,  // measure 42
1001
0000
1001
0000
0001
0100
0010
0110
,  // measure 43
0000
1100
0000
0102
0000
0010
0013
0000
,  // measure 44
1100
0000
1100
0000
0100
0010
0001
0020
,  // measure 45
0000
0031
0100
0001
1000
0000
0100
0000
,  // measure 46
0020
0000
0032
0000
1003
0001
0000
0101
,  // measure 47
0000
1100
0000
2001
0000
0100
3100
0000
,  // measure 48
0110
0000
0110
0000
0100
0001
0100
2000
,  // measure 49
0000
3010
0100
0001
0100
0000
0010
0000
,  // measure 50
1000
0000
0001
0000
0010
0100
0000
1100
,  // measure 51
0000
0101
0000
0120
0000
1000
1030
0000
,  // measure 52
0101
0000
0101
0000
0100
0010
1000
0020
,  // measure 53
0000
1030
0100
1000
0001
0000
0100
0000
,  // measure 54
0020
0000
2030
0000
3001
1000
0000
0101
,  // measure 55
0000
1100
0000
1001
0000
0000
0100
0000
,  // measure 56
0001
0010
0010
0010
,  // measure 57
0100
1000
1000
1000
,  // measure 58
0001
0100
0010
0100
,  // measure 59
0001
1000
0000
0001
0000
0010
0001
1000
,  // measure 60
0100
0010
0100
0010
0001
1000
0001
1000
,  // measure 61
0010
0100
0010
0100
0010
1000
0010
1000
,  // measure 62
0001
0010
0001
0010
0100
1000
0100
1000
,  // measure 63
0001
0100
0001
0100
0010
1000
0000
0000
,  // measure 64
0001
0010
0100
1000
0100
0010
0001
0100
,  // measure 65
0010
1000
0010
0100
0001
0010
1000
0010
,  // measure 66
0001
1000
0100
0010
0001
0100
0010
1000
,  // measure 67
0001
0010
0100
1000
0100
0001
0100
1000
,  // measure 68
0001
0100
1000
0100
0001
0100
1000
0100
,  // measure 69
0001
0010
1000
0010
0001
0010
1000
0010
,  // measure 70
0001
0100
1000
0100
0001
0010
1000
0010
,  // measure 71
0100
0100
0100
0100
0100
0100
0100
0100
;

//---------------dance-single - ----------------
#NOTES:
     dance-single:
     :
     Medium:
     9:
     0.421,0.434,0.132,0.207,0.000: // measure 1
0000
0000
0000
0000
,  // measure 2
0000
0000
0000
0000
,  // measure 3
0000
0000
0000
0000
,  // measure 4
0000
0000
0000
0000
,  // measure 5
1000
0001
1000
0001
,  // measure 6
0100
0010
0100
0010
,  // measure 7
1000
0100
0010
0001
,  // measure 8
1000
0000
0010
0000
0100
0000
0001
2000
,  // measure 9
0000
0000
0000
0000
0000
3000
0000
0000
,  // measure 10
0101
0000
0000
0000
0000
0000
0000
1100
,  // measure 11
0000
0000
0000
0000
,  // measure 12
0011
0000
0000
0000
1010
0000
0000
1001
,  // measure 13
0000
0110
1001
0000
,  // measure 14
0200
0000
0000
0300
,  // measure 15
0001
0001
0010
0000
0001
0000
0100
0000
,  // measure 16
0010
0000
1000
0100
0000
0100
1000
0000
,  // measure 17
0001
0000
0001
0000
1000
0010
0000
0100
,  // measure 18
0000
0010
0000
1000
0000
0001
1000
0000
,  // measure 19
0100
0000
0100
0000
0010
0001
0000
0010
,  // measure 20
0000
0100
0000
1000
0000
0001
0000
1000
,  // measure 21
0010
0000
0100
0000
0001
1000
0000
0100
,  // measure 22
0000
0010
0000
0011
0000
1100
0000
0000
,  // measure 23
1000
0000
0010
0000
0100
0010
0000
1000
,  // measure 24
0010
0000
0100
0010
0000
1000
0001
1000
,  // measure 25
0000
0001
0010
0000
0001
0100
0000
0001
,  // measure 26
1000
0000
0010
1000
0000
0200
0000
0300
,  // measure 27
0000
1000
0010
0000
1000
0100
0000
0010
,  // measure 28
0100
0000
1000
0001
0000
0100
0000
0001
,  // measure 29
0000
1000
0100
0000
0010
0100
0000
1000
,  // measure 30
0001
0000
0100
0010
0000
2000
0000
3000
,  // measure 31
0002
0000
0203
0000
,  // measure 32
2300
0000
3020
0000
,  // measure 33
0032
0000
0023
0000
,  // measure 34
2030
0000
3200
0000
,  // measure 35
0302
0013
0020
1030
,  // measure 36
2000
3100
0200
0301
,  // measure 37
0002
0103
0200
1300
,  // measure 38
2000
3010
0020
0031
,  // measure 39
0002
0000
0000
0003
,  // measure 40
1000
0000
1001
0000
0001
0100
0000
0010
,  // measure 41
0000
0100
0001
0000
1000
0000
0100
0000
,  // measure 42
0010
0000
0010
0000
0001
0100
0000
0010
,  // measure 43
0000
0010
0000
0100
0000
0001
1000
0000
,  // measure 44
0100
0000
0110
0000
0010
0001
0000
0100
,  // measure 45
0000
0001
0010
0000
0100
0000
1000
0000
,  // measure 46
0001
0000
0100
0000
0010
1000
0000
0001
,  // measure 47
0000
0100
0000
0110
0000
0001
1000
0000
,  // measure 48
0001
0000
1001
0000
1000
0100
0000
0010
,  // measure 49
0000
0100
1000
0000
0001
0000
0100
0000
,  // measure 50
0010
0000
0010
0000
1000
0100
0000
0010
,  // measure 51
0000
0010
0000
0100
0000
1000
0001
0000
,  // measure 52
0100
0000
0110
0000
0010
1000
0000
0100
,  // measure 53
0000
1000
0010
0000
0100
0000
0001
0000
,  // measure 54
1000
0000
0100
0000
0010
0001
0000
1000
,  // measure 55
0000
0100
0000
0200
0000
0000
0300
0000
,  // measure 56
1000
0001
1000
0001
,  // measure 57
1000
0010
0000
0010
0000
0010
0100
0000
,  // measure 58
0001
1000
0001
1000
,  // measure 59
0001
0010
0000
0010
0000
0010
0100
0000
,  // measure 60
1000
0010
1000
0000
0010
0001
0010
0000
,  // measure 61
0001
0100
0001
0000
0100
0000
1000
0000
,  // measure 62
0010
1000
0010
0000
1000
0100
1000
0000
,  // measure 63
0100
0001
0100
0000
0001
0010
0000
0000
,  // measure 64
1000
0100
0010
0100
,  // measure 65
1000
0000
0010
0000
0100
0001
0000
1000
,  // measure 66
0000
0001
0100
0000
0001
0000
0010
0000
,  // measure 67
0001
0000
0100
0000
0010
1000
0000
0100
,  // measure 68
0000
1000
0010
0000
0100
0001
0100
0000
,  // measure 69
0001
0000
0010
0000
0100
1000
0100
0000
,  // measure 70
1000
0010
0100
0000
0001
0010
0100
0000
,  // measure 71
1000
0001
1000
0001
0100
0010
0100
0010
;

//---------------dance-single - ----------------
#NOTES:
     dance-single:
     :
     Easy:
     5:
     0.232,0.267,0.000,0.038,0.000: // measure 1
0000
0000
0000
0000
,  // measure 2
0000
0000
0000
0000
,  // measure 3
0000
0000
0000
0000
,  // measure 4
0000
0000
0000
0000
,  // measure 5
1000
0000
1000
0000
,  // measure 6
0100
0000
0100
0000
,  // measure 7
0010
0000
0010
0000
,  // measure 8
0001
0000
0001
2000
,  // measure 9
0000
0000
0000
3000
,  // measure 10
0001
0000
0000
0000
0000
0000
0000
1000
,  // measure 11
0000
0000
0000
0000
,  // measure 12
0010
0000
0000
0000
0100
0000
0000
0001
,  // measure 13
0000
1000
0100
0000
,  // measure 14
0020
0000
0000
0030
,  // measure 15
0001
0001
1000
1000
,  // measure 16
0001
1000
0000
1000
,  // measure 17
0001
0001
0100
0000
,  // measure 18
0010
1000
0100
0000
,  // measure 19
0010
0010
0001
0000
,  // measure 20
0010
0100
1000
0000
,  // measure 21
0001
0000
0000
0000
1000
0000
0000
0100
,  // measure 22
0000
0100
0000
0100
0000
0000
0000
0000
,  // measure 23
0010
0001
0100
0000
,  // measure 24
0010
1000
0000
0001
,  // measure 25
1000
0001
0100
0000
,  // measure 26
0010
1000
0000
1000
,  // measure 27
0100
0010
0001
0000
,  // measure 28
0001
0100
0000
0001
,  // measure 29
1000
0000
0100
0000
,  // measure 30
0010
0000
0001
0000
0000
1000
0000
0000
,  // measure 31
0001
0000
0100
0000
,  // measure 32
1000
0000
0010
0000
,  // measure 33
0001
0000
0010
0000
,  // measure 34
1000
0000
0100
0000
,  // measure 35
0001
0000
0010
0000
,  // measure 36
1000
0000
0100
0000
,  // measure 37
0001
0000
0100
0000
,  // measure 38
1000
0000
0010
0000
,  // measure 39
0002
0000
0000
0003
,  // measure 40
1000
1000
1000
0000
,  // measure 41
0001
1000
0100
0000
,  // measure 42
1000
0000
1000
0000
1000
0000
0000
0001
,  // measure 43
0000
0001
0000
1000
0000
0000
0000
0000
,  // measure 44
0001
0001
0001
0000
,  // measure 45
1000
0001
0100
0000
,  // measure 46
0010
0000
1000
0000
0001
0000
0000
0010
,  // measure 47
0000
0010
0000
0010
0000
0000
0000
0000
,  // measure 48
0100
0100
0100
0000
,  // measure 49
1000
0010
0001
0000
,  // measure 50
0100
0000
0000
0000
1000
0000
0000
0001
,  // measure 51
0000
0001
0000
0001
0000
0000
0000
0000
,  // measure 52
1000
1000
1000
0000
,  // measure 53
0001
0100
1000
0000
,  // measure 54
0010
0000
0100
0000
0001
0000
0000
1000
,  // measure 55
0000
0000
0002
0003
,  // measure 56
1000
0000
1000
0000
,  // measure 57
0000
0001
0000
0001
0000
0000
0000
0000
,  // measure 58
0100
0000
0100
0000
,  // measure 59
0000
0010
0000
0010
0000
0000
0000
0000
,  // measure 60
1000
0000
0100
0000
,  // measure 61
0010
0000
0001
0000
,  // measure 62
0100
0000
1000
0000
,  // measure 63
0010
0000
0001
0000
,  // measure 64
1000
0100
1000
0000
,  // measure 65
0001
0100
0001
0000
,  // measure 66
1000
0010
1000
0000
,  // measure 67
0001
0010
0001
0000
,  // measure 68
1000
0100
1000
0000
,  // measure 69
0100
0001
0100
0000
,  // measure 70
0001
0010
0001
0000
,  // measure 71
0010
1000
0010
1000
;

//---------------dance-double - ----------------
#NOTES:
     dance-double:
     :
     Hard:
     12:
     0.605,0.568,0.330,0.292,0.009:
00000000
00000000
00000000
00000000
,
00000000
00000000
00000000
00000000
,
00000000
00000000
00000000
00000000
,
00000000
00000000
00000000
00000000
,
10000000
00000000
10000000
00000000
10000000
00000000
10000000
01000000
,
00010000
00000000
00010000
00000000
00010000
00000000
00010000
00001000
,
00000100
00000000
00000100
00000000
00000100
00000000
00000100
00000001
,
00000010
00000000
00000010
00000000
00000010
00000000
00000010
00002000
,
00000000
00000000
00000000
00000000
00003000
00010000
00010000
00000000
,
00001000
00100000
00010000
00100000
00001000
00100000
00010000
00100000
,
00000000
01000000
10000000
01000000
00100000
01000000
10000000
01000000
,
00100000
00010000
01000000
00010000
00100000
00010000
01000000
00010000
,
00000000
00100000
00010000
00100000
00001000
00100000
00010000
00100000
,
00002000
00000000
00000000
00000000
,
00013000
00010000
00000100
00000010
00000001
00000001
00000100
00000010
,
00001000
00000100
00010000
00000100
00000000
00001000
00000010
00000100
,
00000001
00000000
00001001
00000000
00001000
00000100
00010000
00002000
,
00000000
01003000
00000000
01100000
00000000
00100000
10000000
01000000
,
00010000
00000000
00010000
00000000
00001000
00010000
00001000
00000200
,
00000000
00000310
00000000
00001000
00000000
00002001
00000000
00003001
,
00000010
00000000
00000100
00000000
00010000
00001000
01000000
01100000
,
00000000
10100000
00000000
10010000
00000000
00220000
00000000
00330000
,
10000000
01000000
00100000
01000000
00010000
01000000
00000000
00100000
,
00010000
00100000
01000000
00100000
00000000
01000000
00010000
00001000
,
00000100
00000001
00000100
00000010
00000100
00001000
00000000
00000100
,
00000010
00000001
00000010
00001000
00000000
00002200
00000000
00003300
,
00000000
00000100
00010000
00001000
00010000
01000000
00000000
00100000
,
00001000
00010000
00001000
00000010
00000000
00000011
00000000
00001100
,
00000000
00000001
00000100
00001000
00010000
01000000
00000000
10000000
,
00100000
00010000
00001000
00000010
00000000
00000002
00000000
00000003
,
00002000
00000100
00003020
00000100
,
00020030
00001000
02030000
00100000
,
23000000
00100000
30020000
01000000
,
00032000
00000010
00003002
00000100
,
00000013
00000200
00001000
00000000
00020300
00000000
00001000
00000000
,
01030000
20000000
00100000
00000000
30020000
00000000
00100000
00000000
,
00031000
00000200
00000010
00000000
00002300
00000000
00000001
00000000
,
00003010
00000100
00000001
00001000
00000001
00000100
00001000
00010000
,
00200000
00000000
00000000
00000000
,
10300000
00000000
11000000
00000000
01000000
00100000
00001000
00021000
,
00000000
00030100
00000010
00000001
00000010
00000000
00000110
00000000
,
00001000
00000000
00001001
00000000
00000001
00000100
00001000
00011000
,
00000000
01010000
00000000
01100000
00000000
00010000
10000000
00000000
,
00100000
00000000
01100000
00000000
01000000
00001000
00010000
00010200
,
00000000
00000310
00000001
00000100
00000001
00000000
00001001
00000000
,
00001000
00000000
00000010
00000000
00010000
00001000
00000000
00001100
,
00000000
00000110
00000000
00001010
00000000
00000001
00001000
00000000
,
00000001
00000000
00000101
00000000
00000100
00000010
00010000
00012000
,
00000000
01003000
00100000
10000000
00100000
00000000
01100000
00000000
,
00010000
00000000
10000000
00000000
01000000
00010000
00000000
00011000
,
00000000
00001100
00000000
00000110
00000000
00001000
00000001
00000000
,
00000010
00000000
00000110
00000000
00000100
00010000
00001000
02001000
,
00000000
03100000
10000000
01000000
10000000
00000000
10010000
00000000
,
00010000
00000000
00100000
00000000
00001000
00010000
00000000
01010000
,
00000000
01100000
00000000
00220000
00000000
00000000
00330000
00000000
,
10000000
00000000
00000000
00000000
01000000
00000000
00000000
00010000
00001000
00000000
00000010
00000000
00000001
00000000
00000000
00000000
,
00000001
00000100
00000000
00001000
00000000
00010000
00100000
00000000
,
10000000
00000000
00000000
00000000
01000000
00000000
00000000
00010000
00001000
00000000
00000010
00000000
00000001
00000000
00000000
00000000
,
00000001
00000100
00000000
00001000
00000000
00010000
00100000
10000000
,
00010000
01000000
00010000
01000000
00001000
00010000
00001000
00010000
,
00000100
00001000
00000100
00001000
00000010
00000100
00000010
00000100
,
00000001
00000010
00000001
00000010
00000100
00001000
00000100
00001000
,
00010000
00100000
00010000
00100000
01000000
10000000
00000000
00000000
,
10000000
01000000
00100000
01000000
00010000
01000000
00100000
01000000
,
10000000
01000000
00100000
01000000
00010000
01000000
00100000
01000000
,
00001000
00000100
00000010
00000100
00000001
00000100
00000010
00000100
,
00001000
00000100
00000010
00000100
00000001
00000100
00000010
00000100
,
00010000
00100000
10000000
00100000
00010000
00100000
10000000
00100000
,
00010000
00000010
00000001
00000010
00001000
00000010
00000001
00000010
,
00001000
00000100
00000001
00000100
00001000
00000100
00000001
00000100
,
00010000
01000000
10000000
01000000
00010000
01000000
10000000
01000000
;

//---------------dance-double - ----------------
#NOTES:
     dance-double:
     :
     Medium:
     9:
     0.413,0.433,0.123,0.179,0.000:
00000000
00000000
00000000
00000000
,
00000000
00000000
00000000
00000000
,
00000000
00000000
00000000
00000000
,
00000000
00000000
00000000
00000000
,
00000001
00000100
00000001
00000100
,
00000010
00010000
00000010
00010000
,
00001000
01000000
00001000
01000000
,
00100000
00000000
10000000
00000000
00100000
00000000
10000000
02000000
,
00000000
00000000
00000000
00000000
03000000
00100000
01000000
00000000
,
11000000
00000000
00000000
00000000
00000000
00000000
00000000
10010000
,
00000000
00000000
00000000
00000000
,
01010000
00000000
00000000
00000000
01001000
00000000
00000000
00011000
,
00000000
00010100
00000110
00000000
,
00000002
00000000
00000000
00000000
,
00001003
00000100
00010000
00001000
,
01000000
00000000
00010000
01000000
00000000
01000000
00010000
00000000
,
10000000
00000000
10000000
00000000
01000000
00100000
00000000
01000000
,
00000000
10000000
00000000
00010000
00000000
01000000
00010000
00000000
,
01000000
00000000
00001000
00000000
00010000
00000100
00000000
00010000
,
00000000
00000100
00000000
00000010
00000000
00000001
00000000
00000100
,
00000010
00000000
00000100
00000000
00000001
00001000
00000000
00000100
,
00000000
00010000
00000000
00001000
00000000
00011000
00000000
00000000
,
00010000
00000000
01000000
00000000
10000000
00100000
00000000
00100000
,
10000000
00000000
10000000
01000000
00000000
01000000
00100000
00000000
,
00001000
00000000
00010000
00000000
00000100
00000010
00000000
00000010
,
00000001
00000000
00000001
00000100
00000000
00000100
00000000
00000000
,
00000010
00000000
00001000
00000000
00000100
00010000
00000000
00010000
,
00001000
00000000
00001000
01000000
00000000
00010000
00000000
01000000
,
00000000
00100000
10000000
00000000
10000000
01000000
00000000
01000000
,
00100000
00000000
00100000
00001000
00000000
00011000
00000000
00000000
,
00020000
00000000
00030200
00000000
,
00000320
00000000
00000032
00000000
,
00000203
00000000
00002300
00000000
,
00023000
00000000
00230000
00000000
,
20300000
31000000
02000000
03010000
,
00020000
00031000
00002000
00003100
,
00000200
00000301
00000002
00000013
,
00000020
00000130
00000200
00010300
,
00020000
00000000
00000000
00000000
,
00031000
00000000
00001000
00000000
00001000
01000000
00100000
01000000
,
00000000
00100000
01000000
00000000
00100000
00000000
01000000
00000000
,
00010000
00000000
00010000
00000000
00010000
10000000
01000000
00100000
,
00000000
00100000
00000000
00101000
00000000
00001000
00010000
00000000
,
00000100
00000000
00000100
00000000
00000100
00000010
00000001
00001000
,
00000000
00000001
00001000
00000000
00000001
00000000
00001000
00000000
,
00000010
00000000
00010000
00000000
00001000
01000000
00000000
00010000
,
00000000
00010000
00000000
01010000
00000000
10000000
01000000
00000000
,
00100000
00000000
00100000
00000000
00100000
00001000
00010000
00001000
,
00000000
00010000
00001000
00000000
00010000
00000000
00001000
00000000
,
00000100
00000000
00000010
00000000
00001000
00000001
00000000
00000100
,
00000000
00000100
00000000
00000110
00000000
00001000
00000001
00000000
,
00000010
00000000
00000010
00000000
00000010
00000100
00010000
00001000
,
00000000
00010000
00001000
00000000
00010000
00000000
00001000
00000000
,
01000000
00000000
00100000
00000000
10000000
00010000
00000000
01000000
,
00000000
01000000
00000000
01100000
00000000
00000000
00000000
00000000
,
10000000
01000000
00010000
00001000
,
00000010
00000001
00000100
00001000
,
00010000
00100000
10000000
01000000
,
00010000
00001000
00000010
00000001
,
00001000
00000100
00001000
00000000
00000100
00010000
00000100
00000000
,
00010000
00001000
00010000
00000000
00001000
01000000
00001000
00000000
,
01000000
00010000
01000000
00000000
00010000
00100000
00010000
00000000
,
00100000
01000000
00100000
00000000
01000000
10000000
00000000
00000000
,
00010000
10000000
01000000
00010000
,
00001000
00000100
00001000
00010000
,
00100000
00010000
00001000
00000100
,
00000001
00000010
00001000
00000010
,
00000001
00000100
00001000
00000000
00000100
00000000
00000001
00000000
,
00001000
00000100
00000001
00000000
00000100
00000000
00010000
00000000
,
00001000
01000000
00010000
00000000
01000000
00000000
10000000
00000000
,
01000000
00010000
00100000
00000000
10000000
00000000
00100000
00000000
;

//---------------dance-double - ----------------
#NOTES:
     dance-double:
     :
     Easy:
     4:
     0.214,0.300,0.000,0.047,0.000:
00000000
00000000
00000000
00000000
,
00000000
00000000
00000000
00000000
,
00000000
00000000
00000000
00000000
,
00000000
00000000
00000000
00000000
,
00001000
00001000
01000000
01000000
,
00001000
00001000
00010000
00010000
,
00000100
00000100
00000010
00000010
,
00000001
00000100
00001000
00020000
,
00000000
00000000
00000000
00030000
,
00001000
00000000
00000000
00000000
00000000
00000000
00000000
01000000
,
00000000
00000000
00000000
00000000
,
00100000
00000000
00000000
00000000
10000000
00000000
00000000
01000000
,
00000000
00100000
00001000
00000000
,
00020000
00000000
00000000
00030000
,
00001000
01000000
00001000
00000000
,
01000000
00000000
00010000
00000000
,
10000000
01000000
10000000
00000000
,
01000000
00000000
00010000
00000000
,
00001000
00010000
00001000
00000000
,
00000100
00000000
00000010
00000000
,
00001000
00000000
00000001
00000010
,
00000200
00000000
00000300
00000000
,
00010000
00000000
00010000
00000000
,
00001000
00010000
00001000
00000000
,
01000000
00000000
01000000
00000000
,
00010000
10000000
00010000
00000000
,
00100000
00000000
00100000
00000000
,
00001000
00010000
00001000
00000000
,
00010000
00000000
00010000
00000000
,
00000100
00001000
00000010
00000000
,
00000100
00000000
00000001
00000000
,
00000100
00000000
00000001
00000000
,
00001000
00000000
00000100
00000000
,
00001000
00000000
00000100
00000000
,
00010000
00000000
00001000
00000000
,
00010000
00000000
00001000
00000000
,
01000000
00000000
00010000
00000000
,
10000000
00000000
01000000
00000000
,
00200000
00000000
00000000
00300000
,
00001000
00000000
00001000
00000000
,
00001000
00010000
00000100
00000000
,
00001000
00000000
00001000
00000000
,
00001000
00000010
00000100
00000000
,
00000001
00000000
00000001
00000000
,
00000001
00000010
00000100
00000000
,
00010000
00000000
00010000
00000000
,
00010000
00001000
00010000
00000000
,
00001000
00000000
00001000
00000000
,
00001000
01000000
00010000
00000000
,
10000000
00000000
00000000
00000000
,
00010000
00000000
00000000
00000000
,
01000000
00000000
01000000
00000000
,
01000000
00001000
00010000
00000000
,
00001000
00000000
00001000
00000000
,
00020000
00000000
00000000
00030000
,
00001000
00000000
00001000
00000000
,
00001000
01000000
00010000
00000000
,
10000000
00000000
10000000
00000000
,
01000000
00100000
00010000
00000000
,
00001000
00000000
00000100
00000000
,
00000010
00000000
00000001
00000000
,
00001000
00000000
00010000
00000000
,
10000000
00000000
00010000
00000000
,
10000000
00000000
10000000
00000000
,
01000000
00000000
01000000
00000000
,
00100000
00000000
00100000
00000000
,
00001000
00000000
00001000
00000000
,
00010000
00010000
00000100
00000000
,
00000100
00000100
00001000
00000000
,
00001000
00001000
00000010
00000000
,
00000010
00000010
00000100
00000001
;

//---------------dance-single - ----------------
#NOTES:
     dance-single:
     :
     Beginner:
     1:
     0.124,0.165,0.000,0.075,0.000: // measure 1
0000
0000
0000
0000
,  // measure 2
0000
0000
0000
0000
,  // measure 3
0000
0000
0000
0000
,  // measure 4
0000
0000
0000
0000
,  // measure 5
1000
0000
0000
0000
,  // measure 6
0001
0000
0000
0000
,  // measure 7
1000
0000
0000
0000
,  // measure 8
0001
0000
0000
0000
,  // measure 9
0200
0000
0300
0000
,  // measure 10
0010
0000
0000
0000
,  // measure 11
0000
0000
0000
0000
,  // measure 12
0100
0000
0100
0000
,  // measure 13
0000
0000
0000
0000
,  // measure 14
0002
0000
0003
0000
,  // measure 15
1000
0000
1000
0000
,  // measure 16
1000
0000
0000
0000
,  // measure 17
0001
0000
0001
0000
,  // measure 18
0001
0000
0000
0000
,  // measure 19
0100
0000
0100
0000
,  // measure 20
0100
0000
0000
0000
,  // measure 21
0010
0000
0010
0000
,  // measure 22
0010
0000
0000
0000
,  // measure 23
1000
0000
1000
0000
,  // measure 24
1000
0000
0000
0000
,  // measure 25
0100
0000
0100
0000
,  // measure 26
0100
0000
0000
0000
,  // measure 27
0001
0000
0001
0000
,  // measure 28
0001
0000
0000
0000
,  // measure 29
0010
0000
0010
0000
,  // measure 30
0010
0000
0000
0000
,  // measure 31
1000
0000
0000
0000
,  // measure 32
0100
0000
0000
0000
,  // measure 33
0010
0000
0000
0000
,  // measure 34
0001
0000
0000
0000
,  // measure 35
2000
0000
3000
0000
,  // measure 36
0020
0000
0030
0000
,  // measure 37
0200
0000
0300
0000
,  // measure 38
0002
0000
0003
0000
,  // measure 39
0020
0000
0030
0000
,  // measure 40
0100
0000
0100
0000
,  // measure 41
0100
0000
0000
0000
,  // measure 42
0100
0000
0100
0000
,  // measure 43
0100
0000
0000
0000
,  // measure 44
1000
0000
1000
0000
,  // measure 45
1000
0000
0000
0000
,  // measure 46
0001
0000
0001
0000
,  // measure 47
0001
0000
0000
0000
,  // measure 48
0100
0000
0100
0000
,  // measure 49
0100
0000
0000
0000
,  // measure 50
0100
0000
0000
0000
,  // measure 51
0000
0000
0000
0000
,  // measure 52
0010
0000
0010
0000
,  // measure 53
0010
0000
0000
0000
,  // measure 54
0010
0000
0010
0000
,  // measure 55
0020
0000
0030
0000
,  // measure 56
1000
0000
0000
0000
,  // measure 57
0100
0000
0000
0000
,  // measure 58
0001
0000
0000
0000
,  // measure 59
0010
0000
0000
0000
,  // measure 60
1000
0000
0000
0000
,  // measure 61
0010
0000
0000
0000
,  // measure 62
0001
0000
0000
0000
,  // measure 63
0100
0000
0000
0000
,  // measure 64
1000
0000
1000
0000
,  // measure 65
1000
0000
0000
0000
,  // measure 66
0001
0000
0001
0000
,  // measure 67
0001
0000
0000
0000
,  // measure 68
0100
0000
0100
0000
,  // measure 69
0100
0000
0000
0000
,  // measure 70
0010
0000
0010
0000
,  // measure 71
0010
0000
0000
0000
;
