#TITLE:Acceleration;
#SUBTITLE:;
#ARTIST:REDALiCE;
#TITLETRANSLIT:;
#SUBTITLETRANSLIT:;
#ARTISTTRANSLIT:;
#GENRE:;
#CREDIT:Silverhawke;
#MENUCOLOR:;
#METERTYPE:DDR;
#BANNER:Acceleration.png;
#BACKGROUND:Acceleration-bg.png;
#LYRICSPATH:;
#CDTITLE:cdtitle.png;
#MUSIC:Acceleration.mp3;
#OFFSET:-0.028;
#SAMPLESTART:57.361;
#SAMPLELENGTH:15.000;
#SELECTABLE:YES;
#LISTSORT:;
#BPMS:0.000=180.000;
#STOPS:;
#BGCHANGES:;
#ATTACKS:;

//---------------dance-single - ----------------
#NOTES:
     dance-single:
     :
     Hard:
     12:
     0.646,0.689,0.278,0.435,0.048:
0000
0000
0000
0000
,
0000
0000
0000
0000
,
0000
0000
0000
0000
,
0000
0000
0000
0000
,
0000
0000
0000
0000
,
0000
0000
0000
0000
,
0000
0000
0000
0000
,
0000
0000
0000
0000
,
2000
0100
0100
3100
,
0020
0031
0002
0103
,
0020
1000
1030
2000
,
3002
0010
0010
0013
,
0200
1000
1000
1300
,
0020
0031
0002
0103
,
0200
0010
0310
0020
,
2030
0100
0100
3100
,
0110
0000
0000
1001
,
0001
0100
0001
0100
0001
0100
0010
0100
,
0001
0010
0100
1000
0000
2002
0000
3003
,
1000
0100
1000
0100
1000
0100
0010
0100
,
1000
0010
0100
0001
0010
0100
2000
0000
,
3010
0100
0010
0100
0010
0100
0001
0100
,
0010
1000
0100
0010
0000
0220
0000
0330
,
1000
0001
1000
0001
0010
0100
1000
0010
,
0100
0000
0000
0001
0000
0000
0101
0000
0000
0000
1000
0000
1200
0000
0000
0000
,
0310
0001
0010
0001
0100
0010
1000
0100
,
0001
0100
1000
0001
0000
0202
0000
0303
,
0010
1000
0010
1000
0100
0010
0100
0010
,
0001
0100
1000
0100
0001
0010
0200
0000
,
1300
0010
1000
0010
1000
0010
0100
0010
,
1000
0100
0001
0100
0000
2200
0000
3300
,
0001
0100
0001
0100
0010
1000
0100
0001
,
0100
1000
1000
1100
0000
0001
0201
0000
,
0310
0010
1000
1000
,
0100
0100
0001
0001
,
0010
0010
0001
0001
,
0100
0100
1000
1000
,
0010
0001
0100
1000
,
0010
1000
0100
0001
,
0010
1000
0001
1000
0010
0100
0001
0010
,
0100
1000
0001
0100
1000
0100
0001
1000
,
0100
0000
0010
0100
0000
0010
0100
0000
1000
0000
0010
0100
0000
0010
0100
0000
,
0001
0000
1000
0001
1001
0000
0110
0000
,
1000
0100
1000
0100
1000
0100
0010
0100
,
1000
0010
0100
0001
0000
2002
0000
3003
,
0001
0100
0001
0100
0001
0100
0010
0100
,
0001
0010
0100
1000
0010
0100
0002
0000
,
0013
0100
0010
0100
0010
0100
1000
0100
,
0010
0001
0100
0010
0000
0220
0000
0330
,
0001
1000
0001
1000
0010
0100
0001
0010
,
0100
0000
0000
1000
0100
0000
1100
0000
0000
0000
0001
0000
0201
0000
0000
0000
,
0310
1000
0010
1000
0100
0010
0001
0100
,
1000
0100
0001
1000
0000
2200
0000
3300
,
0010
0001
0010
0001
0100
0010
0100
0010
,
1000
0100
0001
0100
1000
0010
0200
0000
,
0301
0010
0001
0010
0001
0010
0100
0010
,
0001
0100
1000
0100
0000
0202
0000
0303
,
1000
0100
1000
0100
0010
0001
0100
1000
,
0100
0000
0000
0001
0100
0000
0101
0000
0000
0000
1000
0000
1200
0000
0000
0000
,
0310
0000
0000
0001
0010
0000
0011
0000
0000
0000
1000
0000
1010
0000
0000
0000
,
1001
0000
0000
0000
;

//---------------dance-single - ----------------
#NOTES:
     dance-single:
     :
     Medium:
     9:
     0.463,0.471,0.314,0.000,0.012:
0000
0000
0000
0000
,
0000
0000
0000
0000
,
0000
0000
0000
0000
,
0000
0000
0000
0000
,
0000
0000
0000
0000
,
0000
0000
0000
0000
,
0000
0000
0000
0000
,
0000
0000
0000
0000
,
0001
0001
0001
0001
,
0100
0100
0100
0100
,
1000
1000
1000
1000
,
0010
0010
0010
0010
,
0001
0001
0100
0100
,
1000
1000
0010
0010
,
0001
0100
1000
0010
,
0001
0010
0100
1000
,
1001
0000
0000
0100
,
0001
0101
1000
1100
,
0001
0000
0100
0010
0000
0110
0000
0000
,
1000
1100
0001
0101
,
1000
0000
0010
0100
0000
0001
1000
0000
,
0100
0011
0100
1010
,
0100
0000
0001
0100
0000
0110
0000
0000
,
1000
0000
0101
0000
0001
0000
1000
0100
,
0010
0000
0001
1000
0000
0100
0010
0000
,
0001
0101
0100
0101
,
0001
0010
0100
1000
0000
1001
0000
0000
,
1000
1100
0100
1100
,
1000
0010
0100
0001
0000
1000
0001
0000
,
1000
1010
0010
1010
,
1000
0100
0010
0001
0000
0101
0000
0000
,
0001
0011
0010
0011
,
0001
0100
0100
0010
0000
1000
0001
0000
,
1000
0100
1000
0100
,
0010
0001
0010
0001
,
0100
1000
0100
1000
,
0001
0010
0001
0010
,
0100
1000
0010
0001
,
0100
1000
0010
0100
,
0001
0010
0100
1000
,
0001
0100
1000
0001
,
0010
0000
0000
0010
0000
0000
0010
0000
0100
0000
0000
0100
0000
0000
0100
0000
,
0000
0000
1000
0001
1000
0000
1001
0000
,
0001
0100
0001
0000
0100
0001
0100
0000
,
0001
0000
0010
0100
0000
1100
0000
0000
,
1000
0100
1000
0000
0100
1000
0100
0000
,
0010
0000
0001
0100
0000
0010
1000
0000
,
0001
0010
0001
0000
0010
0001
0010
0000
,
0001
0000
0010
0100
0000
1100
0000
0000
,
1000
0010
1000
0000
0010
1000
0010
0000
,
1000
0000
0001
1000
0000
0010
0100
0000
,
0001
1000
0001
0000
1000
0100
1000
0000
,
0100
0010
0001
0100
0000
0110
0000
0000
,
0010
1000
0010
0000
1000
0100
1000
0000
,
0100
0010
0001
0100
0000
0010
1000
0000
,
0001
0010
0001
0000
0010
0100
0010
0000
,
0100
1000
0010
0100
0000
0101
0000
0000
,
0001
1000
0001
0000
1000
0100
1000
0000
,
0100
0000
0010
0001
0000
1000
0010
0000
,
0100
0000
0010
1000
0000
0001
0010
0000
,
1001
0000
0000
0000
;

//---------------dance-single - ----------------
#NOTES:
     dance-single:
     :
     Easy:
     6:
     0.281,0.326,0.012,0.000,0.000:
0000
0000
0000
0000
,
0000
0000
0000
0000
,
0000
0000
0000
0000
,
0000
0000
0000
0000
,
0000
0000
0000
0000
,
0000
0000
0000
0000
,
0000
0000
0000
0000
,
0000
0000
0000
0000
,
1000
0100
0100
0100
,
0100
0100
0100
0100
,
0010
0001
0001
0001
,
0001
0001
0001
0001
,
1000
0010
0010
0010
,
0010
0010
0010
0010
,
0100
0001
0001
0001
,
0001
0001
0001
0001
,
1000
0000
0000
0000
,
0001
0001
0100
0000
,
1000
1000
0100
0000
,
0001
0001
0010
0000
,
1000
1000
0010
0000
,
0001
0100
0010
0000
,
1000
0100
0010
0000
,
0001
0010
0100
0000
,
1000
0010
0000
0100
,
0001
0010
0001
0000
,
1000
0010
1000
0000
,
0001
0100
0001
0000
,
1000
0100
1000
0000
,
0001
0010
0100
0000
,
1000
0010
0100
0000
,
0001
0100
1000
0000
,
1000
0100
0000
0001
,
1000
0000
0100
0000
,
0010
0000
0001
0000
,
1000
0000
0010
0000
,
0100
0000
0001
0000
,
0010
0100
0010
0100
,
0010
0100
0010
0000
,
0001
1000
0001
1000
,
0001
1000
0001
0000
,
1000
0000
0001
0000
,
1001
0000
0000
0000
,
1000
0010
1000
0000
,
0001
0010
0001
0000
,
1000
0100
1000
0000
,
0001
0100
0001
0000
,
1000
0010
0100
0000
,
0001
0010
0100
0000
,
1000
0100
0001
0000
,
0001
0100
0000
1000
,
0001
0100
0010
0000
,
1000
0100
0010
0010
,
0001
1000
0100
0000
,
1000
0001
0100
0100
,
0010
1000
0001
0000
,
0100
0001
0010
0010
,
0100
1000
0100
1000
,
0001
1000
0000
0100
,
0010
0001
0000
0100
,
0010
0000
0000
0000
;

//---------------dance-single - ----------------
#NOTES:
     dance-single:
     :
     Beginner:
     1:
     0.130,0.181,0.012,0.000,0.000:
0000
0000
0000
0000
,
0000
0000
0000
0000
,
0000
0000
0000
0000
,
0000
0000
0000
0000
,
0000
0000
0000
0000
,
0000
0000
0000
0000
,
0000
0000
0000
0000
,
0000
0000
0000
0000
,
1000
0000
0000
0000
,
0001
0000
0001
0000
,
0001
0000
0000
0000
,
0100
0000
0100
0000
,
0100
0000
0000
0000
,
0010
0000
0010
0000
,
0010
0000
0000
0000
,
1000
0000
1000
0000
,
1000
0000
0000
0000
,
0001
0000
0000
0000
,
1000
0000
0000
0000
,
0001
0000
0000
0000
,
1000
0000
0000
0000
,
0010
0000
0000
0000
,
0100
0000
0000
0000
,
0010
0000
0000
0000
,
0100
0000
0000
0000
,
0001
0000
0001
0000
,
0001
0000
0000
0000
,
1000
0000
1000
0000
,
1000
0000
0000
0000
,
0010
0000
0010
0000
,
0010
0000
0000
0000
,
0100
0000
0100
0000
,
0100
0000
0000
0000
,
0001
0000
0000
0000
,
0010
0000
0010
0000
,
0010
0000
0000
0000
,
0100
0000
0100
0000
,
0100
0000
0000
0000
,
1000
0000
1000
0000
,
1000
0000
0000
0000
,
0010
0000
0010
0000
,
0010
0000
0010
0000
,
0010
0000
0000
0000
,
1000
0000
1000
0000
,
1000
0000
0000
0000
,
0100
0000
0100
0000
,
0100
0000
0000
0000
,
0010
0000
0010
0000
,
0010
0000
0000
0000
,
0001
0000
0001
0000
,
0001
0000
0000
0000
,
1000
0000
1000
0000
,
0010
0000
0000
0000
,
0010
0000
0010
0000
,
0100
0000
0000
0000
,
0100
0000
0100
0000
,
0001
0000
0000
0000
,
0001
0000
0001
0000
,
1000
0000
0000
0000
,
0001
0000
0000
0000
,
1001
0000
0000
0000
;

//---------------dance-double - ----------------
#NOTES:
     dance-double:
     :
     Hard:
     11:
     0.556,0.616,0.169,0.338,0.024:
00000000
00000000
00000000
00000000
,
00000000
00000000
00000000
00000000
,
00000000
00000000
00000000
00000000
,
00000000
00000000
00000000
00000000
,
00000000
00000000
00000000
00000000
,
00000000
00000000
00000000
00000000
,
00000000
00000000
00000000
00000000
,
00000000
00000000
00000000
00000000
,
20000000
01000000
01000000
01000000
,
01000000
01000000
01000000
31000000
,
00200000
00001000
00001000
00001000
,
00001000
00001000
00001000
00301000
,
00010000
00000100
00010000
00000100
,
00000010
00000001
00000010
00000001
,
00000100
00000010
00000100
00000010
00001000
00000100
00001000
00000100
,
00010000
00001000
00010000
00001000
01000000
00100000
01000000
00100000
,
10000000
00000000
00000000
00010000
,
10000000
01000000
10000000
01000000
00100000
00001000
00100000
00000000
,
00001000
00000000
00010000
00000010
00000000
00000210
00000000
00000000
,
00000301
00000010
00000001
00000010
00000100
00000010
00000001
00000000
,
00000100
00000000
00000010
00010000
00000000
00001000
02000000
00000000
,
03100000
10000000
00100000
10000000
01000000
00100000
00001000
00000000
,
00010000
00000000
00000100
00000010
00000000
00000012
00000000
00000000
,
00000103
00000010
00000100
00000010
00010000
00001000
00010000
00000000
,
00001000
01000000
00000000
00100000
00000000
10000000
10010000
00000000
,
00010000
01000000
00100000
10000000
01000000
00100000
00001000
00000000
,
00010000
00000010
00000100
00000001
00000000
00002001
00000000
00000000
,
00003100
00010000
00001000
00000010
00000100
00010000
00001000
00000000
,
00100000
01000000
10000000
00010000
00000000
01000000
00200000
00000000
,
10300000
01000000
00100000
01000000
10000000
00010000
01000000
00000000
,
00001000
00010000
00000100
00000010
00000000
00000012
00000000
00000000
,
00001003
00001000
00000100
00000100
00010000
00001000
01000000
00000000
,
00100000
10000000
10000000
00010000
00000000
00100000
01000000
00000000
,
20000000
00000000
00000000
30200000
,
02300000
00000000
03002000
00000000
,
00023000
00000000
00000000
00030200
,
00002300
00000000
00000000
00003020
00000000
00000000
00000230
00000000
,
00000302
00000000
00000000
00000203
,
00002300
00000000
00023000
00000000
,
00230000
00000000
00000000
00000000
00000000
00000000
10300000
00010000
,
10000000
00000000
01000000
00100000
00000000
00001000
00010000
00000000
,
00000100
00000000
00001000
00000001
00000000
00001000
00000001
00000000
00000010
00000000
00000001
00001000
00000000
00000001
00001000
00000000
,
00000010
00000000
00000000
00001001
,
00001000
00000100
00000010
00000001
00000100
00000010
00010000
00000000
,
00001000
00100000
01000000
10000000
00000000
10020000
00000000
00000000
,
01030000
00001000
00010000
00100000
01000000
00001000
00010000
00000000
,
00000010
00000100
00000001
00001000
00000000
00000100
00000020
00000000
,
00000031
00000100
00000010
00000100
00000001
00001000
00000100
00000000
,
00010000
00001000
01000000
00100000
00000000
20100000
00000000
00000000
,
30010000
00010000
01000000
01000000
00001000
00010000
00000100
00000000
,
00000010
00000001
00000000
00001000
00000000
00000010
00000100
00000000
,
00000002
00000003
00000000
00000000
00000000
00000000
00000000
00000000
00000000
00000000
00000000
00000000
00000000
00000000
00000000
00000000
00000000
00000000
00000000
00000000
00000000
00000000
00000000
00000000
00000100
00000000
00000000
00000000
00000000
00000000
00000000
00000000
00000000
00000000
00000000
00000000
00000000
00000000
00000000
00000000
00000000
00000000
00000000
00000000
00000000
00000000
00000000
00000000
00000010
00000000
00000000
00000000
00000000
00000000
00000000
00000000
00000000
00000000
00000000
00000000
00000000
00000000
00000000
00000000
00000000
00000000
00000000
00000000
00000000
00000000
00000000
00000000
00000100
00000000
00000000
00000000
00000000
00000000
00000000
00000000
00000000
00000000
00000000
00000000
00000000
00000000
00000000
00000000
00000000
00000000
00000000
00000000
00000000
00000000
00000000
00000000
00001000
00000000
00000000
00000000
00000000
00000000
00000000
00000000
00000000
00000000
00000000
00000000
00000000
00000000
00000000
00000000
00000000
00000000
00000000
00000000
00000000
00000000
00000000
00000000
00000100
00000000
00000000
00000000
00000000
00000000
00000000
00000000
00000000
00000000
00000000
00000000
00000000
00000000
00000000
00000000
00000000
00000000
00000000
00000000
00000000
00000000
00000000
00000000
00000010
00000000
00000000
00000000
00000000
00000000
00000000
00000000
00000000
00000000
00000000
00000000
00000000
00000000
00000000
00000000
00000000
00000000
00000000
00000000
00000000
00000000
00000000
00000000
00000100
00000000
00000000
00000000
00000000
00000000
00000000
00000000
00000000
00000000
00000000
00000000
00000000
00000000
00000000
00000000
00000000
00000000
00000000
00000000
00000000
00000000
00000000
00000000
,
00001000
00010000
00100000
01000000
00000000
01200000
00000000
00000000
,
10300000
01000000
00010000
01000000
00100000
01000000
00010000
00001000
,
00000010
00000100
00001000
00000001
00000100
00000010
00000110
00000000
,
00000001
00000100
00001000
00000100
00000010
00000100
00001000
00010000
,
00100000
01000000
00010000
10000000
00000000
10020000
00000000
00000000
,
00130000
01000000
10000000
01000000
00010000
00001000
00000100
00000001
,
00000010
00000100
00000000
00010100
00000000
00001000
01000000
00000000
,
00100000
01000000
00000000
01001000
00000000
00010000
00000100
00000000
,
00000110
00000000
00000000
00000000
;

//---------------dance-double - ----------------
#NOTES:
     dance-double:
     :
     Medium:
     9:
     0.442,0.508,0.000,0.145,0.012: // measure 1
00000000
00000000
00000000
00000000
,  // measure 2
00000000
00000000
00000000
00000000
,  // measure 3
00000000
00000000
00000000
00000000
,  // measure 4
00000000
00000000
00000000
00000000
,  // measure 5
00000000
00000000
00000000
00000000
,  // measure 6
00000000
00000000
00000000
00000000
,  // measure 7
00000000
00000000
00000000
00000000
,  // measure 8
00000000
00000000
00000000
00000000
,  // measure 9
00000001
00000001
00000001
00000001
,  // measure 10
00000010
00000010
00000010
00000010
,  // measure 11
00000100
00000100
00000100
00000100
,  // measure 12
00010000
00010000
00010000
00010000
,  // measure 13
00001000
00001000
00001000
00001000
,  // measure 14
00100000
00100000
00100000
00100000
,  // measure 15
01000000
01000000
01000000
01000000
,  // measure 16
10000000
10000000
10000000
10000000
,  // measure 17
00010000
00000000
00000000
00000000
,  // measure 18
10000000
00000000
00100000
00000000
01000000
00010000
01000000
00000000
,  // measure 19
00010000
00000000
00100000
00001000
00000000
00020000
00000000
00000000
,  // measure 20
00031000
00000000
00000010
00000000
00000100
00001000
00000100
00000000
,  // measure 21
00000010
00000000
00000001
00000100
00000000
00000010
00002000
00000000
,  // measure 22
00003001
00000000
00000010
00000000
00000100
00001000
00000100
00000000
,  // measure 23
00000010
00000000
00001000
00010000
00000000
00002000
00000000
00000000
,  // measure 24
00013000
00000000
00100000
00000000
01000000
00000000
00100000
10000000
,  // measure 25
00010000
00100000
00000000
01000000
00000000
00100000
00010000
00000000
,  // measure 26
10000000
00000000
00100000
00000000
00010000
00001000
00010000
00000000
,  // measure 27
00100000
00000000
01000000
00001000
00000000
00020000
00000000
00000000
,  // measure 28
00031000
00000000
00000010
00000000
00000001
00000100
00000001
00000000
,  // measure 29
00000100
00000000
00000010
00010000
00000000
00001000
00020000
00000000
,  // measure 30
00031000
00000000
00100000
00000000
01000000
10000000
01000000
00000000
,  // measure 31
00100000
00000000
00001000
00010000
00000000
00000020
00000000
00000000
,  // measure 32
00000130
00000001
00000100
00000001
00000100
00000001
00001000
00000001
,  // measure 33
00000010
00000100
00000100
00010000
00000000
00000100
00000010
00000000
,  // measure 34
00000001
00000001
00000001
00000001
,  // measure 35
00000100
00000100
00000100
00000100
,  // measure 36
00000010
00000010
00000010
00000010
,  // measure 37
00010000
00010000
00010000
00010000
,  // measure 38
00001000
00001000
00001000
00001000
,  // measure 39
01000000
01000000
01000000
01000000
,  // measure 40
00100000
00100000
00100000
00100000
,  // measure 41
10000000
10000000
10000000
10000000
,  // measure 42
00010000
00000000
00000000
10000000
00000000
00000000
00010000
00000000
10000000
00000000
00000000
00010000
00000000
00000000
10000000
00000000
,  // measure 43
00010000
00000000
00000000
00000000
,  // measure 44
10000000
00000000
00100000
00000000
00010000
00001000
00010000
00000000
,  // measure 45
00100000
00000000
01000000
00001000
00000000
00020000
00000000
00000000
,  // measure 46
00031000
00000000
00000010
00000000
00000001
00000100
00000001
00000000
,  // measure 47
00000100
00000000
00000010
00010000
00000000
00001000
00020000
00000000
,  // measure 48
00031000
00000000
00100000
00000000
01000000
10000000
01000000
00000000
,  // measure 49
00100000
00000000
00001000
00010000
00000000
00000020
00000000
00000000
,  // measure 50
00000130
00000000
00000001
00000000
00000100
00000010
00001000
00000001
,  // measure 51
00000010
00000100
00000000
00000010
00000000
00000001
00000100
00000000
,  // measure 52
00000001
00000010
00000001
00000010
00000100
00000010
00000001
00000000
,  // measure 53
00001000
00000000
00000010
00010000
00000000
00002000
00000000
00000000
,  // measure 54
00103000
00010000
00100000
00010000
01000000
00100000
10000000
00000000
,  // measure 55
00010000
00000000
00100000
01000000
00000000
00100000
00020000
00000000
,  // measure 56
10030000
00100000
10000000
00100000
00010000
00100000
00010000
00000000
,  // measure 57
00001000
00000000
00000100
00000001
00000000
00002000
00000000
00000000
,  // measure 58
00003001
00000010
00000100
00001000
00000001
00000010
00000100
00001000
,  // measure 59
00000001
00000100
00000000
00001000
00000000
00010000
01000000
00000000
,  // measure 60
10000000
01000000
00000000
00010000
00000000
00001000
00000100
00000000
,  // measure 61
00000001
00000000
00000000
00000000
;

//---------------dance-double - ----------------
#NOTES:
     dance-double:
     :
     Easy:
     5:
     0.240,0.290,0.024,0.000,0.000: // measure 1
00000000
00000000
00000000
00000000
,  // measure 2
00000000
00000000
00000000
00000000
,  // measure 3
00000000
00000000
00000000
00000000
,  // measure 4
00000000
00000000
00000000
00000000
,  // measure 5
00000000
00000000
00000000
00000000
,  // measure 6
00000000
00000000
00000000
00000000
,  // measure 7
00000000
00000000
00000000
00000000
,  // measure 8
00000000
00000000
00000000
00000000
,  // measure 9
00010000
00000000
00001000
00000000
,  // measure 10
00010000
00000000
00001000
00000000
,  // measure 11
01000000
00000000
00010000
00000000
,  // measure 12
01000000
00000000
00010000
00000000
,  // measure 13
10000000
00000000
00100000
00000000
,  // measure 14
10000000
00000000
00100000
00000000
,  // measure 15
10000000
00000000
01000000
00000000
,  // measure 16
10000000
00000000
01000000
00000000
,  // measure 17
01100000
00000000
00000000
00000000
,  // measure 18
10000000
10000000
01000000
00000000
,  // measure 19
00100000
00001000
00010000
00000000
,  // measure 20
00001000
00001000
00010000
00000000
,  // measure 21
00000100
00001000
00000010
00000000
,  // measure 22
00000100
00000100
00000001
00000000
,  // measure 23
00000010
00000100
00010000
00000000
,  // measure 24
00001000
00010000
00001000
01000000
,  // measure 25
00010000
00000000
10000000
00000000
,  // measure 26
00010000
00010000
01000000
00000000
,  // measure 27
00100000
10000000
01000000
00000000
,  // measure 28
00010000
00010000
00001000
00000000
,  // measure 29
00000100
00000010
00001000
00000000
,  // measure 30
00000001
00000001
00000010
00000000
,  // measure 31
00000100
00010000
00001000
00000000
,  // measure 32
01000000
00010000
01000000
00010000
,  // measure 33
10000000
00000000
01000000
00000000
,  // measure 34
10000000
00000000
00100000
00000000
,  // measure 35
10000000
00000000
00100000
00000000
,  // measure 36
01000000
00000000
00001000
00000000
,  // measure 37
01000000
00000000
00001000
00000000
,  // measure 38
00010000
00000000
00000100
00000000
,  // measure 39
00010000
00000000
00000100
00000000
,  // measure 40
00000010
00000000
00000001
00000000
,  // measure 41
00000010
00000000
00000001
00000000
,  // measure 42
00000100
00000000
00000100
00000000
,  // measure 43
00000110
00000000
00000000
00000000
,  // measure 44
00000001
00000001
00000100
00000000
,  // measure 45
00000010
00010000
00001000
00000000
,  // measure 46
00010000
00010000
00001000
00000000
,  // measure 47
01000000
00010000
00100000
00000000
,  // measure 48
01000000
01000000
10000000
00000000
,  // measure 49
00100000
01000000
00001000
00000000
,  // measure 50
00010000
00001000
00010000
00000100
,  // measure 51
00001000
00000000
00000001
00000000
,  // measure 52
00001000
00001000
00000100
00000000
,  // measure 53
00000010
00000001
00000100
00000000
,  // measure 54
00001000
00001000
00010000
00000000
,  // measure 55
01000000
00100000
00010000
00000000
,  // measure 56
10000000
10000000
00100000
00000000
,  // measure 57
01000000
00001000
00010000
00000000
,  // measure 58
00000100
00001000
00000100
00001000
,  // measure 59
00000001
00000100
00000000
00000100
,  // measure 60
00000001
00000100
00000000
00000100
,  // measure 61
00000010
00000000
00000000
00000000
;
