#TITLE:AA BlackY mix;
#SUBTITLE:;
#ARTIST:BlackY;
#TITLETRANSLIT:;
#SUBTITLETRANSLIT:;
#ARTISTTRANSLIT:;
#GENRE:;
#CREDIT:Silverhawke;
#MENUCOLOR:;
#METERTYPE:DDR;
#BANNER:AA BlackY mix.png;
#BACKGROUND:AA BlackY mix-bg.png;
#LYRICSPATH:;
#CDTITLE:cdtitle.png;
#MUSIC:AA BlackY mix.mp3;
#OFFSET:-0.028;
#SAMPLESTART:85.520;
#SAMPLELENGTH:15.000;
#SELECTABLE:YES;
#LISTSORT:;
#BPMS:0.000=160.000;
#STOPS:;
#BGCHANGES:;
#ATTACKS:;

//---------------dance-single - ----------------
#NOTES:
     dance-single:
     :
     Hard:
     14:
     0.599,0.686,0.197,0.103,0.453:
0000
0000
0000
0000
,
0000
0000
0000
0000
,
0000
0000
0000
0000
,
0000
0000
0000
0000
,
0000
0000
0000
0000
,
0001
0100
0001
0100
1000
0100
1000
0100
,
0010
1000
0010
1000
0010
0001
0010
0001
,
0010
0000
1000
0000
0100
0000
0010
0000
0001
0000
0010
0100
0010
0100
1000
0002
,
0000
0000
0000
0000
0000
0000
0000
0003
,
1000
0100
1000
0010
0100
0001
0010
0010
,
0100
1000
0010
0001
,
0100
1000
0010
0100
0001
0010
0100
0100
,
0010
0001
0100
1000
,
0010
0001
1000
0010
0100
0001
0010
0010
,
0100
1000
0010
0001
,
0100
0000
0010
0000
0100
0000
0010
0000
0001
0100
0001
0000
1000
0100
1000
0000
,
1001
0000
0000
0000
0000
0000
0000
0000
0000
0110
0000
0000
1001
0000
0000
0000
,
0010
0000
1000
0000
0100
0000
0010
0000
0100
0000
1000
0000
0010
0100
0010
0000
,
1000
0000
0001
0000
0010
0000
0100
0000
0010
0000
0001
0000
0100
0010
0100
0000
,
0001
0000
0010
0000
1000
0000
0010
0000
0100
0000
1000
0000
0010
0100
0010
0000
,
1000
0000
0100
0000
0001
0000
0100
0000
0010
0000
0001
0000
0100
0010
0100
0000
,
1001
0000
0001
0000
0100
0000
0010
0000
1000
0000
0100
0000
0010
0001
0010
0000
,
0011
0000
1000
0000
0010
0000
0100
0000
0001
0000
0010
0000
0100
1000
0100
0000
,
1100
0001
0100
0001
1000
0100
1000
0100
,
0010
0000
0001
0000
1000
0000
0010
0000
1000
0100
1000
0000
0001
0100
0001
0000
,
0020
0000
0000
0000
,
0230
0000
0000
0000
,
2300
0000
0000
0000
,
3020
0000
0000
0000
,
0230
0000
0000
0000
,
0302
0000
0000
0000
,
2003
0000
0000
0000
,
3200
0000
0310
0100
,
0110
0000
1000
0001
0101
0000
0010
1000
,
1100
0000
0000
0110
0000
0000
0011
0000
1001
0000
0010
0000
0000
0000
0100
0010
,
0100
0000
0001
1000
1100
0000
0010
0001
,
0101
0000
0000
0110
0000
0000
1010
0000
1001
0000
0100
0000
0010
0000
1000
0001
,
1000
0000
0100
0010
0011
0000
0100
0010
,
1010
0000
0000
0110
0000
0000
0101
0000
1001
0000
0100
0000
0000
0000
0010
0000
,
0001
0100
0001
0000
0100
0000
0100
0000
1000
0100
1000
0000
0100
0000
0100
0000
,
0001
0010
0001
0000
1000
0010
1000
0000
0001
0010
0100
0000
1000
0010
0100
0000
,
0002
0100
0000
0100
,
0000
0100
0000
0100
,
2003
0010
0000
0010
,
0000
0000
0010
0000
0000
0010
0000
0010
,
3010
0100
0000
0000
0001
0000
0000
0000
1000
0000
0100
0000
0001
0000
0000
0000
,
0001
0100
1000
0000
0010
0100
0001
0000
,
0010
0100
0000
0000
1000
0000
0100
0000
0001
0000
0100
1000
0100
1000
0001
0200
,
0000
0000
0000
0000
0000
0000
0000
0300
,
0010
1000
0000
0001
0000
0000
0010
0000
0100
0000
0000
1000
0000
0000
0010
0000
,
0100
0001
0000
1000
0000
0100
0010
0000
0100
1000
0000
0010
0000
0000
0100
0000
,
0001
0000
0010
0000
1000
0000
0010
0000
0001
0000
0000
0100
0000
0000
0010
0000
,
1000
0100
0000
1000
0000
0010
0000
0100
0001
0000
0010
0100
0000
1000
0000
0000
,
0010
0100
0000
0001
0000
0000
1000
0000
0100
0000
0000
0010
0000
0000
0100
0000
,
1000
0010
0000
0100
0000
0001
0010
0000
0001
0100
0000
0010
0000
0000
1000
0000
,
0100
0000
0010
0001
0010
0001
0000
0001
0100
0000
0010
1000
0010
1000
0000
1000
,
0001
0000
0010
0000
0100
0010
0100
0000
1000
0000
0000
0010
0100
0000
0001
0000
,
0010
0001
0000
1000
0000
0000
0010
0000
0100
0000
0000
0001
0000
0000
0010
0000
,
0100
1000
0000
0001
0000
0100
0010
0000
0100
0001
0000
0010
0000
0000
0100
0000
,
1000
0000
0010
0000
0001
0000
0010
0000
1000
0000
0000
0100
0000
0000
0010
0000
,
0001
0100
0000
0001
0000
0010
0000
0100
1000
0000
0010
0100
0000
0001
0000
0000
,
0010
0100
0000
1000
0000
0000
0001
0000
0100
0000
0000
0010
0000
0000
0100
0000
,
0001
0010
0000
0100
0000
1000
0010
0000
1000
0100
0000
0010
0000
0000
0001
0000
,
0100
0000
0010
1000
0010
1000
0000
1000
0100
0000
0010
0001
0010
0001
0000
0001
,
1000
0000
0010
0000
0100
0010
0100
0000
0001
0010
0000
0010
0100
0000
1000
0000
,
0010
1000
0001
0010
,
0100
0000
1000
0000
0010
0100
0000
0100
,
0001
0010
1000
0100
,
0001
0000
0000
0000
0010
0000
0000
0000
0100
0000
1001
0000
0000
0000
0100
0010
,
0100
0001
0100
0001
1000
0100
1000
0100
,
0010
0001
0100
1000
0100
0001
0010
0100
,
1000
0010
1000
0000
0001
0010
0001
0000
1000
0100
1000
0000
0001
0100
0001
0000
,
1000
0100
1000
0100
0010
0001
0010
0001
1000
0010
1000
0010
0100
0001
0100
0001
,
1000
0000
0000
0000
;

//---------------dance-single - ----------------
#NOTES:
     dance-single:
     :
     Medium:
     11:
     0.486,0.561,0.111,0.111,0.043:
0000
0000
0000
0000
,
0000
0000
0000
0000
,
0000
0000
0000
0000
,
0000
0000
0000
0000
,
0000
0000
0000
0000
,
1000
0100
0010
0001
,
0100
1000
0010
0001
,
0100
0000
0001
0000
0100
0000
0001
0000
1000
0000
0100
0000
0010
0000
0001
0200
,
0000
0000
0000
0000
0000
0000
0000
0300
,
0010
1000
0001
0100
0010
1000
0001
0010
,
0100
1000
0010
0001
,
0100
1000
0001
0010
0100
1000
0001
0100
,
0010
0000
0001
0000
0100
0000
1000
0010
,
0010
0100
0001
1000
0010
0100
0001
1000
,
0100
0001
0010
1000
,
0100
0010
0001
1000
0100
0010
0001
0100
,
0010
0000
0000
0000
0000
0000
0000
0000
0000
0100
0000
0000
1001
0000
0000
0000
,
0010
1000
0001
1000
0010
0100
0001
0000
,
0010
0100
1000
0001
1000
0100
0010
0000
,
0001
0100
0010
1000
0100
0010
0001
0000
,
0010
0100
1000
0001
0100
0010
1000
1000
,
0001
0010
0100
0001
0100
0010
0001
0000
,
1000
0010
0100
1000
0100
0010
1000
0000
,
0001
0010
1000
0001
1000
0010
0001
0000
,
1000
0010
0001
1000
0001
0010
1000
1000
,
0002
0000
0000
0000
,
0023
0000
0000
0000
,
0230
0000
0000
0000
,
2300
0000
0000
0000
,
3002
0000
0000
0000
,
0203
0000
0000
0000
,
0320
0000
0000
0000
,
2030
0000
0001
0001
,
3001
0000
0000
0001
0101
0000
0000
0100
,
0010
0000
0000
1000
0000
0000
0001
0000
0101
0000
1000
0000
0000
0000
2000
0000
,
3010
0000
0000
1000
1100
0000
0000
0100
,
0010
0000
0000
0001
0000
0000
1000
0000
1100
0000
0001
0000
1000
0000
0200
0000
,
0310
0000
0000
0001
0011
0000
0000
0010
,
0100
0000
0000
1000
0000
0000
0001
0000
0011
0000
1000
0000
0000
0000
0020
0000
,
0130
0000
0001
1000
0110
0000
1000
0001
,
0100
1000
0100
1000
0001
0010
0001
0010
,
1000
0001
0010
0010
,
0100
0000
1000
0000
0001
0100
0010
0000
,
0100
0001
1000
1000
,
0100
0000
0010
0000
0100
1000
0001
0100
,
0010
0100
0001
0001
,
0010
0000
0100
0000
1000
0000
0010
0100
,
0001
0000
0010
0000
1000
0000
0001
0000
0100
0000
1000
0000
0010
0000
0100
0002
,
0000
0000
0000
0000
0000
0000
0000
0003
,
1000
0100
0001
0000
0001
0100
1000
0000
,
0001
0100
1000
0100
0001
0010
0100
0000
,
1000
0010
0001
0000
0001
0010
1000
0000
,
0001
0010
0100
1000
0010
0100
1001
0000
,
0010
1000
0100
0000
0100
1000
0010
0000
,
0100
0001
0010
1000
0010
0001
0100
0000
,
0010
1000
0001
0010
0100
1000
0001
0100
,
0010
0000
0010
0000
0100
0000
0100
0000
0001
0000
0000
0010
0100
0000
1000
0000
,
0001
0100
1000
0000
1000
0100
0001
0000
,
1000
0100
0001
0100
1000
0010
0100
0000
,
0001
0010
1000
0000
1000
0010
0001
0000
,
1000
0010
0100
0001
0010
0100
1001
0000
,
0010
0001
0100
0000
0100
0001
0010
0000
,
0100
1000
0010
0001
0010
1000
0100
0000
,
0010
0001
1000
0010
0100
0001
1000
0100
,
0010
0000
0010
0000
0100
0000
0100
0000
1000
0010
0000
0010
0100
0000
0001
0000
,
1000
0000
0000
0001
,
0001
0100
0000
0100
0000
0010
0000
1000
,
1000
0000
0000
0000
0000
0001
0000
0010
,
0000
0000
0100
0000
0000
0000
1000
0000
0000
0000
0001
0000
0000
0000
0100
0010
,
0100
0001
1000
0001
0100
0001
1000
0001
,
0100
0010
1000
0010
0100
0010
1000
0010
,
1001
0000
0100
0010
1001
0000
0010
0100
,
1001
0010
0100
1000
0001
0100
1000
0010
,
0001
0000
0000
0000
;

//---------------dance-single - ----------------
#NOTES:
     dance-single:
     :
     Easy:
     7:
     0.310,0.405,0.043,0.111,0.000:
0000
0000
0000
0000
,
0000
0000
0000
0000
,
0000
0000
0000
0000
,
0000
0000
0000
0000
,
0000
0000
0000
0000
,
0001
0010
0100
1000
,
0001
0100
0010
1000
,
0001
0000
1000
0000
0100
0010
0001
2000
,
0000
0000
0000
3000
,
0010
0010
0100
0001
,
0010
0010
0100
1000
,
0010
0100
0001
0010
,
0100
0000
1000
0000
0010
0000
0010
1000
,
1000
0100
0010
0010
,
0001
0100
0010
0010
,
1000
0001
0100
0010
,
1000
0000
0000
1001
,
0010
1000
0100
0100
,
0010
0001
0100
0100
,
0001
0010
0100
1000
,
0001
0000
0100
0000
0010
1000
0001
1000
,
0001
0010
0100
0100
,
1000
0010
0100
0100
,
0001
0010
0100
1000
,
0001
0100
1000
0100
,
0002
0000
0000
0003
,
0020
0000
0000
0030
,
0200
0000
0000
0300
,
2000
0000
0000
3000
,
0200
0000
0000
0300
,
0020
0000
0000
0030
,
0002
0000
0000
0003
,
2000
0000
0000
3000
,
0010
0000
0110
0000
,
0100
0001
1000
0100
,
0010
0000
0110
0000
,
0100
1000
0001
0100
,
0010
0000
0110
0000
,
0100
0001
1000
0100
,
0010
0100
1000
0100
,
0010
0000
0001
0000
0100
0010
0100
0000
,
0020
0000
0000
0000
,
0030
0100
0000
0100
,
0002
0000
0000
0000
,
0003
0010
0000
0010
,
0200
0000
0000
0000
,
0300
1000
0000
1000
,
0020
0000
0000
0000
,
0030
0000
0000
0000
,
0100
0001
1000
0100
,
1000
0000
0001
0000
0100
0010
0100
0000
,
0001
0010
0100
1000
,
0001
0000
0100
0000
0010
1000
0010
0000
,
0100
0001
0010
0100
,
1000
0000
0001
0000
0010
0100
0010
0000
,
0001
0100
1000
0100
,
0001
0010
1000
0010
,
0001
0001
0100
0100
,
0010
0000
0010
0000
1000
0100
1000
0000
,
0001
0001
0010
0010
,
0100
1000
0100
0000
1000
0001
1000
0000
,
0001
0001
0100
0100
,
0010
0000
0100
0000
0001
0100
0010
0000
,
1000
0100
1000
0000
0001
0100
0001
0000
,
1000
0010
0100
0000
0001
0010
0100
1000
,
0001
0000
0000
1000
,
1000
0000
0000
0100
,
0100
0000
0000
0010
,
0010
0001
0100
0010
,
1000
0100
1000
0000
0001
0100
0001
0000
,
1000
0010
0100
0000
0001
0010
0100
0000
,
1000
0000
0010
1000
0100
0000
0010
0001
,
0100
0000
0010
1000
0100
0010
0001
0100
,
0110
0000
0000
0000
;

//---------------dance-single - ----------------
#NOTES:
     dance-single:
     :
     Beginner:
     4:
     0.200,0.281,0.026,0.009,0.000:
0000
0000
0000
0000
,
0000
0000
0000
0000
,
0000
0000
0000
0000
,
0000
0000
0000
0000
,
0000
0000
0000
0000
,
0010
0010
0010
0000
,
0100
0000
0100
0000
,
0001
0001
0001
0000
,
2000
0000
0000
3000
,
0100
0100
0100
0000
,
0010
0001
0100
0000
,
0010
0010
0010
0000
,
0100
0001
0010
0000
,
0010
0010
0010
0000
,
0100
1000
0010
0000
,
0100
0100
0100
0000
,
0010
0000
0000
0100
,
1000
1000
1000
0000
,
0001
0001
0100
0000
,
0010
0010
0010
0000
,
0100
0100
0001
0000
,
1000
1000
1000
0000
,
0100
0100
0010
0000
,
0001
0001
0001
0000
,
0100
0100
0010
0000
,
1000
0000
0000
0000
,
0100
0000
0000
0000
,
0001
0000
0000
0000
,
0010
0000
0000
0000
,
1000
0000
0000
0000
,
0100
0000
0000
0000
,
0001
0000
0000
0000
,
0010
0000
0000
0000
,
1000
0000
0001
0000
,
0100
0000
0010
0000
,
0110
0000
0000
0000
,
0001
0000
1000
0000
,
1001
0000
0000
0000
,
0110
0000
0000
0000
,
1000
0000
1000
0000
,
0001
0001
0100
0100
,
0010
0010
0000
0010
,
0000
1000
0000
1000
,
0000
0001
0000
0001
,
0000
0010
0000
0010
,
0010
0010
0100
0100
,
1000
1000
0001
0001
,
0100
0100
0010
0100
,
0010
0000
0000
0000
,
1000
0000
1000
0000
,
0001
0100
0001
0000
,
0001
0000
0001
0000
,
1000
0100
1000
0000
,
1000
0000
1000
0000
,
0001
0010
0001
0000
,
0001
0000
0001
0000
,
1000
0010
1000
0000
,
0001
0000
0001
0000
,
0010
0000
0100
0000
,
1000
0000
1000
0000
,
0010
0000
0100
0000
,
0001
0000
0001
0000
,
0010
0000
0100
0000
,
1000
0000
1000
0000
,
0010
0000
0100
0000
,
0001
0000
0000
0000
,
0010
0000
0010
0000
,
0100
0000
0000
0000
,
1000
0000
1000
0000
,
0001
0001
0100
0100
,
0010
0010
1000
1000
,
0001
1000
0001
1000
,
0010
0100
0010
0100
,
0001
0000
0000
0000
;

//---------------dance-double - ----------------
#NOTES:
     dance-double:
     :
     Hard:
     13:
     0.543,0.717,0.120,0.085,0.376:
00000000
00000000
00000000
00000000
,
00000000
00000000
00000000
00000000
,
00000000
00000000
00000000
00000000
,
00000000
00000000
00000000
00000000
,
00000000
00000000
00000000
00000000
,
10000000
01000000
00010000
00001000
,
00010000
00000000
00100000
00000000
00010000
00000000
00001000
00000100
,
00001000
00010000
01000000
10000000
00100000
01000000
00010000
00100000
,
00000000
00000000
00000000
00000000
,
01000000
10000000
01000000
00010000
00001000
00000010
00000001
00000010
,
00000100
00001000
00010000
10000000
,
00100000
01000000
10000000
01000000
00010000
00001000
00000010
00000100
,
00000001
00000000
00000010
00000000
00001000
00000000
00010000
01000000
,
10000000
00100000
00010000
00001000
00010000
00000010
00000100
00001000
,
00000100
00000000
00000001
00000000
00000010
00000000
00000100
00001000
,
00000100
00000001
00000100
00001000
00010000
00100000
01000000
10000000
,
10100000
00000000
00000000
00000000
00000000
00000000
00000000
00000000
00000000
01010000
00000000
00000000
00011000
00000000
00000000
00000000
,
00001000
00010000
01000000
10000000
00100000
01000000
00010000
00010000
,
01000000
00001000
00010000
00000100
00000010
00000001
00000100
00000100
,
00000010
00010000
00001000
00010000
01000000
00100000
00001000
00001000
,
00000100
00000010
00010000
00001000
01000000
00100000
10000000
01000000
,
00010000
00000000
00001000
00000000
00000100
00000000
00000001
00000000
00000010
00000000
00000100
00000000
00001000
00000001
00001000
00000000
,
00000100
00000000
00010000
00000000
00001000
00000000
01000000
00000000
00100000
00000000
10000000
00000000
01000000
00010000
01000000
00000000
,
00100000
00000000
00001000
00000000
00010000
00000000
00001000
00000000
00000100
00000000
00000010
00000000
00010000
00001000
00010000
00000000
,
01000000
00000000
00100000
00000000
00001000
00000000
00010000
00000000
00000010
00000000
00000100
00000000
00000001
00001000
00000001
00000000
,
00002000
00000000
00000000
00000000
,
00003200
00000000
00000000
00000000
,
00020300
00000000
00000000
00000000
,
00230000
00000000
00000000
00000000
,
02300000
00000000
00000000
00000000
,
03002000
00000000
00000000
00000000
,
00003200
00000000
00000000
00000000
,
00000302
00000000
00001003
00001100
,
00010100
00000000
00000000
00010000
00011000
00000000
00000000
00001000
,
01000000
00000000
00000000
00100000
00000000
00000000
01000000
00000000
01010000
00000000
10000000
00000000
00000000
00000000
00010000
10000000
,
00010000
00000000
00000000
00100000
00101000
00000000
00000000
00001000
,
00010000
00000000
00000000
00000100
00000000
00000000
00000010
00000000
00000100
00000000
00001000
00000000
00001000
00000000
00000001
00000100
,
00000001
00000000
00000000
00000010
00000110
00000000
00000000
00000100
,
00010000
00000000
00000000
00100000
00000000
00000000
00010000
00000000
00011000
00000000
00000100
00000000
00000000
00000000
00010000
00001000
,
00010000
00000000
00110000
01000000
00010000
00000000
11000000
00100000
,
00001000
00010000
00000100
00000010
00000001
00000100
00001000
00000100
,
00000001
00001000
00000000
00001000
,
00000000
00010000
00000000
00010000
,
10000000
01000000
00000000
01000000
,
00000000
00100000
00000000
00100000
,
00001000
00001000
00001000
00001000
,
00010000
00010000
00010000
00010000
,
00000100
00000001
00000100
00000010
00001000
00010000
00100000
10000000
,
00020000
00000000
00000000
00000000
,
10030000
01000000
00000000
00100000
00000000
00000000
01000000
00000000
10000000
00000000
00000000
00010000
00000000
00000000
01000000
00000000
,
00001000
00010000
00000000
00000100
00000000
00010000
00001000
00010000
00000010
00000100
00000000
00000001
00000000
00000000
00000010
00000000
,
00000100
00000000
00010000
00000000
00001000
00000000
01000000
00000000
00100000
00000000
00000000
10000000
00000000
00000000
00010000
00000000
,
00100000
01000000
00000000
00100000
00000000
00001000
00000000
00010000
00000100
00000000
00001000
00000010
00000000
00000100
00000000
00000000
,
00000001
00000010
00000000
00000100
00000000
00000000
00010000
00000000
00001000
00000000
00000000
01000000
00000000
00000000
00100000
00000000
,
10000000
00010000
00000000
01000000
00000000
00001000
00010000
00001000
00000100
00000010
00000000
00001000
00000000
00000000
00000001
00000000
,
00001000
00000000
00000100
00010000
00000100
00010000
00000000
00001000
01000000
00000000
00010000
00100000
00010000
00100000
00000000
00001000
,
00010000
00000000
00000100
00000000
00000010
00000000
00000100
00000000
00001000
00000000
00000000
00001000
00000010
00000000
00000100
00000000
,
00000001
00000100
00000000
00000010
00000000
00000000
00000100
00000000
00000001
00000000
00000000
00001000
00000000
00000000
00000100
00000000
,
00010000
00001000
00000000
01000000
00000000
00001000
00010000
00001000
00100000
01000000
00000000
10000000
00000000
00000000
00100000
00000000
,
01000000
00000000
00001000
00000000
00010000
00000000
00000100
00000000
00000010
00000000
00000000
00000001
00000000
00000000
00001000
00000000
,
00000010
00000100
00000000
00000010
00000000
00010000
00000000
00001000
01000000
00000000
00010000
00100000
00000000
01000000
00000000
00000000
,
10000000
00100000
00000000
01000000
00000000
00000000
00001000
00000000
00010000
00000000
00000000
00000100
00000000
00000000
00000010
00000000
,
00000001
00001000
00000000
00000100
00000000
00010000
00001000
00010000
01000000
00100000
00000000
00010000
00000000
00000000
10000000
00000000
,
00010000
00000000
01000000
00001000
01000000
00001000
00000000
00010000
00000100
00000000
00001000
00000010
00001000
00000010
00000000
00010000
,
00001000
00000000
01000000
00000000
00100000
00000000
01000000
00000000
00010000
00100000
00000000
00010000
00100000
00000000
01000000
00000000
,
20000000
00000000
30000000
00010000
,
00010000
00000000
01000000
00000000
00000000
00000000
01000000
00000000
00000000
00000000
00001000
00000000
00000000
00000000
00010000
00000100
,
00010000
00000000
00000100
00000010
00000000
00000001
00000000
00000101
,
00000000
00000000
00001000
00000000
00000000
00000000
00001100
00000000
00000000
00000000
00000100
00000000
00000000
00000000
00010000
00001000
,
00010000
01000000
10000000
01000000
00010000
01000000
10000000
01000000
,
00010000
00001000
00000100
00000001
00000100
00001000
00000100
00000001
,
00000010
00000100
00000010
00000000
00001000
00000000
00010000
00000000
00100000
01000000
00100000
00000000
00010000
00000000
00001000
00000000
,
00000100
00000010
00000100
00000010
00000100
00000001
00000100
00000001
00001000
00000010
00001000
00000010
00001000
00000001
00001000
00000001
,
00000010
00000000
00000000
00000000
;

//---------------dance-double - ----------------
#NOTES:
     dance-double:
     :
     Easy:
     6:
     0.325,0.374,0.017,0.068,0.004: // measure 1
00000000
00000000
00000000
00000000
,  // measure 2
00000000
00000000
00000000
00000000
,  // measure 3
00000000
00000000
00000000
00000000
,  // measure 4
00000000
00000000
00000000
00000000
,  // measure 5
00000000
00000000
00000000
00000000
,  // measure 6
00001000
00010000
00001000
00010000
,  // measure 7
00000100
00001000
00000100
00001000
,  // measure 8
00000010
00000100
00000010
00000100
,  // measure 9
00000000
00000000
00000000
00000000
,  // measure 10
00000001
00000000
00000100
00000000
00001000
00010000
00001000
00000000
,  // measure 11
00010000
00100000
10000000
00010000
,  // measure 12
10000000
00000000
01000000
00000000
00100000
00010000
00100000
00000000
,  // measure 13
00001000
00000100
00000010
00001000
,  // measure 14
00000001
00000000
00000010
00000000
00000100
00001000
00000100
00000000
,  // measure 15
00010000
00001000
00010000
01000000
,  // measure 16
10000000
00000000
00100000
00000000
01000000
00010000
01000000
00000000
,  // measure 17
00100000
00000000
00000000
00000000
00000000
00000000
00000000
00000000
00000000
01000000
00000000
00000000
01000000
00000000
00000000
00000000
,  // measure 18
00010000
00000000
10000000
00000000
01000000
00100000
01000000
00000000
,  // measure 19
10000000
00000000
00010000
00000000
01000000
00001000
01000000
00000000
,  // measure 20
00001000
00000000
00000100
00000000
00000010
00001000
00000010
00000000
,  // measure 21
00000100
00000001
00000010
00001000
,  // measure 22
00010000
00000000
00100000
00000000
10000000
00010000
10000000
00000000
,  // measure 23
01000000
00000000
00100000
00000000
00001000
00010000
00001000
00000000
,  // measure 24
00000100
00000000
00000010
00000000
00001000
00000001
00001000
00000000
,  // measure 25
00000100
00000000
00000010
00000000
00000001
00001000
00000010
00000000
,  // measure 26
00000200
00000000
00000000
00000300
,  // measure 27
00002000
00000000
00000000
00003000
,  // measure 28
00020000
00000000
00000000
00030000
,  // measure 29
00200000
00000000
00000000
00300000
,  // measure 30
20000000
00000000
00000000
30000000
,  // measure 31
02000000
00000000
00000000
03000000
,  // measure 32
00020000
00000000
00000000
00030000
,  // measure 33
00002000
00003000
00000100
00000010
,  // measure 34
00000110
00000000
00000000
00001000
,  // measure 35
00001000
00000100
00000000
00000100
00000000
00010000
00000000
00100000
,  // measure 36
00100000
00000000
00000000
00000000
00000000
10000000
00000000
00010000
,  // measure 37
00000000
01000000
00000000
00001000
00000000
00010000
00000000
00000100
,  // measure 38
00001000
00000000
00000001
00000000
,  // measure 39
00000001
00000100
00000000
00000100
00000000
00000000
00000010
00000000
,  // measure 40
00010000
00001000
00010000
00000000
00001000
01000000
00001000
00000000
,  // measure 41
01000000
00010000
01000000
00000000
00010000
10000000
00010000
00000000
,  // measure 42
10000000
01000000
00000000
01000000
,  // measure 43
00000000
00100000
00000000
00100000
,  // measure 44
00000000
00001000
00000000
00001000
,  // measure 45
00000000
00000000
00010000
00000000
00000000
00001000
00000000
00001000
,  // measure 46
00010000
00000100
00010000
00000100
,  // measure 47
00001000
00000010
00001000
00000010
,  // measure 48
00000100
00000001
00000100
00000001
,  // measure 49
00000000
00000000
00000000
00000000
,  // measure 50
00001000
00000100
00010000
00001000
,  // measure 51
01000000
00000000
00010000
00000000
00100000
01000000
10000000
00000000
,  // measure 52
00100000
01000000
00001000
00010000
,  // measure 53
00000010
00000000
00000100
00000000
00000001
00000010
00000100
00000000
,  // measure 54
00000010
00000001
00000100
00001000
,  // measure 55
00010000
00000000
01000000
00000000
10000000
00010000
10000000
00000000
,  // measure 56
00010000
01000000
00010000
00000000
01000000
00010000
01000000
00000000
,  // measure 57
00010000
00100000
01000000
10000000
,  // measure 58
00010000
01000000
00001000
00010000
,  // measure 59
00000100
00000000
00001000
00000000
00000010
00000100
00000001
00000000
,  // measure 60
00000010
00000100
00010000
00001000
,  // measure 61
00100000
00000000
01000000
00000000
10000000
00100000
01000000
00000000
,  // measure 62
00100000
10000000
01000000
00010000
,  // measure 63
00001000
00000000
00000100
00000000
00000001
00001000
00000001
00000000
,  // measure 64
00001000
00000100
00001000
00000000
00000100
00001000
00000100
00000000
,  // measure 65
00001000
00000010
00000100
00000001
,  // measure 66
00001000
00000000
00000000
00000100
,  // measure 67
00000100
00000000
00010000
00000000
,  // measure 68
00001000
00000000
01000000
00000000
,  // measure 69
00010000
00100000
01000000
10000000
,  // measure 70
00010000
01000000
00010000
00000000
01000000
00001000
01000000
00000000
,  // measure 71
00001000
00010000
00001000
00000000
00010000
00000100
00010000
00000000
,  // measure 72
00000100
00001000
00000001
00000010
,  // measure 73
00001000
00000000
00010000
00000000
01000000
10000000
00010000
00000000
,  // measure 74
10010000
00000000
00000000
00000000
;

//---------------dance-double - ----------------
#NOTES:
     dance-double:
     :
     Medium:
     9:
     0.393,0.405,0.043,0.068,0.017:
00000000
00000000
00000000
00000000
,
00000000
00000000
00000000
00000000
,
00000000
00000000
00000000
00000000
,
00000000
00000000
00000000
00000000
,
00000000
00000000
00000000
00000000
,
10000000
01000000
00100000
00000000
00010000
00100000
00001000
00000000
,
00010000
00000100
00001000
00000010
,
00000100
00000001
00001000
00000000
00000010
00001000
00000001
00000100
,
00000000
00000000
00000000
00000000
,
00000010
00010000
00001000
00000000
00100000
00001000
00010000
00000000
,
01000000
10000000
00010000
01000000
,
00100000
10000000
00010000
00000000
01000000
00001000
00010000
00000000
,
00000100
00000000
00001000
00000000
00000010
00000000
00000100
00000010
,
00000100
00000001
00001000
00000000
00000010
00001000
00000100
00000000
,
00010000
00000000
00001000
00000000
01000000
00000000
00100000
10000000
,
01000000
00100000
00010000
00000000
01000000
00100000
10000000
00000000
,
10010000
00000000
00000000
00000000
00000000
00000000
00000000
00000000
00000000
01000000
00000000
00000000
01100000
00000000
00000000
00000000
,
10000000
01000000
00100000
00000000
00010000
00000000
01000000
00000000
,
00001000
00010000
00000100
00000000
00001000
00000000
00000010
00000000
,
00000100
00000001
00000010
00000000
00001000
00000000
00000010
00000000
,
00000001
00000100
00001000
00000000
00010000
00000000
00100000
00000000
,
10000000
00010000
01000000
00000000
00001000
00000000
00010000
00000000
,
00000100
00001000
00000010
00000000
00000100
00000000
00000001
00000000
,
00000010
00000100
00001000
00000000
00000001
00000000
00000100
00000000
,
00000010
00001000
00000100
00000000
00000010
00000001
00000100
00000000
,
00002000
00000000
00000000
00000000
,
00023000
00000000
00000000
00000000
,
00230000
00000000
00000000
00000000
,
20300000
00000000
00000000
00000000
,
32000000
00000000
00000000
00000000
,
03020000
00000000
00000000
00000000
,
00032000
00000000
00000000
00000000
,
00003020
00000000
00000031
00001000
,
00001001
00000000
00000000
00000001
00000100
00000000
00000010
00000000
,
00001010
00000000
00000000
00001000
00000000
00000000
00000100
00000000
00001000
00000000
00000100
00000000
00000000
00000000
00000100
00000000
,
00010000
00000000
00000000
00001000
01000000
00000000
00010000
10000000
,
00010000
00000000
00000000
01000000
00000000
00000000
00100000
00000000
01000000
00000000
00010000
00000000
00000000
00000000
10000000
00000000
,
01000000
00000000
00000000
00100000
00010000
00000000
00000000
01000000
,
00001000
00000000
00000000
00010000
00000000
00000000
00001000
00000000
00010000
00000000
00000100
00000000
00000000
00000000
00000010
00000000
,
00000001
00000000
00000100
00000010
00001000
00000000
00000100
00000010
,
00000001
00000100
00001000
00000000
00010000
00001000
00010000
00000000
,
00011000
00010000
00000000
00010000
,
00000000
01000000
00000000
01000000
,
10000000
00100000
00000000
00100000
,
00000000
00000000
00010000
00000000
00000000
00001000
00000000
00001000
,
00010000
00000100
00010000
00000100
,
00000010
00000001
00000010
00000001
,
00000100
00000010
00001000
00000001
00000010
00000100
00001000
00000001
,
00000000
00000000
00000000
00000000
,
00001000
00000100
00010000
00000000
00001000
00000000
00100000
00000000
,
00010000
01000000
00100000
00000000
10000000
00000000
01000000
00000000
,
00100000
00010000
01000000
00010000
00100000
00000000
00001000
00000000
,
00010000
00000100
00001000
00000000
00000010
00000100
00000001
00000000
,
00001000
00000100
00010000
00000000
00001000
00000000
00100000
00000000
,
00010000
01000000
00100000
00000000
10000000
00000000
01000000
00000000
,
00010000
00001000
00010000
00001000
00010000
00000000
00000100
00000000
,
00001000
00000010
00000100
00000000
00001000
00010000
00001000
00000000
,
00010000
01000000
00001000
00000000
00010000
00000000
00000010
00000000
,
00001000
00000100
00000010
00000000
00000001
00000000
00000100
00000000
,
00000010
00001000
00000100
00001000
00000010
00000000
00010000
00000000
,
00001000
01000000
00010000
00000000
00100000
01000000
10000000
00000000
,
00010000
01000000
00001000
00000000
00010000
00000000
00000010
00000000
,
00001000
00000100
00000010
00000000
00000001
00000000
00000100
00000000
,
00001000
00010000
00001000
00010000
00001000
00000000
01000000
00000000
,
00010000
00100000
01000000
00000000
00010000
00001000
00010000
00000000
,
01000000
00000000
10000000
10000000
,
00100000
01000000
00001000
00010000
,
00000100
00001000
00000010
00000100
,
00000001
00000010
00000100
00001000
,
00000001
00000100
00001000
00000000
00000100
00001000
00010000
00000000
,
00001000
00010000
01000000
00000000
00010000
01000000
10000000
00000000
,
00010000
01000000
00100000
00000000
10000000
01000000
00100000
00000000
,
00001000
00010000
00001000
00010000
00000100
00001000
00000100
00001000
,
00000001
00000000
00000000
00000000
;
