#TITLE:8bit Princess;
#SUBTITLE:;
#ARTIST:seiya-murai feat. ALT;
#TITLETRANSLIT:;
#SUBTITLETRANSLIT:;
#ARTISTTRANSLIT:;
#GENRE:;
#CREDIT:Silverhawke;
#MENUCOLOR:;
#METERTYPE:DDR;
#BANNER:8bit Princess.png;
#BACKGROUND:8bit Princess-bg.png;
#LYRICSPATH:;
#CDTITLE:cdtitle.png;
#MUSIC:8bit Princess.mp3;
#OFFSET:-0.028;
#SAMPLESTART:76.808;
#SAMPLELENGTH:15.000;
#SELECTABLE:YES;
#LISTSORT:;
#BPMS:0.000=150.000;
#STOPS:;
#BGCHANGES:;
#ATTACKS:;

//---------------dance-single - ----------------
#NOTES:
     dance-single:
     :
     Hard:
     11:
     0.538,0.517,0.164,0.345,0.012:
0000
0000
0000
0000
,
0000
0000
0000
0000
,
0000
0000
0000
0000
,
0000
0000
0000
0000
,
0001
0200
0010
0300
0101
0000
1010
0000
,
1000
0200
0010
0300
1100
0000
0011
0000
,
0100
0020
1000
0030
1100
0000
0011
0000
,
0010
0002
0100
0003
1000
1000
1100
0000
,
0001
0200
1000
0300
1100
0000
0101
0000
,
1000
0200
0001
0300
0101
0000
1100
0000
,
0001
0020
1000
0030
1010
0000
0011
0000
,
1000
0020
0001
0030
0100
0100
0100
0000
,
0001
0010
0100
0000
1000
0001
0100
0000
,
0010
1000
0010
0100
0001
0000
1001
0000
,
1000
0100
0010
0000
0001
0100
0010
0000
,
0100
0100
0110
0000
0001
0001
0001
0000
,
1000
0100
0010
0000
0001
0100
1000
0000
,
0100
0001
1000
0100
0010
0001
1000
0000
,
0001
0100
1000
0000
0100
0010
1000
0000
,
0001
0100
0001
0100
0001
0000
0000
0000
1000
0000
0100
0000
0100
0000
0000
0000
,
0010
0002
0203
0000
1000
0000
0301
0000
,
0010
2000
3200
0000
0001
0000
1300
0000
,
0001
2000
3020
0000
0001
0000
1030
0000
,
0001
0000
0010
0100
0000
1000
1001
0000
,
1000
0100
0010
0000
0100
1000
0100
0000
,
0010
0001
0100
0010
0200
0000
1000
0000
,
0301
0010
0100
0000
1000
0001
1000
0000
,
0110
0110
0110
0110
,
0001
0010
0100
0000
1000
0001
1000
0000
,
0010
0100
0001
0010
0100
1000
0001
0000
,
0100
0010
1000
0000
0010
0100
0001
0000
,
1000
0100
0020
0000
0100
0000
0130
0000
,
0002
0203
2300
3020
,
0031
0000
1000
0100
0010
0001
1000
0000
,
2000
3020
0032
0203
,
1300
0000
0010
0100
0001
1000
0100
0000
,
2000
3200
0302
0023
,
1030
0000
0001
0100
1000
0100
0001
0000
,
0002
0023
2030
3200
,
0301
0000
1000
0100
0001
0100
0010
0000
,
0001
0001
0100
0000
0010
1000
0100
0000
,
0010
0010
0001
0000
1000
0100
0010
0000
,
0100
1000
0001
1000
0100
0010
0001
0000
,
1000
0000
0000
0010
0100
0000
0000
0000
,
0001
0100
0010
0100
0001
0000
1000
0000
,
1000
0100
0010
0100
1000
0000
0001
0000
,
0001
0100
0010
0000
1000
0100
0010
0000
,
0002
0000
2000
3003
,
0001
0100
0010
0000
0010
0100
0001
0000
,
1000
0100
0010
0001
0010
0100
1000
0000
,
1000
0010
0100
0000
0100
0010
1000
0000
,
0001
0100
0010
1000
0010
0100
0001
0000
,
1000
0010
0100
0000
0001
0010
0100
0000
,
1000
0010
0100
0010
1000
0100
0010
0000
,
0001
0100
0010
0000
1000
0100
0010
0000
,
0100
1000
0001
0100
0020
0000
2030
0000
,
3001
0010
0100
0000
0010
0001
1000
0010
,
0000
0010
0100
0001
1000
0000
0100
0000
,
0010
0100
1000
0000
0010
0100
0001
1000
,
0000
1000
0001
0100
0010
0000
0100
0000
,
0001
1000
0100
0000
0010
0100
1000
0001
,
0000
0001
0100
0010
1000
0000
0001
0000
,
0010
0100
1000
0000
0001
0100
0010
1000
,
0000
1000
0001
0010
0200
0000
2300
0000
,
3002
0010
1000
0100
,
1000
0010
1000
0103
,
0010
1000
0010
0000
1000
0100
1000
0000
,
0100
0001
0100
0000
0001
0010
0001
0000
,
0020
1000
0100
1000
,
0130
0001
0100
0000
0001
0010
0001
0000
,
0010
1000
0010
0000
1000
0100
1000
0000
,
0100
0001
0100
0000
0001
0010
0001
0000
,
0010
0200
1000
0000
0001
0000
1300
0000
,
0010
0000
0200
0000
0001
0000
0000
0000
1300
0000
0100
0000
0001
0000
1000
0001
,
1000
0000
0000
0000
;

//---------------dance-single - ----------------
#NOTES:
     dance-single:
     :
     Medium:
     7:
     0.311,0.304,0.025,0.148,0.000:
0000
0000
0000
0000
,
0000
0000
0000
0000
,
0000
0000
0000
0000
,
0000
0000
0000
0000
,
1000
0100
0000
0000
0010
0000
0010
0000
,
0001
0100
0000
0000
0010
0000
0010
0000
,
1000
0100
0000
0000
0010
0000
0010
0000
,
0001
0100
0000
0000
0010
0100
0010
0000
,
1000
0010
0000
0000
0100
0000
0100
0000
,
0001
0010
0000
0000
0100
0000
0100
0000
,
1000
0010
0000
0000
0100
0000
0100
0000
,
0001
0010
0000
0000
0100
0010
0100
0000
,
1000
0001
1000
0001
,
0100
0010
1000
0001
,
0000
0001
0100
0010
,
1000
0100
0010
0001
,
0000
1000
0100
0010
,
0100
1000
0001
0100
,
0000
0010
1000
0001
,
0010
0100
1000
0001
,
2000
0000
3100
0001
,
0002
0000
0103
1000
,
2000
0000
3010
0001
,
0001
0000
0000
1001
,
1000
0100
0010
0100
,
1000
0100
1000
0000
0100
0000
0010
0000
,
0000
0001
0100
0010
,
1000
1000
1000
1000
,
0000
0001
0010
0001
,
0100
0010
0100
0000
0010
0000
1000
0000
,
0000
0001
0100
0010
,
1000
0001
1000
0000
0010
0000
0100
0000
,
0002
0100
0103
0000
,
2000
0100
3100
0000
,
0010
0001
0100
1000
,
0100
0001
0010
0000
,
2000
0010
3010
0000
,
0002
0010
0013
0000
,
1000
0100
0001
0100
,
1000
0010
0100
0000
,
0002
0000
0023
0000
,
2030
0000
3200
0000
,
0320
0000
0032
0000
,
0203
0000
2300
0000
,
3001
0100
0010
0000
,
1000
0100
0010
0000
,
0001
1000
0001
0000
,
1000
0000
0100
0000
,
0010
0001
0100
0000
,
0010
0000
0001
0000
0100
0001
0100
0000
,
0010
1000
0100
0000
,
0010
0000
1000
0000
0100
1000
0100
0000
,
0010
0001
1000
0000
,
0010
0000
0001
0000
1000
0001
1000
0000
,
0010
1000
0001
0000
,
0010
1000
0001
0001
,
0100
1000
0010
0000
,
0100
0000
1000
0000
0001
0100
0001
0000
,
0010
1000
0001
0000
,
0010
0000
1000
0000
0001
0010
0001
0000
,
0100
0010
1000
0000
,
0100
0000
0010
0000
1000
0001
1000
0000
,
0100
0010
0001
0000
,
0100
0010
0001
0001
,
2002
0000
0000
0000
,
0000
0000
0000
3003
,
0010
1000
0100
0001
,
1000
0100
0010
0001
,
2000
0000
0000
0000
,
3001
0100
0010
0100
,
0001
1000
0100
0010
,
0001
0100
0010
0010
,
1000
0001
0000
0000
0100
0000
0100
0000
,
0001
1000
0000
0000
0100
0000
0100
0000
,
0110
0000
0000
0000
;

//---------------dance-single - ----------------
#NOTES:
     dance-single:
     :
     Easy:
     5:
     0.223,0.274,0.000,0.181,0.000:
0000
0000
0000
0000
,
0000
0000
0000
0000
,
0000
0000
0000
0000
,
0000
0000
0000
0000
,
1000
0000
0010
0010
,
0100
0000
0001
0001
,
1000
0000
0100
0100
,
0010
0000
0001
0001
,
1000
0000
1000
1000
,
0010
0000
0010
0010
,
0100
0000
0100
0100
,
0001
0000
0000
1000
,
0001
0000
0100
0000
,
0001
0100
0010
0000
,
1000
0000
0100
0000
,
1000
0100
0010
0000
,
0001
0000
0010
0000
,
0001
0010
0100
0000
,
1000
0000
0010
0000
,
1000
0010
0100
0000
,
0001
0000
0100
0100
,
0010
0000
0010
0010
,
1000
0000
1000
1000
,
0001
0000
0000
0100
,
0000
0010
0000
0010
,
0000
1000
0100
1000
,
0000
0001
0000
0001
,
0100
0100
0100
0100
,
0000
0001
0000
0001
,
0000
0100
0010
0100
,
0000
1000
0000
1000
,
0000
0010
0100
0001
,
2000
3000
0002
0003
,
1000
0001
1000
0000
,
0002
0003
2000
3000
,
0001
1000
0001
0000
,
0200
0300
0020
0030
,
0100
0010
0100
0000
,
0020
0030
0200
0300
,
0010
0100
0010
0000
,
2000
0000
0000
0000
,
3002
0000
0000
0000
,
0023
0000
0230
0000
,
2300
0000
3002
0000
,
0203
0000
0000
0000
,
0320
0000
0000
0000
,
2030
0000
3200
0000
,
0320
0000
0032
0003
,
1000
0100
0010
0001
,
1000
0000
0001
0000
,
1000
0100
0010
0001
,
1000
0000
0001
0000
,
1000
0010
0100
0001
,
1000
0000
0001
0000
,
1000
0010
0100
0001
,
1000
0000
0001
0000
,
0001
0010
0100
1000
,
0001
0000
1000
0000
,
0001
0010
0100
1000
,
0001
0000
1000
0000
,
0001
0100
0010
1000
,
0001
0000
1000
0000
,
0001
0100
0010
1000
,
0001
0000
1000
0000
,
0200
0000
0000
0000
,
0000
0000
0000
0000
,
0300
0000
0000
0000
,
0010
0000
0001
0000
,
0200
0000
0000
0000
,
0000
0000
0000
0000
,
0300
0000
0000
0000
,
0010
0000
1000
0000
,
0001
0000
1000
1000
,
0001
0000
0100
0100
,
0100
0000
0000
0000
;

//---------------dance-single - ----------------
#NOTES:
     dance-single:
     :
     Beginner:
     1:
     0.112,0.152,0.000,0.049,0.000:
0000
0000
0000
0000
,
0000
0000
0000
0000
,
0000
0000
0000
0000
,
0000
0000
0000
0000
,
1000
0000
0000
0000
,
0100
0000
0000
0000
,
0010
0000
0000
0000
,
0001
0000
0000
0000
,
1000
0000
0000
0000
,
0010
0000
0000
0000
,
0100
0000
0000
0000
,
0001
0000
0000
0000
,
1000
1000
0000
0000
,
0100
0000
0000
0000
,
0010
0010
0000
0000
,
0001
0000
0000
0000
,
1000
1000
0000
0000
,
0010
0000
0000
0000
,
0100
0100
0000
0000
,
0001
0000
0000
0000
,
1000
0000
0000
0000
,
0100
0000
0000
0000
,
0001
0000
0000
0000
,
0010
0000
0000
0000
,
1000
0000
0000
0000
,
0100
0000
0100
0000
,
0100
0000
0000
0000
,
0010
0000
0010
0000
,
0010
0000
0000
0000
,
0001
0000
0001
0000
,
0001
0000
0000
0000
,
0100
0000
0000
0000
,
0010
0000
0000
0000
,
1000
0000
1000
0000
,
1000
0000
0000
0000
,
0001
0000
0001
0000
,
0001
0000
0000
0000
,
0010
0000
0010
0000
,
0010
0000
0000
0000
,
0100
0000
0000
0000
,
2000
0000
3000
0000
,
0002
0000
0003
0000
,
2000
0000
3000
0000
,
0001
0000
0000
0000
,
0200
0000
0300
0000
,
0020
0000
0030
0000
,
0200
0000
0300
0000
,
0010
0000
0000
0000
,
1000
0000
1000
0000
,
1000
0000
0000
0000
,
0001
0000
0001
0000
,
0001
0000
0000
0000
,
0100
0000
0100
0000
,
0100
0000
0000
0000
,
0010
0000
0010
0000
,
0010
0000
0000
0000
,
0100
0000
0100
0000
,
0100
0000
0000
0000
,
0001
0000
0001
0000
,
0001
0000
0000
0000
,
0010
0000
0010
0000
,
0010
0000
0000
0000
,
1000
0000
1000
0000
,
1000
0000
0000
0000
,
0001
0000
0000
0000
,
0000
0000
0000
0000
,
1000
0000
0000
0000
,
0001
0000
0001
0000
,
0001
0000
0000
0000
,
0000
0000
0000
0000
,
1000
0000
0000
0000
,
0100
0000
0100
0000
,
0100
0000
0000
0000
,
0010
0000
0000
0000
,
0100
0000
0000
0000
;

//---------------dance-double - ----------------
#NOTES:
     dance-double:
     :
     Hard:
     11:
     0.523,0.517,0.173,0.329,0.000:
00000000
00000000
00000000
00000000
,
00000000
00000000
00000000
00000000
,
00000000
00000000
00000000
00000000
,
00000000
00000000
00000000
00000000
,
10000000
02000000
00100000
00000000
13000000
00000000
10010000
00000000
,
00010000
02000000
00100000
00000000
03010000
00000000
00110000
00000000
,
00100000
00002000
00010000
00000000
00103000
00000000
00010100
00000000
,
00000100
00002000
00000010
00000000
00003100
00000100
00000100
00000000
,
00000010
00000002
00000100
00000000
00000013
00000000
00001100
00000000
,
00000100
00020000
00001000
00000000
00030100
00000000
00101000
00000000
,
00100000
00020000
10000000
00000000
00130000
00000000
11000000
00000000
,
10000000
02000000
00010000
00000000
13000000
10000000
10000000
00000000
,
00010000
01000000
00010000
01000000
00001000
00010000
00001000
00000000
,
00010000
00000100
00010000
00000000
00000100
00000000
00000010
00000000
,
00000001
00000100
00000001
00001000
00000100
00001000
00000001
00000000
,
00000100
00000100
00000100
00000000
00000010
00000100
00000110
00000000
,
00000010
00010000
00001000
00010000
00001000
01000000
00010000
00000000
,
10000000
01000000
00100000
00000000
00010000
00000000
10000000
00000000
,
00010000
01000000
00001000
00010000
00000100
00010000
00001000
00000000
,
00010000
00000100
00000010
00000000
00000001
00000000
00001001
00000000
,
00000001
00000200
00000010
00000000
00001300
00000000
00011000
00000000
,
00010000
02000000
00100000
00000000
13000000
00000000
11000000
00000000
,
10000000
00200000
01000000
00000000
00310000
00000000
00011000
00000000
,
00001000
00000000
00010000
00000100
00000000
00000010
00001001
00000000
,
00001000
00000100
00001000
00000100
00010000
00001000
00010000
00000000
,
00001000
01000000
00001000
00000000
01000000
00000000
00100000
00000000
,
10000000
01000000
10000000
01000000
00100000
00001000
00010000
00000000
,
00011000
00011000
00011000
00011000
,
00001000
00000100
00000010
00001000
00000001
00000100
00000010
00000000
,
00001000
00000100
00000010
00000000
00000001
00000000
00001000
00000000
,
00000100
00010000
00001000
00100000
00010000
01000000
00100000
00000000
,
10000000
01000000
00010000
00000000
00001000
00000000
00000100
00000000
,
00000020
00000000
00001000
00000000
00000130
00000000
00000010
00010000
,
00001000
00100000
00010000
00000000
01000000
00100000
10000000
00000000
,
02000000
00000000
00100000
00000000
03010000
00000000
00001000
00010000
,
00001000
00000100
00000010
00000000
00001000
00000100
00000010
00000000
,
00000002
00000000
00001000
00000000
00000103
00000000
00000001
00001000
,
00000100
00010000
00001000
00000000
00100000
00010000
01000000
00000000
,
00200000
00000000
10000000
00000000
01300000
00000000
00100000
10000000
,
01000000
00100000
00001000
00000000
00010000
00000010
00000100
00000000
,
00000002
00000203
00002300
00023000
,
00230000
20300000
32000000
03020000
,
00032000
00003020
00000032
00000203
,
00002300
00000000
00000000
00010000
00023000
00000000
00030000
00001000
,
00001000
00000000
00010000
01000000
10000000
00000000
00000000
10000000
,
10000000
00000000
01000000
00010000
00001000
00000000
00000000
00010000
,
00010000
00000000
00001000
00000100
00000001
00000000
00001000
00000000
,
00002002
00003003
00000220
00000330
,
00000001
00000100
00000001
00000100
00000010
00000100
00000001
00000000
,
00001000
00000100
00010000
00000000
00001000
01000000
00010000
00000000
,
10000000
01000000
10000000
01000000
00100000
01000000
10000000
00000000
,
00100000
01000000
00001000
00000000
00010000
00000100
00000010
00000000
,
00000001
00000100
00000001
00000100
00001000
00000100
00000010
00000000
,
00010000
00001000
01000000
00000000
00010000
00100000
01000000
00000000
,
10000000
01000000
10000000
01000000
00010000
01000000
10000000
00000000
,
00100000
01000000
00001000
00000000
00011000
00000000
00010100
00000000
,
00000100
00001000
00000100
00001000
00000010
00001000
00000100
00000000
,
00010000
00001000
01000000
00000000
00010000
00100000
01000000
00000000
,
00100000
00010000
00100000
00010000
01000000
00010000
00100000
00000000
,
00001000
00010000
00000010
00000000
00000100
00000001
00001000
00000000
,
00000100
00000010
00000100
00000010
00000001
00000010
00000100
00000000
,
00010000
00001000
01000000
00000000
00100000
10000000
01000000
00000000
,
00100000
00001000
00100000
00001000
00010000
00001000
00100000
00000000
,
00010000
01000000
00100000
00000000
10000000
00000000
01000000
00000000
,
00200000
00001000
00001000
00301000
,
00020000
00000100
00000100
00030100
,
00002000
00000010
00000010
00003010
,
00000001
00000100
00000001
00000000
00001000
00000100
00001000
00000000
,
00000002
00000010
00000010
00000013
,
00000200
00001000
00001000
00001300
,
00000020
00010000
00010000
00010030
,
00002000
01000000
01000000
01003000
,
00010000
01000000
10000000
00000000
01000000
00000000
00010000
00000000
,
10000000
01000000
00010000
00000000
00001000
00000100
00000001
00001000
,
00001001
00000000
00000000
00000000
;

//---------------dance-double - ----------------
#NOTES:
     dance-double:
     :
     Medium:
     8:
     0.324,0.365,0.008,0.148,0.000: // measure 1
00000000
00000000
00000000
00000000
,  // measure 2
00000000
00000000
00000000
00000000
,  // measure 3
00000000
00000000
00000000
00000000
,  // measure 4
00000000
00000000
00000000
00000000
,  // measure 5
00000001
00001000
00000001
00000000
00000010
00000000
00000010
00000000
,  // measure 6
00000100
00010000
00000100
00000000
00010000
00000000
00010000
00000000
,  // measure 7
00001000
00100000
00001000
00000000
01000000
00000000
01000000
00000000
,  // measure 8
00100000
10000000
00100000
00000000
01000000
00010000
01000000
00000000
,  // measure 9
00010000
00100000
00010000
00000000
00100000
00000000
00001000
00000000
,  // measure 10
00010000
00000010
00010000
00000000
00000100
00000000
00001000
00000000
,  // measure 11
00000001
00000100
00000001
00000000
00000010
00000000
00001000
00000000
,  // measure 12
00010000
00001000
00010000
00000000
00100000
00000000
01000000
00000000
,  // measure 13
00010000
10000000
01000000
00100000
,  // measure 14
00010000
00100000
00001000
00010000
,  // measure 15
00000000
00000010
00001000
00000100
,  // measure 16
00000010
00000000
00000010
00000000
00000100
00000010
00000100
00000000
,  // measure 17
00000010
00000001
00001000
00000010
,  // measure 18
00010000
00001000
00100000
00010000
,  // measure 19
00000000
01000000
00100000
10000000
,  // measure 20
00010000
00000000
00100000
00000000
01000000
10000000
00010000
00000000
,  // measure 21
00100000
00001000
00100000
00000000
00001000
00000000
00010000
00000000
,  // measure 22
00000010
00001000
00000010
00000000
00010000
00000000
00001000
00000000
,  // measure 23
01000000
00010000
01000000
00000000
00001000
00000000
00010000
00000000
,  // measure 24
00000100
00000000
00001000
00000010
00000000
00000100
00000001
00000000
,  // measure 25
00000010
00001000
00010000
00001000
,  // measure 26
00000010
00000100
00010000
00001000
,  // measure 27
00000000
00100000
00001000
01000000
,  // measure 28
00010000
00100000
01000000
10000000
,  // measure 29
00000000
00100000
01000000
00001000
,  // measure 30
00010000
00000010
00001000
00000100
,  // measure 31
00000000
00000010
00000001
00001000
,  // measure 32
00000010
00010000
00001000
00100000
,  // measure 33
00010000
01000000
01000000
00000000
,  // measure 34
00100000
10000000
00010000
00000000
,  // measure 35
00100000
00001000
00001000
00000000
,  // measure 36
00010000
00000010
00001000
00000000
,  // measure 37
00000100
00000010
00000010
00000000
,  // measure 38
00000001
00000100
00000010
00000000
,  // measure 39
00010000
00001000
00001000
00000000
,  // measure 40
00100000
00010000
01000000
00000000
,  // measure 41
00200000
00000000
20300000
00000000
,  // measure 42
30020000
00000000
00230000
00000000
,  // measure 43
00302000
00000000
00023000
00000000
,  // measure 44
00030200
00000000
00000320
00000000
,  // measure 45
00000032
00000000
00000203
00000000
,  // measure 46
00000320
00000000
00020030
00000000
,  // measure 47
00032000
00000000
00203000
00000000
,  // measure 48
02300000
00000000
23000000
00000000
,  // measure 49
30010000
00100000
00001000
00010000
,  // measure 50
00000010
00000000
00001000
00000000
00000100
00000010
00000100
00000000
,  // measure 51
00001000
00000010
00000100
00000001
,  // measure 52
00000010
00000000
00001000
00000000
00010000
00001000
00010000
00000000
,  // measure 53
00100000
01000000
00010000
10000000
,  // measure 54
01000000
00000000
00100000
00000000
01000000
10000000
01000000
00000000
,  // measure 55
00100000
00001000
00010000
00000100
,  // measure 56
00001000
00000010
00000100
00000100
,  // measure 57
00000001
00000010
00000100
00010000
,  // measure 58
00001000
00000000
00100000
00000000
01000000
10000000
01000000
00000000
,  // measure 59
10000000
00100000
01000000
00001000
,  // measure 60
00010000
00000000
00000010
00000000
00000100
00000001
00000100
00000000
,  // measure 61
00000001
00000100
00000010
00010000
,  // measure 62
00001000
00000000
01000000
00000000
00100000
10000000
00100000
00000000
,  // measure 63
10000000
01000000
00100000
00001000
,  // measure 64
00010000
00000100
00000010
00000010
,  // measure 65
00000002
00000000
00000000
00000000
,  // measure 66
00000000
00000000
00000000
00000000
,  // measure 67
00000013
00000000
00000010
00000000
,  // measure 68
00000100
00010000
00001000
00100000
,  // measure 69
02000000
00000000
00000000
00000000
,  // measure 70
00000000
00000000
00000000
00000000
,  // measure 71
13000000
00000000
10000000
00000000
,  // measure 72
00100000
01000000
00001000
00010000
,  // measure 73
00000010
00000100
00000010
00000000
00001000
00000000
00000001
00000000
,  // measure 74
00000010
00000100
00000010
00000000
00000001
00000000
00001000
00000000
,  // measure 75
00011000
00000000
00000000
00000000
;

//---------------dance-double - ----------------
#NOTES:
     dance-double:
     :
     Easy:
     5:
     0.211,0.243,0.000,0.016,0.000: // measure 1
00000000
00000000
00000000
00000000
,  // measure 2
00000000
00000000
00000000
00000000
,  // measure 3
00000000
00000000
00000000
00000000
,  // measure 4
00000000
00000000
00000000
00000000
,  // measure 5
00010000
00000000
00001000
00001000
,  // measure 6
01000000
00000000
00100000
00100000
,  // measure 7
10000000
00000000
00010000
00010000
,  // measure 8
00100000
00000000
00000000
00000000
00001000
00010000
00001000
00000000
,  // measure 9
00010000
00000000
00000100
00000100
,  // measure 10
00000010
00000000
00000001
00000001
,  // measure 11
00000100
00000000
00000010
00000010
,  // measure 12
00010000
00000000
00000000
00000000
00001000
00010000
00001000
00000000
,  // measure 13
01000000
00000000
00100000
00000000
,  // measure 14
10000000
01000000
00100000
00000000
,  // measure 15
00001000
00000000
00010000
00000000
,  // measure 16
00001000
00010000
00000100
00000000
,  // measure 17
00001000
00000000
00000010
00000000
,  // measure 18
00000100
00000001
00000010
00000000
,  // measure 19
00000100
00000000
00010000
00000000
,  // measure 20
00000100
00010000
00001000
00000000
,  // measure 21
01000000
00000000
00010000
00010000
,  // measure 22
10000000
00000000
01000000
01000000
,  // measure 23
00100000
00000000
00001000
00001000
,  // measure 24
00010000
00000000
00000000
00000100
,  // measure 25
00000010
00000000
00000001
00000000
,  // measure 26
00001000
00000100
00000010
00000001
,  // measure 27
00000100
00000000
00000010
00000000
,  // measure 28
00010000
00010000
00010000
00010000
,  // measure 29
00001000
00000000
01000000
00000000
,  // measure 30
00010000
00100000
01000000
10000000
,  // measure 31
00100000
00000000
10000000
00000000
,  // measure 32
01000000
00100000
01000000
10000000
,  // measure 33
01000000
00000000
00100000
00000000
,  // measure 34
00001000
00010000
00001000
00000000
,  // measure 35
00010000
00000000
00000100
00000000
,  // measure 36
00001000
00000010
00001000
00000000
,  // measure 37
00000010
00000000
00000100
00000000
,  // measure 38
00000001
00000010
00000001
00000000
,  // measure 39
00000100
00000000
00000010
00000000
,  // measure 40
00001000
00000100
00001000
00000000
,  // measure 41
00000001
00000000
00000100
00000000
,  // measure 42
00001000
00000000
00010000
00000000
,  // measure 43
00100000
00000000
10000000
00000000
,  // measure 44
00010000
00000000
10000000
00000000
,  // measure 45
01000000
00000000
00010000
00000000
,  // measure 46
00001000
00000000
00000010
00000000
,  // measure 47
00000001
00000000
00001000
00000000
,  // measure 48
00000001
00000000
00000100
00000000
,  // measure 49
00001000
00000000
00000010
00000000
,  // measure 50
00001000
00000100
00001000
00000100
,  // measure 51
00010000
00000000
00001000
00000000
,  // measure 52
01000000
00010000
01000000
00010000
,  // measure 53
10000000
00000000
01000000
00000000
,  // measure 54
00100000
00010000
00100000
00010000
,  // measure 55
01000000
00000000
00001000
00000000
,  // measure 56
00010000
00000100
00010000
00000100
,  // measure 57
00001000
00000000
00000010
00000000
,  // measure 58
00000100
00000001
00000100
00000001
,  // measure 59
00000010
00000000
00000100
00000000
,  // measure 60
00010000
00001000
00010000
00001000
,  // measure 61
00100000
00000000
00010000
00000000
,  // measure 62
01000000
00100000
01000000
00100000
,  // measure 63
10000000
00000000
01000000
00000000
,  // measure 64
00010000
00001000
00010000
00001000
,  // measure 65
00000200
00000000
00000000
00000000
,  // measure 66
00000000
00000000
00000000
00000000
,  // measure 67
00000000
00000000
00000300
00000000
,  // measure 68
00000001
00000000
00001000
00000000
,  // measure 69
00000200
00000000
00000000
00000000
,  // measure 70
00000000
00000000
00000000
00000000
,  // measure 71
00000000
00000000
00000300
00000000
,  // measure 72
00010000
00000000
00001000
00000000
,  // measure 73
00010000
00000000
00001000
00001000
,  // measure 74
01000000
00000000
00100000
00100000
,  // measure 75
10000000
00000000
00000000
00000000
;
