#TITLE:[E];
#SUBTITLE:;
#ARTIST:dj MAX STEROID;
#TITLETRANSLIT:Kakkoi;
#SUBTITLETRANSLIT:;
#ARTISTTRANSLIT:;
#GENRE:;
#CREDIT:Silverhawke;
#MENUCOLOR:;
#METERTYPE:DDR;
#BANNER:[E].png;
#BACKGROUND:[E]-bg.png;
#LYRICSPATH:;
#CDTITLE:cdtitle.png;
#MUSIC:[E].mp3;
#OFFSET:-1.602;
#SAMPLESTART:59.979;
#SAMPLELENGTH:15.000;
#SELECTABLE:YES;
#LISTSORT:;
#BPMS:0.000=152.000;
#STOPS:;
#BGCHANGES:;
#ATTACKS:;

//---------------dance-double - ----------------
#NOTES:
     dance-double:
     :
     Hard:
     14:
     0.715,0.714,0.208,0.208,0.741:
00000000
00000000
00000000
00000000
,
00000000
00000000
00000000
00000000
,
00000000
00000000
00000000
00000000
,
00000000
00000000
00000000
00000000
,
00000000
00000000
00000000
00000000
,
00011000
00000000
00000000
00001000
00000000
00000000
01000000
00000000
00000000
00100000
10000000
00000000
00100000
00000000
01000000
00000000
,
00001000
00010000
00000000
00010000
00000000
00000000
00000100
00000000
00000000
00000010
00000001
00000000
00000010
00000000
00000100
00000000
,
00010000
00001000
00000000
00001000
00000000
00000000
01000000
00000000
00000000
00100000
10000000
00000000
01000000
00000000
00010000
00000000
,
00022000
00000000
00000000
00000000
00033000
00000000
00000000
00000000
00011000
00000000
00000000
01000000
00000000
00000000
00100000
00000000
,
10000000
00000000
00000000
11000000
00000000
00000000
10010000
00000000
00000000
00010000
01000000
00000000
00001000
00000000
00010000
00000000
,
00000100
00010000
00000000
00000010
00000000
00000000
00001000
00000000
00000000
00000001
00000100
00000000
00000010
00000000
00001000
00000000
,
00000000
00000100
00000000
00000100
00000000
00000000
00010000
00000000
00000000
00001000
00100000
00000000
00000000
01000000
00000000
10000000
,
01000000
00010000
00000000
00001000
00000000
00000000
00000100
00000000
00000000
00000001
00000100
00000010
00001000
00000000
00000100
00010000
,
00001000
00000000
00000000
01001000
00000000
00000000
01010000
00000000
00000000
00010000
10000000
00000000
01000000
00000000
00100000
00000000
,
00001000
00010000
00000000
00000100
00000000
00000000
00001000
00000000
00000000
00000010
00000100
00000000
00000001
00000000
00000010
00000000
,
00000100
00010000
00000000
00001000
00000000
00000000
01000000
00000000
00000000
10000000
01000000
00000000
00000000
00100000
00000000
20000000
,
00020000
00000000
00000000
00000000
30030000
00000000
00000000
00000000
10000000
00010000
10000000
00010000
10000000
00000000
00000000
00000000
,
00010000
00000000
01000000
00000000
00100000
00000000
00010000
00000000
00001000
00000000
00000000
00000000
00000100
00000000
00000000
00000010
,
00000000
00000010
00000000
00000000
00001000
00000000
00000100
00000000
00010000
00000000
00001000
00000000
00101000
00000000
00000000
00000000
,
00100000
00000000
01000000
00000000
00010000
00000000
00001000
00000000
00000010
00000000
00000100
00000000
00001000
00000000
00000000
00000001
,
00000000
00000001
00000000
00000000
00000100
00000000
00000010
00000000
00010000
00000000
00002000
00000000
01003000
00000000
00100000
00000000
,
10100000
00000000
00000000
00000000
01010000
00000000
00000000
00000000
01000000
00000000
00001000
00000000
00010000
00000000
00000000
00001000
,
00000000
00001000
00000000
00000000
00000100
00000000
00000001
00000000
00000010
00000000
00000100
00000000
00001000
00000000
00000001
00000000
,
00000101
00000000
00000000
00000000
00001010
00000000
00000000
00000000
00000010
00000000
00010000
00000000
00001000
00000000
00000000
00010000
,
00000000
00010000
00000000
00000000
01000000
00000000
10000000
00000000
00100000
00000000
01000000
00100000
01000000
00000000
00000000
00000000
,
01000000
00010000
00000000
00100000
00000000
00000000
00000000
00001000
00010000
00000100
00000000
00000000
00000000
00000000
00000000
00001000
,
00000010
00000100
00000000
00000001
00000010
00000000
00000100
00001000
00000000
00000100
00010000
00001000
01000000
00000000
00000000
00000000
,
00100000
00010000
00000000
00001000
00000100
00000000
00000000
00000001
00000100
00000000
00000010
00001000
00000000
00000100
00010000
00001000
,
00100000
00000000
00001000
00000000
01000000
00000000
00010000
00000000
00000000
00000000
00000000
00000000
10010000
00000000
00000000
00000000
00000000
00000000
01100000
00000000
00000000
01000000
00000000
00000000
,
00001000
00010000
00000000
00001000
00000000
00000000
00000000
00000100
00000001
00000010
00000000
00000000
00000000
00000000
00000000
00000100
,
00001000
00000100
00000000
00010000
00001000
00000000
01000000
00100000
00000000
10000000
01000000
00100000
00010000
00000000
00000000
00000000
,
01000000
00001000
00000000
00010000
00000000
00000000
00000000
00000100
00001000
00000000
00000001
00000100
00000000
00000010
00010000
00001000
,
01000000
00001000
01000000
00001000
01000000
00001000
01000000
00000000
00000000
00010100
00000000
00000000
,
00011000
00000000
00000000
00000000
00001000
00000000
01000000
00000000
10000000
00000000
00000000
00000000
01000000
00001000
00000000
00000000
,
00010000
00000000
01000000
10000000
00000000
00000000
01000000
00000000
00100000
00000000
00000000
00000000
00101000
00000000
00000000
00000000
,
00011000
00000000
00000000
00000000
00010000
00000000
00000100
00000000
00000001
00000000
00000000
00000000
00000100
00010000
00000000
00000000
,
00001000
00000100
00000000
00000001
00000000
00000001
00000010
00000100
00000010
00000001
00001000
00000100
00000010
00000000
00000000
00000000
,
00000001
00000000
00000100
00000000
00000010
00000000
00010000
00001000
00000000
00000000
01000000
00000000
00010000
00000000
00100000
00000000
,
01000000
00000000
10000000
00000000
01000000
00000000
00100000
00010000
00000000
00000000
01000000
00000000
00001000
00000000
00010000
00000000
,
00000010
00000000
00000100
00000000
00001000
00000000
00000100
00000001
00000000
00000000
00000010
00000000
00000100
00000000
00001000
00000000
,
00000100
00000000
00010000
00000000
00001000
00000000
01000000
00010000
10000000
00000000
10000000
00000000
00010000
00000000
00010000
00000000
,
10000000
00000000
01000000
00000000
00100000
00000000
00001000
00010000
00000000
00000000
00000100
00000000
00001000
00000000
00000010
00000000
,
00000100
00000000
00000001
00000000
00000100
00000000
00000010
00001000
00000000
00000000
00000100
00000000
00010000
00000000
00001000
00000000
,
00100000
00000000
01000000
00000000
00010000
00000000
01000000
10000000
00000000
00000000
00100000
00000000
01000000
00000000
00010000
00000000
,
01000000
00000000
00001000
00000000
00010000
00000000
00000100
00001000
00000001
00000000
00000001
00000000
00001000
00000001
00001000
00000000
,
00000001
00000000
00000010
00000000
00000100
00000000
00010000
00001000
00000000
00000000
00100000
00000000
00010000
00000000
01000000
00000000
,
00100000
00000000
10000000
00000000
00100000
00000000
01000000
00010000
00000000
00000000
00100000
00000000
00001000
00000000
00010000
00000000
,
00000100
00000000
00000010
00000000
00001000
00000000
00000010
00000001
00000000
00000000
00000100
00000000
00000010
00000000
00001000
00000000
,
00000010
00000000
00010000
00000000
00001000
00000000
00100000
00010000
10000000
00000000
10000000
00000000
00010000
00000000
00010000
00000000
,
10000000
00000000
00100000
00000000
01000000
00000000
00001000
00010000
00000000
00000000
00000010
00000000
00001000
00000000
00000100
00000000
,
00000010
00000000
00000001
00000000
00000010
00000000
00000100
00001000
00000000
00000000
00000010
00000000
00010000
00000000
00001000
00000000
,
01000000
00000000
00100000
00000000
00010000
00000000
00100000
10000000
00000000
00000000
01000000
00000000
00100000
00000000
00010000
00000000
,
00100000
00000000
00000000
00000000
00001000
00000000
00000000
00000000
01000000
00000000
00000000
00000000
00010000
00000000
00000000
00000000
00000000
00000000
00000000
00000000
00000000
00000100
00000000
00000000
00000000
00000000
00000000
00000000
00000000
00000000
00000001
00000000
00001000
00000000
00000001
00000000
00001000
00000000
00000000
00000000
00000000
00000000
00000000
00000000
00000000
00000000
00000000
00000000
,
00000001
00000100
00000000
00001000
00000000
00000000
00000000
00010000
00000000
01000000
00000000
10000000
00010000
00000000
00000000
00000000
,
10000000
00100000
00000000
00010000
00000000
00000000
00000000
00001000
00000000
00000100
00000000
00000001
00001000
00000000
00000000
00000000
,
00000001
00000010
00000000
00001000
00000000
00000000
00000000
00010000
00000000
00100000
00000000
10000000
00010000
00000000
00000000
00000000
,
10000000
01000000
00000000
00100000
00000000
00001000
00010000
00001000
00200000
00000000
02300000
00000000
23000000
00000000
30020000
00000000
,
10030000
01000000
00000000
00010000
00000000
00000000
00000000
00001000
00000000
00000100
00000000
00000001
00001000
00000000
00000000
00000000
,
00000001
00000010
00000000
00001000
00000000
00000000
00000000
00010000
00000000
01000000
00000000
10000000
00010000
00000000
00000000
00000000
,
10000000
00100000
00000000
00010000
00000000
00000000
00000000
00001000
00000000
00000010
00000000
00000001
00001000
00000000
00000000
00000000
,
00000001
00000100
00000000
00000010
00000000
00010000
00001000
00010000
00000010
00000000
00000100
00000001
00000000
00001000
00000100
00001000
,
00000010
00000000
00010000
00000000
00001000
00000000
01000000
00001000
00100000
00000000
00100000
00001000
01000000
00000000
00100000
00000000
,
20000000
01000000
30020000
01000000
20030000
01000000
30010000
01000000
,
01001000
00000000
00001000
00000000
00010000
00000000
00000100
00010000
00000010
00000000
00000010
00010000
00000100
00000000
00001000
00000000
,
00000002
00000100
00002003
00000100
00003002
00000100
00001003
00000100
,
00010100
00000000
00010000
00000000
00001000
00000000
00100000
00001000
01000000
00000000
01000000
00001000
00100000
00000000
01000000
00000000
,
20000000
00100000
30020000
00100000
20030000
00100000
30010000
00100000
,
00101000
00000000
00001000
00000000
00010000
00000000
00000010
00010000
00000100
00000000
00000100
00010000
00000010
00000000
00001000
00000000
,
00000002
00000010
00002003
00000010
00003002
00000010
00001003
00000010
,
00010010
00000000
00000000
00000000
01001000
00000000
00000000
00000000
00001000
01000000
00000000
00000000
00100000
00000000
00000000
10000000
,
00000000
00000000
01000000
00000000
00010000
00000000
00000000
00001000
00100000
00000000
00001000
00000000
00000100
00000000
00000000
00000000
,
00000101
00000000
00000000
00000000
00001010
00000000
00000000
00000000
00001000
00000100
00000000
00000000
00010000
00000000
00000000
00001000
,
00000000
01000000
00010000
00000000
10000000
01000000
00000000
00000000
00010000
00001000
00000000
00010000
00000000
00000100
00000000
00000000
,
00000010
00000001
00000000
00000100
00000000
00000000
00001000
00010000
00000000
00100000
10000000
00100000
01000000
00000000
00010000
10000000
,
02000000
03200000
00302000
00023000
00030000
00000000
00000000
00000000
;

//---------------dance-single - ----------------
#NOTES:
     dance-single:
     :
     Hard:
     14:
     0.706,0.713,0.208,0.025,0.845:
0000
0000
0000
0000
,
0000
0000
0000
0000
,
0000
0000
0000
0000
,
0000
0000
0000
0000
,
0000
0000
0000
0000
,
0001
0000
0000
0101
0000
0000
1001
0000
0000
1000
0100
0000
0010
0000
0100
0000
,
1000
0010
0000
0010
0000
0000
0100
0000
0000
0001
0010
0000
0001
0000
0100
0000
,
0010
1000
0000
1000
0000
0000
0001
0000
0000
0010
0100
0000
0000
0100
0000
1000
,
0002
0000
0000
0000
0003
0000
0000
0000
1100
0000
0000
0101
0000
0000
1001
0000
,
1000
0000
0000
1100
0000
0000
1001
0000
0000
0100
0001
0000
0010
0000
0100
0000
,
1000
0010
0000
0010
0000
0000
0100
0000
0000
0001
1000
0000
0100
0000
0010
0000
,
0100
1000
0000
1000
0000
0000
0001
0000
0000
0100
0010
0000
0000
0100
0000
0001
,
1000
0100
0000
0100
0000
0000
0010
0000
0000
0100
1000
0001
1000
0000
0001
0100
,
0010
0000
0000
0110
0000
0000
1010
0000
0000
1000
0100
0000
0010
0000
0100
0000
,
1000
0001
0000
0001
0000
0000
0100
0000
0000
0010
0100
0000
0001
0000
0010
0000
,
0100
1000
0000
1000
0000
0000
0001
0000
0000
0100
0010
0000
0000
1000
0000
0001
,
0020
0000
0000
0000
0000
0000
0000
0000
0031
0100
0010
1000
0001
0000
0000
0000
,
1000
0100
0000
0100
0000
0100
0010
0000
0001
0000
0100
0000
0001
0000
0000
0100
,
0000
0010
0000
0010
0000
0010
1000
0000
0100
0000
0010
0000
0100
0000
1000
0000
,
0001
0100
0000
0100
0000
0100
0010
0000
1000
0000
0001
0000
0010
0000
0000
0100
,
0000
1000
0000
1000
0000
1000
0010
0000
0100
0000
0002
0000
0013
0000
0100
0000
,
1000
0010
0000
0010
0000
0010
0100
0000
0001
0000
1000
0000
0100
0000
0000
0010
,
0000
0100
0000
0100
0000
0100
1000
0000
0010
0000
0100
0000
0001
0000
0010
0000
,
0001
0100
0000
0100
0000
0100
0010
0000
1000
0000
0001
0000
0010
0000
0000
0100
,
0000
1000
0000
1000
0000
1000
0100
0000
0010
0000
0001
1000
0001
0000
0000
0000
,
0100
0010
0000
0010
0000
0000
0000
1000
0100
0010
0000
0000
0000
0000
0000
0001
,
0100
0010
0000
0010
0100
0000
0100
0001
0000
0001
0010
0100
1000
0000
0000
0000
,
0001
0100
0000
0100
0000
0000
0000
0010
1000
0001
0000
0010
0000
0100
1000
0001
,
0100
0000
0000
0000
0010
0000
0000
0000
0100
0000
0000
0000
0010
0000
0000
0000
0000
0000
0000
0000
0000
1000
0000
0000
0100
0000
0000
0000
0000
0000
0000
0000
0000
0000
0000
0000
0110
0000
0000
0000
0000
0000
0110
0000
0000
0000
0000
0000
,
1000
0001
0000
0001
0000
0000
0000
0100
0010
1000
0000
0000
0000
0000
0000
0100
,
0010
0001
0000
0001
1000
0000
1000
0010
0000
0010
0100
0001
1000
0000
0000
0000
,
0100
0010
0000
0010
0000
0000
0000
0001
0100
0010
0000
0010
0000
1000
0100
0010
,
0001
0100
0001
0100
0001
0100
0010
0000
0000
0110
0000
0000
,
1001
0000
0000
0000
1000
0000
0100
0000
0110
0000
0000
0000
0001
0100
0000
0000
,
0001
0000
0010
0100
0000
0000
1000
0000
1001
0000
0000
0000
0000
0000
0000
0000
,
0101
0000
0000
0000
0010
0000
1000
0000
1100
0000
0000
0000
0010
0001
0000
0000
,
0010
0100
0000
1000
0000
0001
0100
0001
1000
0100
0010
0001
1000
0000
0000
0000
,
0001
0000
0010
0000
0100
0000
1000
0001
0000
0000
1000
0000
0010
0000
0100
0000
,
0001
0000
0010
0000
0001
0000
0100
0010
0000
0000
1000
0000
0100
0000
1000
0000
,
0010
0000
0100
0000
0001
0000
0010
0100
0000
0000
1000
0000
0010
0000
1000
0000
,
0100
0000
0010
0000
0001
0000
1000
0010
0100
0000
0100
0000
0001
0000
0001
0000
,
1000
0000
0010
0000
0100
0000
0001
1000
0000
0000
0001
0000
0010
0000
0100
0000
,
1000
0000
0010
0000
1000
0000
0100
0010
0000
0000
0001
0000
0100
0000
0001
0000
,
0010
0000
0100
0000
1000
0000
0010
0100
0000
0000
0001
0000
0010
0000
0001
0000
,
0100
0000
0010
0000
1000
0000
0001
0010
0100
0000
0100
0000
1000
0001
1000
0000
,
0001
0000
0100
0000
0010
0000
1000
0100
0000
0000
0001
0000
0100
0000
1000
0000
,
0010
0000
0100
0000
0001
0000
0010
0100
0000
0000
0001
0000
0100
0000
1000
0000
,
0010
0000
0100
0000
0001
0000
0100
0010
0000
0000
0001
0000
0010
0000
1000
0000
,
0001
0000
0010
0000
0100
0000
1000
0010
0100
0000
0100
0000
0001
0000
0001
0000
,
1000
0000
0100
0000
0010
0000
0001
0100
0000
0000
1000
0000
0100
0000
0001
0000
,
0010
0000
0100
0000
1000
0000
0010
0100
0000
0000
1000
0000
0100
0000
0001
0000
,
0010
0000
0100
0000
1000
0000
0100
0010
0000
0000
1000
0000
0010
0000
0001
0000
,
1000
0000
0000
0000
0001
0000
0000
0000
1000
0000
0000
0000
0001
0000
0000
0000
0000
0000
0000
0000
0000
0010
0000
0000
0000
0000
0000
0000
0000
0000
0100
0000
0000
1000
0000
0000
0001
0000
0000
0000
0000
0000
0000
0000
0000
0000
0000
0000
,
0100
0010
0000
1000
0000
0000
0000
0100
0000
0100
0000
0100
0010
0000
0000
0000
,
0001
0100
0000
0001
0000
0000
0000
0010
0000
0010
0000
0010
0100
0000
0000
0000
,
1000
0010
0000
0100
0000
0000
0000
0001
0000
0001
0000
0001
0010
0000
0000
0000
,
0100
1000
0000
0010
0000
0100
0001
0100
0010
0000
1000
0000
0010
0000
0001
0000
,
0010
0100
0000
0001
0000
0000
0000
1000
0000
0100
0000
0010
0100
0000
0000
0000
,
1000
0010
0000
0100
0000
0000
0000
0001
0000
0010
0000
0100
0010
0000
0000
0000
,
0001
0100
0000
0010
0000
0000
0000
1000
0000
0100
0000
0001
0100
0000
0000
0000
,
1000
0010
0000
0100
0000
0001
0010
0001
0100
0000
0010
0100
0000
0010
1000
0010
,
0100
0000
0001
0000
0010
0000
0100
1000
0001
0000
0001
1000
0100
0000
0010
0000
,
0001
0100
1000
0100
0100
0001
0100
1000
,
0100
0000
0001
0000
1000
0000
0100
1000
0001
0000
0001
1000
0100
0000
0010
0000
,
0001
0100
1000
0100
0100
0001
0100
1000
,
0100
0000
0001
0000
0010
0000
0100
1000
0001
0000
0001
0010
0100
0000
1000
0000
,
0001
0010
1000
0010
0010
0001
0010
1000
,
0010
0000
0001
0000
1000
0000
0010
1000
0001
0000
0001
0100
0010
0000
1000
0000
,
0001
0010
1000
0010
0010
0001
0010
1000
,
0010
0000
0000
0000
1001
0000
0000
0000
0010
0100
0000
0000
1001
0000
0000
0010
,
0000
0000
0010
0000
1001
0000
0000
0010
0100
0000
0010
0000
1001
0000
0000
0000
,
0100
0000
0000
0000
1001
0000
0000
0000
0100
0010
0000
0000
1001
0000
0000
0100
,
0000
0010
0100
0000
1001
0000
0000
0000
0010
0100
0000
0100
0000
1001
0000
0000
,
0010
1000
0000
1000
0000
0000
0001
0100
0000
0100
0010
1000
0001
0000
0010
0100
,
1000
0000
0010
1000
0001
0000
0100
1000
0000
0000
0000
0000
0000
0000
0000
0000
;

//---------------dance-single - ----------------
#NOTES:
     dance-single:
     :
     Medium:
     10:
     0.525,0.496,0.325,0.242,0.171:
0000
0000
0000
0000
,
0000
0000
0000
0000
,
0000
0000
0000
0000
,
0000
0000
0000
0000
,
0000
0000
0000
0000
,
1000
0000
0000
0100
0000
0000
0010
0000
0000
0000
0010
0000
0001
0000
1000
0000
,
0001
0000
0000
0100
0000
0000
0010
0000
0000
0000
0010
0000
1000
0000
0001
0000
,
0010
0000
0000
0100
0000
0000
1000
0000
0000
0000
1000
0000
0010
0000
0100
0000
,
2002
0000
0000
0000
3000
0000
0000
0000
0103
0000
0000
0100
0000
0000
0100
0000
,
0100
0000
0000
0010
0000
0000
0100
0000
0000
0000
0001
0000
1000
0000
0001
0000
,
0010
0000
0000
0100
0000
0000
0010
0000
0000
0000
0001
0000
0100
0000
0010
0000
,
1000
0000
0000
0100
0000
0000
1000
0000
0000
0000
0001
0000
0100
0000
0010
0000
,
1000
0000
0000
0001
0000
0000
1000
0000
0000
0000
0001
0000
0010
0000
0100
0000
,
0010
0000
0000
0001
0000
0000
0010
0000
0000
0000
0100
0000
1000
0000
0001
0000
,
0010
0000
0000
0010
0000
0000
0001
0000
0000
0000
0100
0000
0010
0000
1000
0000
,
0100
0000
0000
0100
0000
0000
1000
0000
0000
0000
0001
0000
0100
0000
0010
0000
,
0220
0000
0330
1001
,
1000
0000
0100
0000
0001
0000
0100
0000
2000
0000
0000
0000
3001
0000
0000
1000
,
0000
0001
0100
0010
0110
0000
1001
0000
,
0001
0000
0100
0000
1000
0000
0100
0000
0002
0000
0000
0000
0013
0000
0000
0100
,
0000
0100
0000
0000
1000
0000
0010
0000
0100
0000
0202
0000
0303
0000
0000
0000
,
1000
0000
0010
0000
0001
0000
0010
0000
2000
0000
0000
0000
3100
0000
0000
0010
,
0000
0001
0000
0000
0100
0000
0010
0000
1001
0000
0000
0000
0110
0000
0000
0000
,
0001
0000
0010
0000
1000
0000
0010
0000
0002
0000
0000
0000
0103
0000
0000
0010
,
0000
0010
0000
0000
1000
0000
0100
0000
0010
0000
0001
0000
1001
0000
0000
0000
,
0001
0100
0000
0000
0010
0000
0000
1000
0100
0000
0000
0000
0010
0000
0000
0001
,
0100
0000
0000
0000
0010
0000
0000
0100
0001
0000
1000
0000
0001
0000
0000
0000
,
0010
0100
0000
0000
1000
0000
0000
0100
0010
0000
0001
0000
0100
0000
0010
0000
,
0100
0100
0100
0000
0020
0030
0020
0030
,
1000
0100
0000
0000
0010
0000
0000
0001
0100
0000
0000
0000
0010
0000
0000
1000
,
0100
0000
0000
0000
0010
0000
0000
0100
1000
0000
0001
0000
0100
0000
0000
0000
,
0010
0100
0001
1000
0001
0010
0100
1000
,
2002
3003
1010
0101
,
1000
0000
0000
0001
0100
0000
0001
0000
,
1000
0100
0001
0100
2000
0000
3000
0000
,
0001
0000
0000
1000
0100
0000
0001
0000
,
1000
0010
0001
0100
0010
0001
0010
0000
,
1000
0000
0000
0100
0000
0000
0010
0000
0000
0000
0100
0000
1000
0000
0001
0000
,
0100
0000
0000
0010
0000
0000
0010
0000
1000
0000
0000
0001
0000
0000
0001
0000
,
0010
0100
1000
0001
0000
0000
0000
2002
,
0000
3003
0000
0000
1100
0000
0101
0000
,
2002
0000
3003
0000
0000
0001
0010
0100
,
1000
0000
0000
0000
0000
0000
0010
0000
0100
0000
0000
0001
0000
0000
1000
0000
,
0100
0010
0100
1000
0000
0000
0000
0000
,
0101
0000
1100
0000
0002
2000
3003
0000
,
0001
0000
0000
0010
0000
0000
0001
0000
0000
0000
1000
0000
0010
0000
0100
0000
,
0010
0000
0000
1000
0000
0000
0000
0000
0001
0000
0000
0010
0000
0000
0100
0000
,
1000
0100
0010
0001
0000
0000
0000
1000
,
0010
0000
0110
0000
2000
0002
3003
0000
,
0010
0000
0000
0010
0000
0000
0010
0000
0000
0000
0100
0000
1000
0000
0100
0000
,
0001
0000
0000
0000
0000
0000
0000
0000
0100
0000
0000
0000
0000
0000
0000
0000
1000
0000
0000
0000
0000
0000
0000
0000
0010
0000
0000
0000
0000
0000
0000
0000
0000
0100
0000
0000
0000
0000
0000
0000
0000
0000
0001
0000
0000
0000
0000
0000
,
0010
1000
0010
0001
0000
0000
0000
1000
,
2200
0000
0000
0000
0000
3000
0300
0000
,
1000
0001
0100
0000
0010
0000
0110
0000
,
0001
1000
0100
0000
0010
0000
0110
0000
,
1000
0001
0010
0000
0100
0000
0110
0000
,
1000
0001
0010
1000
0010
0001
1000
0000
,
0001
0100
0010
0000
1000
0000
1001
0000
,
1000
0100
0010
0000
0001
0000
1001
0000
,
0010
1000
0100
0000
0010
0000
0110
0000
,
0010
0001
0100
1000
0010
1000
0100
0001
,
0010
0000
0000
1000
0100
0001
0100
1000
,
0000
0001
0000
0100
0000
0110
0000
1001
,
0000
0000
0000
0001
0100
1000
0100
0001
,
0000
1000
0000
0100
0010
0000
0110
0000
,
1001
0000
0000
0001
0010
1000
0010
0001
,
0000
1000
0000
0010
0000
0110
0000
1001
,
0000
0000
0000
1000
0010
0001
0010
1000
,
0000
0001
0000
0010
0100
0000
0110
0000
,
1001
0110
1001
0110
,
0001
0010
1000
0010
0100
0001
0100
0000
,
1000
0011
0001
1010
,
1000
0100
0001
0100
0010
0001
1000
0000
,
0001
0000
0000
0100
0000
0000
1000
0000
0000
0100
0000
0000
0001
0000
0000
0000
,
2000
3200
0320
0032
0003
0000
0000
0000
;

//---------------dance-single - ----------------
#NOTES:
     dance-single:
     :
     Easy:
     5:
     0.292,0.309,0.117,0.033,0.000:
0000
0000
0000
0000
,
0000
0000
0000
0000
,
0000
0000
0000
0000
,
0000
0000
0000
0000
,
0000
0000
0000
0000
,
1000
0001
1000
0100
,
0001
1000
0001
0100
,
1000
0001
1000
0100
,
0020
0000
0030
0000
,
1000
0000
0001
0000
0010
0100
0010
0000
,
0001
1000
0100
1000
,
0001
0000
1000
0000
0010
0100
0010
0000
,
1000
0001
0100
0001
,
0010
0000
0100
0000
0010
0001
0010
0000
,
0100
1000
0001
0100
,
0010
0000
1000
0000
0010
0100
0010
0000
,
1000
0100
0010
0001
,
1000
1000
1000
0000
,
1000
1000
0001
0001
,
0100
0100
0100
0000
,
0010
0010
0100
0100
,
0001
0001
0001
0000
,
1000
1000
0100
0100
,
0010
0010
0010
0000
,
0001
0001
1001
0000
,
0001
0100
1000
0100
,
0001
0010
1000
0000
,
1000
0100
0001
0100
,
1000
0010
0001
0000
,
1000
0100
0001
0100
,
1000
0010
0001
0000
,
0001
0100
1000
0100
,
0001
0010
1000
0000
,
1001
0000
0110
0000
,
1000
0100
0001
0000
,
1001
0000
0110
0000
,
0001
0010
1000
0000
,
0001
0001
0100
0010
,
1000
1000
0100
0010
,
0001
0000
1000
0000
,
1001
0000
0000
0000
,
0010
1000
0100
0100
,
0010
0001
0100
0100
,
0010
1000
0100
0010
,
0001
1000
1001
0000
,
0001
0001
0100
0000
,
1000
1000
0100
0000
,
0010
1000
0100
0001
,
0100
1000
0010
0000
,
0100
0100
0001
0000
,
1000
1000
0100
0000
,
0010
0001
1000
0100
,
0020
0000
0000
0030
,
0100
0000
0100
0100
,
0100
0000
1000
1000
,
1000
0000
0010
0010
,
0010
0000
0001
0000
,
0001
0000
0100
0100
,
0100
0000
1000
1000
,
1000
0000
0010
0010
,
0010
0000
0001
0000
,
0001
0000
0100
1000
,
0100
0001
0100
1000
,
0001
0000
0100
1000
,
0100
0001
0100
1000
,
0001
0000
0100
0001
,
0100
1000
0100
0001
,
1000
0000
0010
1000
,
0010
0001
0010
1000
,
0001
0000
0110
0000
,
1000
0000
0110
0000
,
1001
0000
0110
0000
,
1001
0000
0110
0000
,
1000
0100
0010
0001
,
2002
3003
0000
0000
;

//---------------dance-single - ----------------
#NOTES:
     dance-single:
     :
     Beginner:
     2:
     0.123,0.155,0.000,0.042,0.000:
0000
0000
0000
0000
,
0000
0000
0000
0000
,
0000
0000
0000
0000
,
0000
0000
0000
0000
,
0000
0000
0000
0000
,
1000
0000
0000
0000
,
1000
0000
0000
0000
,
0001
0000
0000
0000
,
0002
0000
0003
0000
,
1000
0000
1000
0000
,
0001
0000
0001
0000
,
1000
0000
1000
0000
,
0001
0000
0000
0000
,
1000
0000
1000
0000
,
0001
0000
0001
0000
,
1000
0000
1000
0000
,
0002
0000
0003
0000
,
0001
0000
0001
0000
,
0001
0000
0000
0000
,
1000
0000
1000
0000
,
1000
0000
0000
0000
,
0001
0000
0001
0000
,
0001
0000
0000
0000
,
1000
0000
1000
0000
,
1000
0000
0000
0000
,
0100
0000
0000
0000
,
0100
0000
0000
0000
,
0100
0000
0100
0000
,
0100
0000
0000
0000
,
0010
0000
0000
0000
,
0010
0000
0000
0000
,
0010
0000
0010
0000
,
0020
0000
0030
0000
,
0001
0000
0000
0000
,
1000
0000
0000
0000
,
0001
0000
1000
0000
,
0001
0000
0000
0000
,
1000
0000
0000
0000
,
1000
0000
0000
0000
,
0001
0000
0001
0000
,
0001
0000
0000
0000
,
1000
0000
0000
0000
,
0001
0000
0000
0000
,
1000
0000
1000
0000
,
1000
0000
0000
0000
,
0001
0000
0000
0000
,
0001
0000
0000
0000
,
1000
0000
0000
0000
,
1000
0000
1000
0000
,
1000
0000
0000
0000
,
0001
0000
0000
0000
,
0100
0000
0000
0000
,
0020
0000
0000
0030
,
1000
0000
0000
0000
,
0001
0000
0000
0000
,
1000
0000
0000
0000
,
0001
0000
0000
0000
,
0100
0000
0000
0000
,
0010
0000
0000
0000
,
0100
0000
0000
0000
,
0010
0000
0000
0000
,
0000
1000
0000
1000
,
0000
0001
0000
0001
,
0000
1000
0000
1000
,
0000
0001
0000
0001
,
0000
0100
0000
0100
,
0000
0010
0000
0010
,
0000
0100
0000
0100
,
0000
0010
0000
0010
,
0010
0000
0010
0000
,
0010
0000
0010
0000
,
0100
0000
0100
0000
,
0100
0000
0100
0000
,
0100
0000
0000
0000
,
0002
0003
0000
0000
;

//---------------dance-double - ----------------
#NOTES:
     dance-double:
     :
     Medium:
     10:
     0.468,0.495,0.083,0.100,0.192: // measure 1
00000000
00000000
00000000
00000000
,  // measure 2
00000000
00000000
00000000
00000000
,  // measure 3
00000000
00000000
00000000
00000000
,  // measure 4
00000000
00000000
00000000
00000000
,  // measure 5
00000000
00000000
00000000
00000000
,  // measure 6
00010000
00000000
00000000
00001000
00000000
00000000
01000000
00000000
00000000
00000000
00010000
00000000
00100000
00000000
00000000
00000000
,  // measure 7
00010000
00000000
00000000
01000000
00000000
00000000
00001000
00000000
00000000
00000000
00010000
00000000
00000100
00000000
00000000
00000000
,  // measure 8
00000010
00000000
00000000
00000001
00000000
00000000
00000100
00000000
00000000
00000000
00000010
00000000
00001000
00000000
00000100
00000000
,  // measure 9
00010000
00000000
00000000
00000000
00000000
00000000
00000000
00000000
00001000
00000000
00000000
01000000
00000000
00000000
01010000
00000000
,  // measure 10
00010000
00000000
00000000
10000000
00000000
00000000
01000000
00000000
00000000
00000000
00100000
00000000
01000000
00000000
10000000
00000000
,  // measure 11
00010000
00000000
00000000
01000000
00000000
00000000
00001000
00000000
00000000
00000000
00010000
00000000
00000100
00000000
00000010
00000000
,  // measure 12
00000001
00000000
00000000
00000100
00000000
00000000
00000001
00000000
00000000
00000000
00001000
00000000
00000100
00000000
00010000
00000000
,  // measure 13
00001000
00000000
00000000
01000000
00000000
00000000
00010000
00000000
00000000
00000000
00100000
00000000
01000000
00000000
00010000
00000000
,  // measure 14
01000000
00000000
00000000
10000000
00000000
00000000
00010000
00000000
00000000
00000000
01000000
00000000
00001000
00000000
00010000
00000000
,  // measure 15
00000100
00000000
00000000
00001000
00000000
00000000
00000010
00000000
00000000
00000000
00000100
00000000
00001000
00000000
00000100
00000000
,  // measure 16
00000010
00000000
00000000
00001000
00000000
00000000
00000100
00000000
00000000
00000000
00010000
00000000
00001000
00000000
01000000
00000000
,  // measure 17
00100000
00000000
00000000
10000000
00000000
00000000
00010000
00000000
00000000
00000000
10000000
00000000
11000000
00000000
00000000
00000000
,  // measure 18
00010000
01000000
00001000
00000000
00001000
00010000
00000100
00000000
,  // measure 19
00010000
00000100
00000010
00000001
00000100
00000000
00000110
00000000
,  // measure 20
00000010
00001000
00000100
00000000
00010000
00001000
01000000
00000000
,  // measure 21
00100000
10000000
01000000
00100000
00010000
02020000
03030000
00000000
,  // measure 22
10000000
01000000
00100000
00000000
00100000
00001000
00010000
00000000
,  // measure 23
00001000
01000000
00010000
00100000
00001000
00010000
00000100
00000000
,  // measure 24
00000010
00000001
00000100
00000000
00000100
00000010
00001000
00000000
,  // measure 25
00000100
00010000
00001000
00010000
01000000
10000000
10010000
00000000
,  // measure 26
10000000
00000000
00000000
00010000
00000000
00000000
00000000
01000000
00000000
00001000
00000000
00000000
00000000
00000000
00010000
00000000
,  // measure 27
00001000
00000000
00000000
00010000
00000000
00000000
00000100
00000000
00000000
00000000
00001000
00000000
00000010
00000000
00000000
00000000
,  // measure 28
00000100
00000000
00000000
00000001
00000000
00000000
00000000
00000000
00001000
00000000
00000000
00000100
00000000
00000000
00010000
00000000
,  // measure 29
00002000
01003000
01100000
01100000
,  // measure 30
10000000
00000000
00000000
01000000
00000000
00000000
00000000
00010000
00000000
00010000
00000000
00000000
00000000
00000000
00001000
00000000
,  // measure 31
00000100
00000000
00000000
00000000
00000010
00000000
00000000
00001000
00000000
00000000
00000001
00000000
00000100
00000000
00000000
00000000
,  // measure 32
00000010
00000000
00000000
00010000
00000000
00000000
00000000
00001000
00000000
00000000
00000000
00100000
00000000
00000000
00010000
00000000
,  // measure 33
02000000
00000000
03100000
00100000
,  // measure 34
10000000
00000000
00000000
00000000
01000000
00000000
00010000
00000000
00001000
00000000
00000000
00000000
00010000
00001000
00000000
00000000
,  // measure 35
00010000
00000000
00000000
00001000
00000000
00000000
00000100
00000000
00000001
00000000
00000000
00000000
00000000
00000000
00000000
00000000
,  // measure 36
00000001
00000000
00000000
00000000
00000100
00000000
00001000
00000000
00010000
00000000
00000000
00000000
00001000
00010000
00000000
00000000
,  // measure 37
00001000
00010000
00000000
01000000
00000000
00000000
10000000
00000000
01000000
00000000
00100000
00000000
00010000
00000000
00000000
00000000
,  // measure 38
10000000
00000000
00000000
00010000
00000000
00000000
01000000
00000000
00000000
00000000
00001000
00000000
00010000
00000000
00001000
00000000
,  // measure 39
00000100
00000000
00000000
00000010
00000000
00000000
00001000
00000000
00000001
00000000
00000000
00000010
00000000
00000000
00000001
00000000
,  // measure 40
00001000
00000100
00010000
00001000
00000000
00000000
00000000
02200000
,  // measure 41
00000000
03300000
00000000
00000000
20000000
00000000
30020000
00000000
,  // measure 42
10030000
00000000
01000000
00100000
00000000
00100000
00001000
00010000
,  // measure 43
00000100
00000000
00000000
00001000
00000000
00000000
00000010
00000000
00000100
00000000
00000000
00001000
00000000
00000000
00010000
00000000
,  // measure 44
00001000
00000100
00000001
00001000
00000000
00000000
00000000
00001000
,  // measure 45
00000100
00000000
00010000
00000000
00001000
01001000
00000000
00000000
,  // measure 46
01000000
00000000
00000000
00100000
00000000
00000000
01000000
00000000
00000000
00000000
00001000
00000000
00010000
00000000
00000100
00000000
,  // measure 47
00000010
00000000
00000000
00000001
00000000
00000000
00000000
00000000
00001000
00000000
00000000
00000100
00000000
00000000
00010000
00000000
,  // measure 48
00001000
01000000
00100000
01000000
00000000
00000000
00000000
00010000
,  // measure 49
10000000
00000000
01000000
00000000
00010000
00022000
00000000
00033000
,  // measure 50
00000100
00000000
00000000
00000001
00000000
00000000
00001000
00000000
00000000
00000000
00000100
00000000
00001000
00000000
00000100
00000000
,  // measure 51
00010000
00000000
00000000
00001000
00000000
00000000
01000000
00000000
00100000
00000000
00000000
01000000
00000000
00000000
00010000
00000000
,  // measure 52
10000000
01000000
00100000
00010000
00000000
00000000
00000000
10000000
,  // measure 53
00020000
00000000
00000000
00000000
10030000
00000000
00000000
00000000
00000000
00000000
10000000
00010000
10000000
00000000
00000000
00000000
,  // measure 54
00010000
00000000
01000000
00000000
00001000
00010000
00000100
00000000
,  // measure 55
00000010
00000000
00000001
00000000
00000100
00000010
00001000
00000000
,  // measure 56
00000100
00000000
00010000
00000000
00001000
01000000
00100000
00000000
,  // measure 57
10000000
01000000
00100000
01000000
10000000
01000000
00100000
00000000
,  // measure 58
00010000
00000000
01000000
00000000
00001000
00010000
00000100
00000000
,  // measure 59
00000010
00000000
00000001
00000000
00000100
00000010
00010000
00000000
,  // measure 60
00001000
00000000
01000000
00000000
00010000
00100000
01000000
00000000
,  // measure 61
10000000
01000000
00100000
00010000
10000000
00100000
01000000
00000000
,  // measure 62
00010000
00000000
10000000
01000000
00100000
00000000
01000000
00100000
,  // measure 63
00000000
01000000
00000000
01000000
00000000
10000000
00000000
00010000
,  // measure 64
01000000
00000000
00001000
00010000
00000100
00000000
00010000
00000010
,  // measure 65
00000000
00000100
00000000
00000100
00000001
00000000
00001000
00000000
,  // measure 66
00000100
00000000
00010000
00001000
01000000
00000000
00100000
01000000
,  // measure 67
00000000
01000000
00000000
01000000
00000000
00010000
00000000
10000000
,  // measure 68
01000000
00000000
00100000
01000000
10000000
00000000
00010000
01000000
,  // measure 69
00000000
00001000
00000000
00001000
00010000
00000000
00000100
00000000
,  // measure 70
00000010
00000000
00000001
00000000
00000100
00000010
00001000
00000000
,  // measure 71
00000100
00000000
00010000
00000000
00001000
01000000
00010000
00000000
,  // measure 72
00100000
00000000
01000000
00000000
10000000
00010000
10000000
00000000
,  // measure 73
01000000
00000000
00010000
00000000
00001000
00000000
00000000
00000000
00010000
00000000
00000000
00001000
00000000
00000100
00000000
00000000
,  // measure 74
00000010
00000000
00000000
00000010
00000000
00000000
00000010
00000000
00000000
00000010
00000000
00000000
00000010
00000000
00000100
00000000
,  // measure 75
00000020
00000030
00000000
00000000
;

//---------------dance-double - ----------------
#NOTES:
     dance-double:
     :
     Easy:
     6:
     0.314,0.340,0.008,0.042,0.000: // measure 1
00000000
00000000
00000000
00000000
,  // measure 2
00000000
00000000
00000000
00000000
,  // measure 3
00000000
00000000
00000000
00000000
,  // measure 4
00000000
00000000
00000000
00000000
,  // measure 5
00000000
00000000
00000000
00000000
,  // measure 6
00001000
00010000
00001000
00010000
,  // measure 7
00001000
01000000
00001000
01000000
,  // measure 8
00001000
00010000
00000100
00010000
,  // measure 9
00002000
00000000
00013000
00010000
,  // measure 10
01000000
10000000
01000000
00100000
,  // measure 11
01000000
10000000
00100000
01000000
,  // measure 12
00001000
00010000
00000100
00010000
,  // measure 13
00000100
00000010
00000001
00000100
,  // measure 14
00001000
00000100
00000001
00000100
,  // measure 15
00001000
00010000
00100000
10000000
,  // measure 16
00010000
00100000
01000000
10000000
,  // measure 17
00020000
00000000
01030000
01000000
,  // measure 18
00010000
10000000
00010000
00000000
01000000
00000000
00001000
00000000
,  // measure 19
00010000
00000100
00000010
00000001
,  // measure 20
00001000
00000001
00001000
00000000
00000010
00000000
00010000
00000000
,  // measure 21
00001000
01000000
00010000
00100000
,  // measure 22
01000000
00100000
01000000
00000000
00100000
00000000
00001000
00000000
,  // measure 23
00010000
00000100
00001000
00000010
,  // measure 24
00000100
00000010
00000100
00000000
00000010
00000000
00010000
00000000
,  // measure 25
00001000
00000000
00100000
00000000
01000000
10000000
00010000
00000000
,  // measure 26
10000000
00000000
00010000
00000000
,  // measure 27
01000000
00001000
00010000
00000100
,  // measure 28
00001000
00000000
00000001
00000000
,  // measure 29
00001000
00010000
10000000
01000000
,  // measure 30
00100000
00000000
01000000
00000000
,  // measure 31
00100000
00001000
00010000
00000100
,  // measure 32
00000010
00000000
00000100
00000000
,  // measure 33
00020000
00000000
00031000
00001000
,  // measure 34
01000000
00000000
00010000
00000000
,  // measure 35
10000000
00000000
01000000
00100000
01000000
00000000
00000000
00000000
,  // measure 36
00010000
00000000
00001000
00000000
,  // measure 37
00000100
00000010
00000100
00000000
00000001
00001000
00000001
00000000
,  // measure 38
00000010
00000010
00000100
00000100
,  // measure 39
00000010
00000001
00000100
00000010
,  // measure 40
00001000
00000000
00000100
00000000
,  // measure 41
00010000
00000000
00001000
01000000
,  // measure 42
00100000
10000000
01000000
10000000
,  // measure 43
00100000
01000000
00010000
01000000
,  // measure 44
00100000
10000000
01000000
00100000
,  // measure 45
00001000
00000000
00010000
00000000
,  // measure 46
00000100
00001000
00000010
00000100
,  // measure 47
00000010
00001000
00000100
00000010
,  // measure 48
00000001
00000000
00001000
00000000
,  // measure 49
00000001
00000100
00000010
00000000
,  // measure 50
00001000
00000100
00001000
00000100
,  // measure 51
00010000
00001000
00010000
00001000
,  // measure 52
00100000
00010000
01000000
00100000
,  // measure 53
20000000
30010000
00000000
10010000
,  // measure 54
10000000
01000000
10000000
01000000
,  // measure 55
00100000
00001000
00100000
00001000
,  // measure 56
00010000
00000100
00010000
00000100
,  // measure 57
00001000
00000010
00001000
00000010
,  // measure 58
00000100
00000001
00000100
00000001
,  // measure 59
00001000
00000100
00001000
00000100
,  // measure 60
00010000
00001000
00010000
00001000
,  // measure 61
00100000
00010000
00100000
00010000
,  // measure 62
01000000
00100000
01000000
01000000
,  // measure 63
00100000
00000000
10000000
00000000
00010000
10000000
00010000
00000000
,  // measure 64
10000000
01000000
00010000
00001000
,  // measure 65
00010000
00000000
00001000
00000000
00010000
00001000
00010000
00000000
,  // measure 66
00001000
00000100
00000010
00001000
,  // measure 67
00000001
00000000
00000100
00000000
00000010
00000100
00000010
00000000
,  // measure 68
00001000
00000100
00010000
00001000
,  // measure 69
00100000
00000000
00010000
00000000
01000000
00100000
01000000
00000000
,  // measure 70
00010000
00000000
10000000
00000000
,  // measure 71
00010000
10000000
01000000
00100000
,  // measure 72
00001000
00000000
00010000
00000000
,  // measure 73
00000100
00001000
00000010
00000100
,  // measure 74
00000001
00000000
00000000
00001000
,  // measure 75
00000200
00000300
00000000
00000000
;
