#TITLE:waxing and wanding (MIKE Style Mix);
#SUBTITLE:;
#ARTIST:KC-roomin' feat. Gt.Yuuichiro;
#TITLETRANSLIT:;
#SUBTITLETRANSLIT:;
#ARTISTTRANSLIT:;
#GENRE:;
#CREDIT:;
#MENUCOLOR:;
#METERTYPE:DDR;
#BANNER:waxing and wanding (MIKE Style Mix).png;
#BACKGROUND:waxing and wanding (MIKE Style Mix)-bg.png;
#LYRICSPATH:;
#CDTITLE:cdtitle.png;
#MUSIC:waxing and wanding (MIKE Style Mix).mp3;
#OFFSET:-0.025;
#SAMPLESTART:78.699;
#SAMPLELENGTH:15.000;
#SELECTABLE:YES;
#LISTSORT:;
#BPMS:0.000=231.000;
#STOPS:;
#BGCHANGES:;
#ATTACKS:;

//---------------dance-single - ----------------
#NOTES:
     dance-single:
     :
     Hard:
     12:
     0.642,0.704,0.549,0.000,0.733:
0000
0000
0000
0000
,
0000
0000
0000
0000
,
0000
0000
0000
0000
,
0000
0000
0000
0000
,
0001
0000
0000
1000
0000
0000
0001
0000
0100
0000
0000
0110
,
0000
1000
0100
0010
,
0001
0000
0000
0100
0000
0000
0010
0000
1000
0000
0000
1001
,
0000
0001
0100
0001
,
0010
0000
0000
0100
0000
0000
1000
0000
0100
0000
0000
1100
,
0000
0010
0001
1000
,
0010
0000
0000
0000
0000
0110
0000
0000
0000
0100
0000
0000
,
0000
0000
0101
0000
0000
0000
0001
0000
0000
1000
0000
0100
,
0000
0000
0000
0010
0000
0000
0100
0000
1000
0000
0000
0001
,
0000
0000
0000
0100
0000
0000
0010
0000
0100
0000
0000
0000
,
0001
0000
0000
1000
0000
0000
0100
0000
0010
0000
0000
0001
,
0000
0000
1000
0100
0000
0000
1000
0000
0010
0000
0000
0100
,
0000
0000
0000
0001
0000
0000
0010
0000
0000
0100
0000
1000
,
0000
0001
0100
0001
,
0010
0000
0000
0100
0000
0000
1000
0000
0000
0010
0000
0100
,
0000
0000
0000
0000
0000
0000
0001
0000
0010
0000
0000
0001
,
0000
0000
0000
1000
0000
0000
0100
0000
1000
0000
0000
0010
,
0000
0000
0000
0100
0000
0000
1000
0000
0100
0000
0000
0000
,
0001
0000
0000
0010
0000
0000
0100
0000
0001
0000
0000
0100
,
0000
0000
0000
1000
0000
0000
0001
0000
0100
0000
0000
0010
,
0000
0000
0000
1000
0000
0000
0100
0000
0001
0000
0000
0100
,
0000
0000
0000
0010
0000
0000
0001
0000
0100
0000
0000
0000
,
0010
0000
0000
1000
0000
0000
0010
0000
0100
0000
0000
0001
,
0000
0000
1000
0000
0000
0001
0100
0000
0001
0100
0000
0010
,
0100
0000
0000
0000
0000
0101
0000
0000
0000
1000
0000
0000
,
0100
0000
1000
0000
0000
1100
0000
0000
0000
0001
0000
0000
,
0101
0000
0000
0000
0000
1001
0000
0000
1000
0100
0000
0000
,
0010
0000
0100
0000
0000
1100
0000
0000
0000
0001
0000
0000
,
0101
0000
0000
0000
0000
0110
0000
0000
0000
1000
0000
0000
,
1100
0000
0000
0000
0000
0110
0000
0000
0010
0001
0000
0000
,
1000
0000
0000
0001
1000
0001
1000
0000
0000
0100
0000
0000
,
0010
0001
0010
0100
,
1000
0000
0000
0000
0000
1010
0000
0000
0000
0001
0000
0000
,
0100
0000
0001
0000
0000
0101
0000
0000
0000
1000
0000
0000
,
1100
0000
0000
0000
0000
1001
0000
0000
0001
0100
0000
0000
,
0010
0000
0100
0000
0000
0101
0000
0000
0000
1000
0000
0000
,
1100
0000
0000
0000
0000
0110
0000
0000
0000
0001
0000
0000
,
0101
0000
0000
0000
0000
0110
0000
0000
0010
1000
0000
0000
,
0001
1000
0001
0100
,
0001
0010
0100
1000
,
1001
0000
0000
1000
0000
0100
0000
0000
0100
1000
0000
0000
,
1001
0000
0000
0001
0000
0100
0000
0000
0100
0001
0000
0000
,
1001
0000
0000
1000
0000
0010
0000
0000
0010
1000
0000
0000
,
1001
0000
0000
0001
0000
0010
0000
0000
0010
0001
0000
0000
,
1001
0000
0000
1000
0000
0100
0000
0000
0100
0010
0000
0000
,
1001
0000
0000
0001
0000
0100
0000
0000
0100
0010
0000
0000
,
1001
0000
0000
0001
0000
1000
0000
0000
0001
0100
0000
0000
,
0010
0000
0000
0100
0000
0001
0100
0000
0010
0100
0000
0001
,
0100
0000
0000
0001
0000
1000
0000
0000
1000
0100
0000
0000
,
0110
0000
0000
0010
0000
0001
0000
0000
0001
1000
0000
0000
,
1100
0000
0000
0100
0000
1000
0000
0000
1000
0001
0000
0000
,
0101
0000
0000
0100
0000
0010
0000
0000
0010
1000
0000
0000
,
1100
0000
0000
0100
0000
1000
0000
0000
0001
0100
0000
0000
,
0110
0000
0000
0010
0000
1000
0000
0000
0001
0010
0000
0000
,
0110
0000
0000
0100
0000
1000
0000
0000
0001
0100
0000
0000
,
0001
0000
1000
0100
0000
0010
0100
0000
0001
0100
0000
0010
,
0100
0000
0000
1000
0000
0000
0001
0000
0000
1000
0000
1100
,
0000
0000
0001
0100
0000
0000
0001
0000
0000
0010
0000
0000
,
0100
0000
0000
1000
0000
0000
0001
0000
0000
0100
0000
0101
,
0000
0000
0001
1000
0000
0000
0100
0000
0010
0001
0000
0010
,
0100
0000
0000
0001
0000
0000
0100
0000
0000
1000
0000
1100
,
0000
0000
0100
0010
0000
0000
0100
0000
0000
1000
0000
0000
,
0001
0000
0000
0100
0000
0000
1000
0000
0000
0100
0000
0101
,
0000
0000
0001
1000
0000
0000
0100
0000
0000
1000
0000
0000
,
0110
0000
0000
0001
0000
0000
1000
0000
0000
0001
0000
1100
,
0000
0000
1000
0001
0000
0000
0100
0000
0000
0010
0000
0000
,
0100
0000
0000
0001
0000
0000
0010
0000
0000
0100
0000
1001
,
0000
0000
0010
0100
0000
0000
0001
0000
0000
1000
0000
0000
,
0100
0000
0000
0010
0000
0000
0001
0000
0000
1000
0000
0101
,
0000
0000
0001
0100
0000
0000
0010
0000
0000
1000
0000
0000
,
0001
0000
0000
1000
0000
0001
0000
0000
1000
0100
0000
0000
,
0010
0000
0000
0001
0000
0000
1001
0000
0000
0100
0000
1000
,
0000
0000
0000
0001
0000
0000
0100
0000
0001
0000
0000
1001
,
0000
0000
0000
0100
0000
0000
0010
0000
0001
0000
0000
0000
,
0100
0000
0000
1000
0000
0000
0100
0000
0001
0000
0000
1001
,
0000
0000
1000
0100
0000
0000
0010
0000
0100
0000
0000
1100
,
0000
0000
0000
1000
0000
0000
0001
0000
0100
0000
0000
0101
,
0000
0001
1000
0100
,
0010
0000
0000
0100
0000
0000
1000
0000
0000
0001
0000
0101
,
0000
0000
0100
0010
0000
0000
1000
0000
0100
0000
0000
0110
,
0000
0000
0000
0001
0000
0000
0100
0000
1000
0000
0000
1100
,
0000
0010
1000
0100
,
0010
0000
0000
0001
0000
0000
1000
0000
0010
0000
0000
0110
,
0000
0000
0000
1001
0000
0000
0001
0000
0100
0000
0000
0110
,
0000
0000
0000
1000
0000
0000
0001
0000
0100
0000
0000
1001
,
0000
0100
0001
1000
,
0100
0000
0000
0001
0000
0000
0100
0000
0010
0000
0000
0110
,
0000
0000
1000
0000
0000
0001
0100
0000
0001
1000
0000
0100
,
1000
0000
0000
0000
0000
1100
0000
0000
0000
0010
0000
0000
,
0100
0000
1000
0000
0000
1001
0000
0000
0001
0100
0000
0000
,
0001
0000
0000
1000
0000
0001
0000
0000
0001
0100
0000
0000
,
0010
0000
1000
0000
0000
1010
0000
0000
0010
0100
0000
0000
,
0001
0000
0000
0000
0000
0101
0000
0000
0000
0010
0000
0000
,
0100
0000
0000
0000
0000
0101
0000
0000
0001
1000
0000
0000
,
0100
0000
0000
0010
0001
0010
0001
0000
0000
0010
0000
0000
,
0100
1000
0100
0010
,
0001
0000
0000
0000
0000
0011
0000
0000
0000
0100
0000
0000
,
0010
0000
0001
0000
0000
1001
0000
0000
1000
0010
0000
0000
,
1000
0000
0000
0001
0000
1000
0000
0000
1000
0010
0000
0000
,
0100
0000
0001
0000
0000
0101
0000
0000
0100
0010
0000
0000
,
1000
0000
0000
0000
0000
1010
0000
0000
0000
0100
0000
0000
,
0010
0000
0000
0000
0000
1010
0000
0000
1000
0001
0000
0000
,
1000
1100
0001
0101
,
0010
0000
0000
0001
0000
0000
1000
0000
0100
0010
0000
0100
,
1000
0000
0000
0100
0000
0000
0010
0000
0100
0000
0000
1000
,
0000
0000
0000
0100
0000
0000
0010
0000
0001
0000
0000
0000
,
0100
0000
0000
0001
0000
0000
1000
0000
0001
0000
0000
0100
,
0000
0000
0000
0001
0000
0000
0010
0000
0100
0000
0000
1000
,
0000
0000
0000
0001
0000
0000
0100
0000
0000
0010
0000
0100
,
0000
1000
0100
0001
,
1000
0000
0000
0100
0000
0000
0001
0000
0000
0100
0000
1000
,
0000
0000
0000
0000
0000
0000
0100
0000
0010
0000
0000
0001
,
0000
0000
0000
0100
0000
0000
0001
0000
1000
0000
0000
0100
,
0000
0000
0000
0001
0000
0000
0100
0000
0010
0000
0000
0000
,
0001
0000
0000
0100
0000
0000
1000
0000
0100
0000
0000
0010
,
0000
0000
0000
1000
0000
0000
0100
0000
0010
0000
0000
0001
,
0000
0000
0000
1000
0000
0000
0010
0000
0001
0000
0000
0010
,
0000
0000
0000
0100
0000
0000
0001
0000
1000
0000
0000
0000
,
1001
0000
0000
0010
0000
0000
0100
0000
0010
0000
0000
1001
,
0000
0000
0000
0100
0000
0000
0010
0000
0001
0000
0000
0000
,
1100
0000
0000
0001
0000
0000
0100
0000
0010
0000
0000
1001
;

//---------------dance-single - ----------------
#NOTES:
     dance-single:
     :
     Medium:
     10:
     0.483,0.610,0.135,0.000,0.229:
0000
0000
0000
0000
,
0000
0000
0000
0000
,
0000
0000
0000
0000
,
0000
0000
0000
0000
,
1000
0100
1000
0000
,
0001
0100
0001
0000
,
1000
0010
0100
0001
,
0010
0100
1000
0000
,
0001
0100
0001
0000
,
1000
0010
1000
0000
,
0100
0000
0000
0000
0000
0100
0000
0000
0000
0010
0000
0000
,
0000
0000
0010
0000
0000
0000
0001
0000
0000
0100
0000
0000
,
0001
0000
1000
0100
,
0010
0000
0010
0100
,
1000
0001
0100
0010
,
0100
0000
0001
0010
,
0100
0000
0100
0010
,
0001
0000
1000
0100
,
0010
0100
1000
0001
,
0100
0000
0010
0001
,
0100
0000
0010
1000
,
0100
0000
1000
0001
,
0100
0010
1000
0100
,
0010
0000
0100
1000
,
0001
0000
0100
0010
,
1000
0000
0001
0100
,
0010
0100
0001
1000
,
0100
0000
1001
0000
,
0010
0000
0000
0000
0000
0010
0000
0000
0000
1000
0000
0000
,
0100
1000
0010
0100
,
0001
0000
0000
0000
0000
1000
0000
0000
0000
0001
0000
0000
,
0100
0000
0000
0000
0000
0010
0000
0000
0000
0000
0000
0000
,
1000
0000
0000
0000
0000
0100
0000
0000
0000
0010
0000
0000
,
0001
0000
0000
0000
0000
0100
0000
0000
0000
0010
0000
0000
,
0100
0001
0000
0001
,
1000
0010
0000
0010
,
1000
0000
0000
0000
0000
1000
0000
0000
0000
0100
0000
0000
,
0010
0000
0000
0000
0000
0010
0000
0000
0000
0001
0000
0000
,
1000
0000
0000
0000
0000
0001
0000
0000
0000
0100
0000
0000
,
0010
0000
0000
0000
0000
0100
0000
0000
0000
0001
0000
0000
,
1000
0000
0000
0000
0000
1000
0000
0000
0000
0100
0000
0000
,
0010
0000
0000
0000
0000
0010
0000
0000
0000
0100
0000
0000
,
1000
0001
1000
0001
,
0100
0100
0110
0110
,
0010
0000
0000
0000
0000
1000
0000
0000
0000
0010
0000
0000
,
0100
0000
0000
0000
0000
0001
0000
0000
0000
0010
0000
0000
,
0100
0000
0000
0000
0000
1000
0000
0000
0000
0001
0000
0000
,
0100
0000
0000
0000
0000
0001
0000
0000
0000
0010
0000
0000
,
0100
0000
0000
0000
0000
1000
0000
0000
0000
0100
0000
0000
,
0010
0000
0000
0000
0000
0001
0000
0000
0000
0100
0000
0000
,
0010
1000
0100
0001
,
0100
1000
0010
0100
,
0001
0000
0000
0000
0000
0010
0000
0000
0000
0001
0000
0000
,
1000
0000
0000
0000
0000
0010
0000
0000
0000
1000
0000
0000
,
0001
0000
0000
0000
0000
0100
0000
0000
0000
0001
0000
0000
,
1000
0000
0000
0000
0000
0100
0000
0000
0000
1000
0000
0000
,
0001
0000
0000
0000
0000
0100
0000
0000
0000
0010
0000
0000
,
1000
0000
0000
0000
0000
0100
0000
0000
0000
0010
0000
0000
,
1001
0000
0100
0000
,
0100
0000
0000
0001
0000
0000
1000
0000
0100
1000
0000
0000
,
0100
0010
0010
0001
,
0100
0010
0010
1000
,
0100
0010
0100
1000
,
0001
0000
0000
0100
0000
0000
0010
0000
0100
0010
0000
0000
,
0100
0001
1000
0001
,
0100
1000
0100
0010
,
1000
0100
0001
0100
,
0010
0000
0001
0010
0000
0000
0001
0000
1000
0001
0000
0000
,
1000
0100
0001
0100
,
0010
0001
0100
1000
,
0100
0010
1000
0100
,
0010
0001
0100
0010
,
1000
0000
0100
1000
0000
0000
0001
0000
0100
0001
0000
0000
,
1000
0000
0010
1000
0000
0000
0001
0000
0010
0001
0000
0000
,
0100
0100
0100
0100
,
0010
0000
0000
0100
0000
0000
0010
0000
0000
0100
0000
0001
,
0000
0000
0000
0100
0000
0000
0001
0000
1000
0000
0000
0100
,
0000
0000
0000
1000
0000
0000
0010
0000
0100
0000
0000
0000
,
0001
0000
0000
0010
0000
0000
0100
0000
1000
0000
0000
0001
,
0000
0000
0000
1000
0000
0000
0100
0000
0010
0000
0000
0001
,
0000
0000
0000
0100
0000
0000
0010
0000
1000
0000
0000
0001
,
0000
0100
0001
0010
,
0100
0000
0000
1000
0000
0000
0010
0000
0000
0100
0000
0001
,
0000
0000
0000
0000
0000
0000
1000
0000
0100
0000
0000
1000
,
0000
0000
0000
0010
0000
0000
0100
0000
0001
0000
0000
0100
,
0000
0010
1000
0001
,
0010
0000
0000
0100
0000
0000
1000
0000
0001
0000
0000
0100
,
0000
0000
0000
0010
0000
0000
0100
0000
0001
0000
0000
1000
,
0000
0000
0000
0100
0000
0000
1000
0000
0010
0000
0000
0100
,
0000
0001
1000
0100
,
1000
0000
0000
0010
0000
0000
0100
0000
0001
0000
0000
0010
,
0000
0000
0110
0110
,
1000
0100
0001
0100
,
1000
0100
0010
0010
,
0001
0100
1000
0100
,
0001
0100
0010
0010
,
1000
0100
0001
0100
,
1000
0010
0100
0100
,
0001
0100
1000
0100
,
0001
0010
0100
0100
,
1000
0100
0001
1000
,
0010
0001
0100
0100
,
0001
0100
1000
0001
,
0010
1000
0100
0100
,
1000
0010
0001
0010
,
1000
0001
0100
0100
,
0001
0010
1000
0010
,
0001
1000
0100
0100
,
0010
0001
0101
0000
,
0010
1000
1100
0000
,
0010
0001
0100
1000
,
0100
0001
0011
0000
,
0100
1000
1010
0000
,
0100
0001
0011
0000
,
0100
1000
0010
0001
,
0010
1000
1100
0000
,
0001
0100
1010
0000
,
1000
0100
0011
0000
,
0010
0100
1000
0010
,
0100
0001
0011
0000
,
0100
0010
0101
0000
,
0100
0010
1100
0000
,
1000
0000
0000
0100
0000
0000
0010
0000
0001
0000
0000
1000
,
0000
0000
0000
0010
0000
0000
0100
0000
0001
0000
0000
0000
,
1000
0000
0000
0100
0000
0000
0010
0000
0001
0000
0000
1001
;

//---------------dance-single - ----------------
#NOTES:
     dance-single:
     :
     Easy:
     7:
     0.367,0.423,0.000,0.000,0.004:
0000
0000
0000
0000
,
0000
0000
0000
0000
,
0000
0000
0000
0000
,
0000
0000
0000
0000
,
1000
0000
1000
0000
,
1000
0100
0010
0001
,
0100
0000
0100
0000
,
0100
0001
0010
0100
,
1000
0000
1000
0000
,
1000
0100
0010
0001
,
0100
0000
0001
0000
,
1000
0000
0100
0000
,
0010
0100
1000
0000
,
1000
0100
0010
0000
,
0001
0000
0100
0000
,
0001
1000
0100
0000
,
0010
0100
1000
0000
,
0001
0100
1000
0000
,
0100
0010
1000
0000
,
0100
0000
0100
0000
,
0010
0001
0100
0000
,
0010
1000
0100
0000
,
0010
0100
1000
0000
,
0001
0000
0001
0000
,
0100
0010
0100
0000
,
0001
1000
0001
0000
,
0010
0100
1000
0001
,
0100
0000
0100
0000
,
0001
0000
0001
0000
,
1000
0100
1000
0000
,
0001
0000
0001
0000
,
1000
0100
0010
0001
,
0100
0000
0100
0000
,
0010
1000
0010
0000
,
0100
0001
0010
0000
,
0100
1000
0010
0000
,
0100
0000
0100
0000
,
0001
1000
0001
0000
,
0010
0000
0010
0000
,
0100
1000
0100
0010
,
0001
0000
0001
0000
,
0100
0010
0100
0000
,
0010
1000
0100
0010
,
0100
1000
0010
0100
,
0001
0100
0000
0100
,
0001
0010
0000
0010
,
0100
1000
0000
1000
,
0100
0010
0000
0010
,
0001
0100
0000
0100
,
0001
1000
0000
1000
,
0100
0010
0100
1000
,
0001
0100
0010
1000
,
0100
0010
0000
0010
,
0100
1000
0000
1000
,
0100
0010
0000
0010
,
0001
0100
0000
0100
,
0001
1000
0000
1000
,
0001
0010
0000
0010
,
0100
1000
0100
0010
,
0001
0100
0001
0000
,
1000
0000
1000
0000
,
1000
0100
0010
0000
,
0001
0000
0001
0000
,
0001
0100
0010
0000
,
1000
0010
0100
0000
,
0001
1000
0100
0000
,
1000
0000
0100
0000
,
0010
0001
0100
0000
,
0001
0000
1000
0000
,
0001
0000
0010
0000
,
0100
1000
0100
0000
,
0010
0001
0010
0000
,
0100
0000
1000
0000
,
0001
0000
0100
0000
,
0010
0000
0010
0000
,
0100
0010
0100
0000
,
0100
0001
0100
0000
,
0001
0000
0001
0000
,
1000
0000
0100
0000
,
0010
0000
0001
0000
,
0100
0010
0100
0000
,
0001
0000
0001
0000
,
1000
0100
0010
0000
,
0001
0000
1000
0000
,
0100
0010
0001
0000
,
0100
0000
0010
0000
,
0100
0001
1000
0000
,
0100
0000
0100
0000
,
1000
0010
0100
0000
,
0001
0010
0100
0000
,
1000
0100
0010
0001
,
1000
0000
0000
0000
,
0001
0100
0010
0000
,
0010
0000
0100
0000
,
0001
1000
0001
0000
,
0010
0000
0010
0000
,
1000
0100
0010
0000
,
0100
1000
0001
0000
,
0100
0010
0100
0000
,
0001
0000
0000
0000
,
1000
0100
0010
0000
,
0010
0100
1000
0000
,
0001
0100
0010
0000
,
1000
0000
1000
0000
,
0001
0100
0001
0000
,
1000
0100
0010
0000
,
0001
0010
0100
1000
,
0001
0000
0000
0000
,
0100
0010
0100
0000
,
0001
1000
0001
0000
,
0010
0100
1000
0000
,
0100
0000
0100
0000
,
0010
0001
0100
0000
,
0010
1000
0100
0000
,
0001
0100
1000
0010
,
0100
0000
0001
0000
,
1000
0100
0010
0000
,
0010
0100
1000
0000
,
0001
0100
1000
0100
,
0001
0010
0100
0000
,
1000
0100
0010
0000
,
0001
1000
0001
1000
,
0001
0010
0100
1000
,
0001
0100
0010
1000
,
0001
0000
0000
0010
0000
0000
0100
0000
0000
1000
0000
0001
;

//---------------dance-single - ----------------
#NOTES:
     dance-single:
     :
     Beginner:
     2:
     0.126,0.141,0.000,0.000,0.000:
0000
0000
0000
0000
,
0000
0000
0000
0000
,
0000
0000
0000
0000
,
0000
0000
0000
0000
,
1000
0000
0000
0000
,
0001
0000
0000
0000
,
0100
0000
0000
0000
,
0010
0000
0000
0000
,
0100
0000
0000
0000
,
0001
0000
0000
0000
,
1000
0000
0000
0000
,
0100
0000
0000
0000
,
0010
0000
0000
0000
,
0001
0000
0000
0000
,
1000
0000
0000
0000
,
0100
0000
0000
0000
,
0010
0000
0000
0000
,
0001
0000
0000
0000
,
0100
0000
0000
0000
,
0010
0000
0000
0000
,
1000
0000
0000
0000
,
0100
0000
0000
0000
,
0010
0000
0000
0000
,
0001
0000
0000
0000
,
0100
0000
0000
0000
,
1000
0000
0000
0000
,
0100
0000
0000
0000
,
0000
0000
0000
0000
,
0001
0000
0000
0000
,
0100
0000
0000
0000
,
0010
0000
0000
0000
,
0100
0000
0000
0000
,
0001
0000
0000
0000
,
0010
0000
0000
0000
,
0100
0000
0000
0000
,
0000
0000
0000
0000
,
0100
0000
0000
0000
,
0010
0000
0000
0000
,
0001
0000
0000
0000
,
1000
0000
0000
0000
,
0010
0000
0000
0000
,
0100
0000
0000
0000
,
0001
0000
0000
0000
,
0000
0000
0000
0000
,
0100
0000
0000
0000
,
1000
0000
0000
0000
,
0100
0000
0000
0000
,
0010
0000
0000
0000
,
0001
0000
0000
0000
,
1000
0000
0000
0000
,
0010
0000
0000
0000
,
0000
0000
0000
0000
,
0001
0000
0000
0000
,
0100
0000
0000
0000
,
1000
0000
0000
0000
,
0100
0000
0000
0000
,
0001
0000
0000
0000
,
1000
0000
0000
0000
,
0100
0000
0000
0000
,
0000
0000
0000
0000
,
0100
0000
0000
0000
,
1000
0000
0000
0000
,
0010
0000
0000
0000
,
0001
0000
0000
0000
,
1000
0000
0000
0000
,
0100
0000
0000
0000
,
0001
0000
0000
0000
,
0010
0000
0000
0000
,
1000
0000
0000
0000
,
0001
0000
0000
0000
,
0100
0000
0000
0000
,
1000
0000
0000
0000
,
0001
0000
0000
0000
,
0100
0000
0000
0000
,
1000
0000
0000
0000
,
0001
0000
0000
0000
,
0010
0000
0000
0000
,
1000
0000
0000
0000
,
0001
0000
0000
0000
,
0010
0000
0000
0000
,
1000
0000
0000
0000
,
0001
0000
0000
0000
,
0100
0000
0000
0000
,
0010
0000
0000
0000
,
1000
0000
0000
0000
,
0100
0000
0000
0000
,
0010
0000
0000
0000
,
0100
0000
0000
0000
,
1000
0000
0000
0000
,
0001
0000
0000
0000
,
0100
0000
0000
0000
,
0010
0000
0000
0000
,
0100
0000
0000
0000
,
0001
0000
0000
0000
,
1000
0000
0000
0000
,
0100
0000
0000
0000
,
0010
0000
0000
0000
,
0001
0000
0000
0000
,
0100
0000
0000
0000
,
0010
0000
0000
0000
,
0100
0000
0000
0000
,
0001
0000
0000
0000
,
0010
0000
0000
0000
,
0100
0000
0000
0000
,
1000
0000
0000
0000
,
0100
0000
0000
0000
,
0010
0000
0000
0000
,
0100
0000
0000
0000
,
1000
0000
0000
0000
,
0001
0000
0000
0000
,
0100
0000
0000
0000
,
0010
0000
0000
0000
,
0001
0000
0000
0000
,
1000
0000
0000
0000
,
0100
0000
0000
0000
,
0001
0000
0000
0000
,
1000
0000
0000
0000
,
0100
0000
0000
0000
,
0010
0000
0000
0000
,
0001
0000
0000
0000
,
0100
0000
0000
0000
,
1000
0000
0000
0000
,
0010
0000
0000
0000
,
0100
0000
0000
0000
,
0001
0000
0000
0000
,
1000
0000
0000
0000
;

//---------------dance-double - ----------------
#NOTES:
     dance-double:
     :
     Hard:
     12:
     0.603,0.657,0.218,0.000,0.793:
00000000
00000000
00000000
00000000
,
00000000
00000000
00000000
00000000
,
00000000
00000000
00000000
00000000
,
00000000
00000000
00000000
00000000
,
00010000
00000000
00000000
01000000
00000000
00000000
10000000
00000000
00100000
00000000
00000000
01000000
,
00000000
00010000
00100000
00001000
,
00010000
00000000
00000000
00000100
00000000
00000000
00001000
00000000
00000010
00000000
00000000
00000100
,
00000000
00000001
00000010
00001000
,
00010000
00000000
00000000
01000000
00000000
00000000
10000000
00000000
00100000
00000000
00000000
00010000
,
00000000
00001000
00000100
00000010
,
00001000
00000000
00000000
00000000
00000000
00001100
00000000
00000000
00000000
00000100
00000000
00000000
,
00000000
00000000
00010100
00000000
00000000
00000000
00010000
00000000
00000000
00001000
00000000
01000000
,
00000000
00000000
00000000
00100000
00000000
00000000
10000000
00000000
00010000
00000000
00000000
00100000
,
00000000
00000000
00000000
00001000
00000000
00000000
00010000
00000000
00000100
00000000
00000000
00000000
,
00001000
00000000
00000000
00000010
00000000
00000000
00000100
00000000
00000001
00000000
00000000
00000010
,
00000000
00000000
00000010
00000100
00000000
00000000
00000010
00000000
00000001
00000000
00000000
00001000
,
00000000
00000000
00000000
00000100
00000000
00000000
00010000
00000000
00000000
00001000
00000000
01000000
,
00000000
00010000
00100000
01000000
,
10000000
00000000
00000000
01000000
00000000
00000000
00010000
00000000
00000000
00001000
00000000
00000100
,
00000000
00000000
00000000
00000000
00000000
00000000
00000001
00000000
00000010
00000000
00000000
00000001
,
00000000
00000000
00000000
00000100
00000000
00000000
00000010
00000000
00001000
00000000
00000000
00000100
,
00000000
00000000
00000000
00010000
00000000
00000000
00001000
00000000
01000000
00000000
00000000
00000000
,
00100000
00000000
00000000
10000000
00000000
00000000
01000000
00000000
00100000
00000000
00000000
00010000
,
00000000
00000000
00000000
01000000
00000000
00000000
00001000
00000000
00010000
00000000
00000000
00000100
,
00000000
00000000
00000000
00001000
00000000
00000000
00000010
00000000
00000100
00000000
00000000
00000001
,
00000000
00000000
00000000
00000010
00000000
00000000
00000100
00000000
00010000
00000000
00000000
00000000
,
00001000
00000000
00000000
01000000
00000000
00000000
00010000
00000000
00100000
00000000
00000000
01000000
,
00000000
00000000
10000000
00000000
00000000
00100000
10000000
00000000
00010000
01000000
00000000
00001000
,
00100000
00000000
00000000
00000000
00000000
00011000
00000000
00000000
00000000
00001000
00000000
00000000
,
00010000
00000000
00000100
00000000
00000000
00001100
00000000
00000000
00000000
00001000
00000000
00000000
,
00000001
00000000
00000000
00000100
00000000
00000010
00000000
00000000
00000010
00001000
00000000
00000000
,
00000100
00000000
00010000
00000000
00000000
00011000
00000000
00000000
00000000
00001000
00000000
00000000
,
01000000
00000000
00000000
00000000
00000000
01010000
00000000
00000000
00000000
00010000
00000000
00000000
,
00100000
00000000
00000000
00000000
00000000
00110000
00000000
00000000
00010000
01000000
00000000
00000000
,
00100000
00000000
00000000
01000000
00010000
10000000
00010000
00000000
00000000
10000000
00000000
00000000
,
01000000
00010000
00001000
00000100
,
00000001
00000000
00000000
00000000
00000000
00000011
00000000
00000000
00000000
00000010
00000000
00000000
,
00000100
00000000
00010000
00000000
00000000
00011000
00000000
00000000
00000000
00001000
00000000
00000000
,
01000000
00000000
00000000
00010000
00000000
00100000
00000000
00000000
00100000
00010000
00000000
00000000
,
01000000
00000000
00100000
00000000
00000000
10100000
00000000
00000000
00000000
10000000
00000000
00000000
,
01000000
00000000
00000000
00000000
00000000
01100000
00000000
00000000
00000000
00100000
00000000
00000000
,
00010000
00000000
00000000
00000000
00000000
01010000
00000000
00000000
01000000
00010000
00000000
00000000
,
00100000
01000000
10000000
01000000
,
00010000
00001000
00001100
00000100
,
00000101
00000000
00000000
00000001
00000000
00000100
00000000
00000000
00000100
00000010
00000000
00000000
,
00001000
00000000
00000000
00000100
00000000
00010000
00000000
00000000
00010000
00001000
00000000
00000000
,
01000000
00000000
00000000
00010000
00000000
00100000
00000000
00000000
00100000
01000000
00000000
00000000
,
10000000
00000000
00000000
00010000
00000000
01000000
00000000
00000000
01000000
00001000
00000000
00000000
,
00010000
00000000
00000000
00000100
00000000
00001000
00000000
00000000
00001000
00000010
00000000
00000000
,
00000100
00000000
00000000
00000001
00000000
00000010
00000000
00000000
00000010
00000100
00000000
00000000
,
00001000
00000000
00000000
00000100
00000000
00010000
00000000
00000000
00010000
00001000
00000000
00000000
,
01000000
00000000
00000000
00010000
00000000
00100000
01000000
00000000
00100000
01000000
00000000
00100000
,
00010000
00000000
00000000
01000000
00000000
00100000
00000000
00000000
10000000
01000000
00000000
00000000
,
00100000
00000000
00000000
00001000
00000000
01000000
00000000
00000000
00001000
00010000
00000000
00000000
,
00000100
00000000
00000000
00000010
00000000
00000001
00000000
00000000
00000100
00000001
00000000
00000000
,
00001000
00000000
00000000
00000100
00000000
00010000
00000000
00000000
00001000
01000000
00000000
00000000
,
00010000
00000000
00000000
00100000
00000000
01000000
00000000
00000000
10000000
01000000
00000000
00000000
,
00010000
00000000
00000000
00001000
00000000
00000100
00000000
00000000
00000010
00001000
00000000
00000000
,
00000100
00000000
00000000
00000010
00000000
00000001
00000000
00000000
00001000
00000010
00000000
00000000
,
00001000
00000000
00000000
00000100
00000000
00010000
00001000
00000000
00010000
00001000
00000000
01000000
,
00010000
00000000
00000000
10000000
00000000
00000000
01000000
00000000
00000000
00100000
00000000
00010000
,
00000000
00000000
00100000
00000000
00000000
00001000
00000000
00000000
00000000
00000000
00000000
00010000
,
00000100
00000000
00001000
00000000
00000000
00000010
00001000
00000000
00000001
00000000
00000000
00000010
,
00000001
00000000
00001000
00000100
00000000
00010000
00000000
00000000
00001000
00000000
00000000
00000000
,
00000000
00000000
00000000
00001000
00000000
01000000
00001000
00000000
01000000
00000000
00000000
00010000
,
10000000
00000000
01000000
00000000
00000000
00100000
00001000
00000000
00100000
00000000
00000000
00001000
,
00010000
00000000
00000100
00000000
00000000
00001000
00000100
00000000
00000010
00000000
00000000
00000001
,
00000100
00000000
00000000
00000010
00000000
00000100
00000001
00000000
00001000
00000100
00000000
00010000
,
00001000
00000000
00000000
01000000
00000000
00001000
01000000
00000000
00010000
00000000
00000000
00100000
,
01000000
00000000
10000000
01000000
00000000
00100000
00000000
00000000
00000000
00010000
00000000
00000000
,
01000000
00000000
00001000
01000000
00000000
00001000
00010000
00000000
00000100
00010000
00000000
00000100
,
00001000
00000000
00000010
00001000
00000000
00000010
00000000
00000000
00000000
00000000
00000000
00000000
,
00000000
00000000
00000000
00000100
00000000
00000001
00001000
00000000
00000000
00000100
00000000
00010000
,
00001000
00000000
00000000
01000000
00000000
00010000
00100000
00000000
00010000
01000000
00000000
00100000
,
10000000
01000000
00100000
00010000
,
01000000
00000000
00000000
00001000
00000000
00000000
00010000
00000000
00000000
00000100
00000000
00001000
,
00000000
00000000
00000000
00000010
00000000
00000000
00000100
00000000
00000001
00000000
00000000
00000010
,
00000000
00000000
00000000
00001000
00000000
00000000
00010000
00000000
00100000
00000000
00000000
00000000
,
10000000
00000000
00000000
00010000
00000000
00000000
00100000
00000000
01000000
00000000
00000000
10000000
,
00000000
00000000
01000000
00100000
00000000
00000000
00010000
00000000
01000000
00000000
00000000
00001000
,
00000000
00000000
00000000
00010000
00000000
00000000
00000100
00000000
00001000
00000000
00000000
00000010
,
00000000
00000100
00001000
00000100
,
00000010
00000000
00000000
00010000
00000000
00000000
00001000
00000000
00000000
01000000
00000000
00010000
,
00000000
00000000
00000000
01000000
00000000
00000000
00100000
00000000
10000000
00000000
00000000
01000000
,
00000000
00000000
00000000
00010000
00000000
00000000
00001000
00000000
00000000
00000100
00000000
00000010
,
00000000
00001000
00000001
00000010
,
00000001
00000000
00000000
00000100
00000000
00000000
00001000
00000000
00010000
00000000
00000000
01000000
,
00000000
00000000
00000000
01100000
00000000
00000000
10000000
00000000
01000000
00000000
00000000
00100000
,
00000000
00000000
00000000
00010000
00000000
00000000
01000000
00000000
00001000
00000000
00000000
00010000
,
00000000
00000100
00001000
00000010
,
00000100
00000000
00000000
00001000
00000000
00000000
00000100
00000000
00000001
00000000
00000000
00000010
,
00000000
00000000
00000000
00000001
00000000
00000000
00000100
00000001
00000100
00000001
00000100
00000001
,
00000100
00000000
00000000
00000000
00000000
00000110
00000000
00000000
00000000
00000010
00000000
00000000
,
00001000
00000000
00000100
00000000
00000000
00001100
00000000
00000000
00000000
00001000
00000000
00000000
,
00000100
00000000
00000000
00010000
00000000
00001000
00000000
00000000
00010000
00001000
00000000
00000000
,
01000000
00000000
00010000
00000000
00000000
01010000
00000000
00000000
00000000
01000000
00000000
00000000
,
00100000
00000000
00000000
00000000
00000000
10100000
00000000
00000000
00000000
10000000
00000000
00000000
,
00010000
00000000
00000000
00000000
00000000
00110000
00000000
00000000
00100000
00001000
00000000
00000000
,
00010000
00000000
00000000
00000100
00010000
00000100
00010000
00000000
00000000
00000100
00000000
00000000
,
00000010
00000001
00000100
00001000
,
00000100
00000000
00000000
00000000
00000000
00000110
00000000
00000000
00000000
00000010
00000000
00000000
,
00001000
00000000
00000100
00000000
00000000
00010100
00000000
00000000
00000000
00010000
00000000
00000000
,
00001000
00000000
00000000
01000000
00000000
00010000
00000000
00000000
00010000
00100000
00000000
00000000
,
00010000
00000000
10000000
00000000
00000000
11000000
00000000
00000000
00000000
01000000
00000000
00000000
,
00100000
00000000
00000000
00000000
00000000
00101000
00000000
00000000
00000000
00001000
00000000
00000000
,
00010000
00000000
00000000
00000000
00000000
00010100
00000000
00000000
00000100
00000010
00000000
00000000
,
00000001
00000010
00001000
00010000
,
01000000
00000000
00000000
10000000
00000000
00000000
00100000
00000000
00000000
00010000
00000000
00001000
,
00000000
00000000
00000000
01000000
00000000
00000000
00100000
00000000
10000000
00000000
00000000
01000000
,
00000000
00000000
00000000
00010000
00000000
00000000
00001000
00000000
00000100
00000000
00000000
00000000
,
00000001
00000000
00000000
00000010
00000000
00000000
00000001
00000000
00000100
00000000
00000000
00000010
,
00000000
00000000
00001000
00000100
00000000
00000000
00000100
00000000
00010000
00000000
00000000
00001000
,
00000000
00000000
00000000
01000000
00000000
00000000
00010000
00000000
00000000
00100000
00000000
01000000
,
00000000
00010000
00001000
00000100
,
00000010
00000000
00000000
00001000
00000000
00000000
00000001
00000000
00000000
00000010
00000000
00001000
,
00000000
00000000
00000000
00000000
00000000
00000000
00010000
00000000
01000000
00000000
00000000
10000000
,
00000000
00000000
00000000
00100000
00000000
00000000
01000000
00000000
00010000
00000000
00000000
00100000
,
00000000
00000000
00000000
00001000
00000000
00000000
00010000
00000000
00000100
00000000
00000000
00000000
,
00001000
00000000
00000000
00000010
00000000
00000000
00000100
00000000
00000001
00000000
00000000
00000010
,
00000000
00000000
00000000
00001000
00000000
00000000
00010000
00000000
01000000
00000000
00000000
10000000
,
00000000
00000000
00000000
00100000
00000000
00000000
01000000
00000000
00001000
00000000
00000000
00010000
,
00000000
00000000
00000000
00000100
00000000
00000000
00001000
00000000
00000010
00000000
00000000
00000000
,
00001001
00000000
00000000
00000001
00000000
00000000
00000100
00000000
00001000
00000000
00000000
00011000
,
00000000
00000000
00000000
00010000
00000000
00000000
01000000
00000000
10000000
00000000
00000000
00000000
,
10010000
00000000
00000000
10000000
00000000
00000000
00100000
00000000
00010000
00000000
00000000
00011000
;

//---------------dance-double - ----------------
#NOTES:
     dance-double:
     :
     Medium:
     10:
     0.481,0.610,0.120,0.000,0.229:
00000000
00000000
00000000
00000000
,
00000000
00000000
00000000
00000000
,
00000000
00000000
00000000
00000000
,
00000000
00000000
00000000
00000000
,
10000000
00100000
01000000
00000000
,
00010000
00100000
00001000
00000000
,
01000000
00001000
00010000
00000100
,
00001000
00000010
00000100
00000000
,
00000001
00001000
00000100
00000000
,
00010000
00001000
01000000
00000000
,
00001000
00000000
00000000
00000000
00000000
00001000
00000000
00000000
00000000
00010000
00000000
00000000
,
00000000
00000000
00010000
00000000
00000000
00000000
00000100
00000000
00000000
00010000
00000000
00000000
,
00000010
00000000
00010000
00001000
,
00000100
00000000
00000100
00000001
,
00000010
00001000
00010000
01000000
,
10000000
00000000
00010000
01000000
,
01000000
00000000
00010000
00100000
,
00001000
00000000
00010000
00000100
,
00000010
00000100
00001000
00000001
,
00000100
00000000
00000001
00000100
,
00001000
00000000
00010000
01000000
,
00100000
00000000
00100000
00001000
,
00010000
00000100
00010000
00001000
,
00100000
00000000
00001000
00010000
,
00000010
00000000
00001000
00000100
,
00000010
00000000
00001000
00000010
,
00000001
00000100
00001000
00010000
,
00100000
00000000
10000000
00000000
,
00010000
00000000
00000000
00000000
00000000
00010000
00000000
00000000
00000000
01000000
00000000
00000000
,
00100000
01000000
00010000
00100000
,
00001000
00000000
00000000
00000000
00000000
01000000
00000000
00000000
00000000
00001000
00000000
00000000
,
00100000
00000000
00000000
00000000
00000000
00010000
00000000
00000000
00000000
00000000
00000000
00000000
,
10000000
00000000
00000000
00000000
00000000
01000000
00000000
00000000
00000000
00010000
00000000
00000000
,
00001000
00000000
00000000
00000000
00000000
00000100
00000000
00000000
00000000
00000001
00000000
00000000
,
00000010
00001000
00000000
00010000
,
01000000
10000000
00000000
00100000
,
01000000
00000000
00000000
00000000
00000000
01000000
00000000
00000000
00000000
00100000
00000000
00000000
,
00010000
00000000
00000000
00000000
00000000
00010000
00000000
00000000
00000000
00001000
00000000
00000000
,
00000100
00000000
00000000
00000000
00000000
00001000
00000000
00000000
00000000
00000100
00000000
00000000
,
00000001
00000000
00000000
00000000
00000000
00000010
00000000
00000000
00000000
00001000
00000000
00000000
,
00010000
00000000
00000000
00000000
00000000
00100000
00000000
00000000
00000000
00010000
00000000
00000000
,
00001000
00000000
00000000
00000000
00000000
00001000
00000000
00000000
00000000
00010000
00000000
00000000
,
01000000
10000000
00010000
10000000
,
00010000
00010000
10010000
10010000
,
10000000
00000000
00000000
00000000
00000000
00010000
00000000
00000000
00000000
01000000
00000000
00000000
,
00001000
00000000
00000000
00000000
00000000
00000010
00000000
00000000
00000000
00000001
00000000
00000000
,
00000100
00000000
00000000
00000000
00000000
00001000
00000000
00000000
00000000
00000100
00000000
00000000
,
00000001
00000000
00000000
00000000
00000000
00000010
00000000
00000000
00000000
00000100
00000000
00000000
,
00010000
00000000
00000000
00000000
00000000
00001000
00000000
00000000
00000000
01000000
00000000
00000000
,
00100000
00000000
00000000
00000000
00000000
10000000
00000000
00000000
00000000
01000000
00000000
00000000
,
00010000
00001000
00000100
00000001
,
00000100
00000010
00010000
00001000
,
00010000
00000000
00000000
00000000
00000000
00000100
00000000
00000000
00000000
00000010
00000000
00000000
,
00000001
00000000
00000000
00000000
00000000
00000100
00000000
00000000
00000000
00001000
00000000
00000000
,
00000100
00000000
00000000
00000000
00000000
00000010
00000000
00000000
00000000
00010000
00000000
00000000
,
00001000
00000000
00000000
00000000
00000000
01000000
00000000
00000000
00000000
00010000
00000000
00000000
,
00100000
00000000
00000000
00000000
00000000
00001000
00000000
00000000
00000000
00010000
00000000
00000000
,
00000100
00000000
00000000
00000000
00000000
00000010
00000000
00000000
00000000
00000001
00000000
00000000
,
00001000
00000000
00010000
00000000
,
10000000
00000000
00000000
01000000
00000000
00000000
00100000
00000000
00010000
00100000
00000000
00000000
,
00100000
00010000
00010000
01000000
,
00100000
10000000
10000000
01000000
,
00100000
00001000
00010000
00001000
,
00100000
00000000
00000000
00100000
00000000
00000000
00010000
00000000
00100000
00010000
00000000
00000000
,
10000000
01000000
00010000
00001000
,
00000010
00000001
00000010
00000100
,
00010000
00001000
01000000
00001000
,
00010000
00000000
00001000
00010000
00000000
00000000
00000100
00000000
00001000
00000100
00000000
00000000
,
00000010
00000001
00000100
00001000
,
00010000
00100000
00010000
00001000
,
00010000
01000000
10000000
01000000
,
00100000
00001000
00010000
00001000
,
00010000
00000000
00001000
00010000
00000000
00000000
00001000
00000000
00100000
00001000
00000000
00000000
,
00010000
00000000
00000100
00010000
00000000
00000000
00000100
00000000
00000010
00000100
00000000
00000000
,
00001000
00001000
00001000
00001000
,
00000100
00000000
00000000
00010000
00000000
00000000
00001000
00000000
00000000
01000000
00000000
00100000
,
00000000
00000000
00000000
10000000
00000000
00000000
01000000
00000000
00010000
00000000
00000000
00001000
,
00000000
00000000
00000000
00010000
00000000
00000000
00001000
00000000
01000000
00000000
00000000
00000000
,
00100000
00000000
00000000
10000000
00000000
00000000
01000000
00000000
00010000
00000000
00000000
00001000
,
00000000
00000000
00000000
00000100
00000000
00000000
00000010
00000000
00001000
00000000
00000000
00000100
,
00000000
00000000
00000000
00010000
00000000
00000000
00001000
00000000
00010000
00000000
00000000
01000000
,
00000000
10000000
00100000
01000000
,
00010000
00000000
00000000
10000000
00000000
00000000
01000000
00000000
00000000
00010000
00000000
00001000
,
00000000
00000000
00000000
00000000
00000000
00000000
00010000
00000000
00100000
00000000
00000000
00010000
,
00000000
00000000
00000000
00001000
00000000
00000000
00000100
00000000
00000010
00000000
00000000
00001000
,
00000000
00000001
00000010
00000001
,
00000100
00000000
00000000
00000010
00000000
00000000
00001000
00000000
00000100
00000000
00000000
00010000
,
00000000
00000000
00000000
01000000
00000000
00000000
00100000
00000000
00010000
00000000
00000000
01000000
,
00000000
00000000
00000000
00001000
00000000
00000000
00010000
00000000
00001000
00000000
00000000
00000100
,
00000000
00000001
00000100
00000010
,
00001000
00000000
00000000
00010000
00000000
00000000
01000000
00000000
00100000
00000000
00000000
01000000
,
00000000
00000000
00011000
00011000
,
00010000
00000100
00000010
00000100
,
00000001
00000100
00001000
00001000
,
00000010
00000100
00001000
00000100
,
00010000
00000100
00001000
00001000
,
00010000
00100000
10000000
00100000
,
00010000
00100000
01000000
01000000
,
00010000
00100000
00001000
00100000
,
00010000
01000000
00001000
00001000
,
00001000
00010000
00000100
00000010
,
00000001
00000010
00001000
00001000
,
00010000
01000000
10000000
00100000
,
10000000
00100000
01000000
01000000
,
01000000
00001000
00010000
00001000
,
01000000
00100000
10000000
10000000
,
01000000
00010000
00001000
00000100
,
00000001
00000010
00000100
00000100
,
00000010
00000001
00000101
00000000
,
00000010
00001000
00001001
00000000
,
00000010
00000100
00000001
00001000
,
00000001
00000100
00000110
00000000
,
00000010
00010000
00011000
00000000
,
00001000
01000000
01001000
00000000
,
00001000
00010000
01000000
10000000
,
00010000
10000000
10100000
00000000
,
00100000
01000000
01001000
00000000
,
00001000
00100000
00110000
00000000
,
00010000
01000000
10000000
01000000
,
00100000
01000000
01001000
00000000
,
00001000
00010000
00010010
00000000
,
00000010
00000100
00000101
00000000
,
00000001
00000000
00000000
00000100
00000000
00000000
00001000
00000000
00000100
00000000
00000000
00001000
,
00000000
00000000
00000000
00010000
00000000
00000000
01000000
00000000
00010000
00000000
00000000
00000000
,
00001000
00000000
00000000
00010000
00000000
00000000
01000000
00000000
10000000
00000000
00000000
10010000
;

//---------------dance-double - ----------------
#NOTES:
     dance-double:
     :
     Easy:
     7:
     0.367,0.423,0.000,0.000,0.004: // measure 1
00000000
00000000
00000000
00000000
,  // measure 2
00000000
00000000
00000000
00000000
,  // measure 3
00000000
00000000
00000000
00000000
,  // measure 4
00000000
00000000
00000000
00000000
,  // measure 5
00010000
00000000
00010000
00000000
,  // measure 6
00010000
01000000
00001000
01000000
,  // measure 7
00010000
00000000
00100000
00000000
,  // measure 8
00001000
00010000
00000100
00001000
,  // measure 9
00000010
00000000
00000100
00000000
,  // measure 10
00000001
00000010
00000100
00001000
,  // measure 11
00000001
00000000
00001000
00000000
,  // measure 12
00010000
00000000
10000000
00000000
,  // measure 13
01000000
00100000
00010000
00000000
,  // measure 14
10000000
01000000
00100000
00000000
,  // measure 15
00001000
00000000
00010000
00000000
,  // measure 16
00000100
00001000
00000010
00000000
,  // measure 17
00000100
00000001
00000010
00000000
,  // measure 18
00001000
00000010
00000001
00000000
,  // measure 19
00000100
00001000
00010000
00000000
,  // measure 20
01000000
00000000
10000000
00000000
,  // measure 21
00100000
10000000
01000000
00000000
,  // measure 22
00010000
00001000
00000100
00000000
,  // measure 23
00000001
00000010
00000100
00000000
,  // measure 24
00010000
00000000
00010000
00000000
,  // measure 25
00000100
00000010
00000001
00000000
,  // measure 26
00000100
00000010
00010000
00000000
,  // measure 27
00001000
00100000
00001000
00010000
,  // measure 28
00001000
00000000
00000100
00000000
,  // measure 29
00000010
00000000
00000010
00000000
,  // measure 30
00010000
00001000
00010000
00000000
,  // measure 31
00001000
00000000
00001000
00000000
,  // measure 32
01000000
00100000
01000000
00010000
,  // measure 33
10000000
00000000
10000000
00000000
,  // measure 34
01000000
00100000
01000000
00000000
,  // measure 35
00100000
00001000
00010000
00000000
,  // measure 36
00001000
00010000
00000010
00000000
,  // measure 37
00001000
00000000
00001000
00000000
,  // measure 38
00000010
00000100
00000010
00000000
,  // measure 39
00010000
00000000
00010000
00000000
,  // measure 40
00001000
01000000
00100000
10000000
,  // measure 41
01000000
00000000
01000000
00000000
,  // measure 42
00100000
00001000
00100000
00000000
,  // measure 43
00001000
00010000
00001000
00000100
,  // measure 44
00000010
00000100
00000001
00000010
,  // measure 45
00000100
00010000
00000000
00010000
,  // measure 46
00001000
00000100
00000000
00000100
,  // measure 47
00000001
00000010
00000000
00000010
,  // measure 48
00000100
00010000
00000000
00010000
,  // measure 49
00001000
01000000
00000000
01000000
,  // measure 50
00100000
10000000
00000000
10000000
,  // measure 51
01000000
00010000
01000000
00100000
,  // measure 52
00001000
00010000
00001000
00100000
,  // measure 53
01000000
00100000
00000000
00100000
,  // measure 54
00001000
00010000
00000000
00010000
,  // measure 55
00000100
00001000
00000000
00001000
,  // measure 56
00000001
00000010
00000000
00000010
,  // measure 57
00000100
00001000
00000000
00001000
,  // measure 58
00000010
00000100
00000000
00000010
,  // measure 59
00010000
00001000
00010000
00000100
,  // measure 60
00000010
00000001
00000100
00000000
,  // measure 61
00000001
00000000
00000001
00000000
,  // measure 62
00000001
00000010
00000100
00000000
,  // measure 63
00010000
00000000
00010000
00000000
,  // measure 64
00010000
00000010
00000100
00000000
,  // measure 65
00000001
00001000
00000100
00000000
,  // measure 66
00010000
00001000
01000000
00000000
,  // measure 67
00001000
00000000
00010000
00000000
,  // measure 68
01000000
10000000
00100000
00000000
,  // measure 69
10000000
00000000
00010000
00000000
,  // measure 70
10000000
00000000
01000000
00000000
,  // measure 71
00100000
00001000
00100000
00000000
,  // measure 72
00001000
00010000
00001000
00000000
,  // measure 73
00010000
00000000
00000100
00000000
,  // measure 74
00000010
00000000
00000001
00000000
,  // measure 75
00001000
00000000
00010000
00000000
,  // measure 76
10000000
00010000
10000000
00000000
,  // measure 77
01000000
00100000
01000000
00000000
,  // measure 78
00100000
00000000
00100000
00000000
,  // measure 79
00001000
00000000
00010000
00000000
,  // measure 80
00000100
00000000
00000010
00000000
,  // measure 81
00000001
00000100
00000001
00000000
,  // measure 82
00001000
00000000
00001000
00000000
,  // measure 83
00000100
00010000
00001000
00000000
,  // measure 84
00010000
00000000
01000000
00000000
,  // measure 85
10000000
00100000
01000000
00000000
,  // measure 86
00001000
00000000
00010000
00000000
,  // measure 87
00000010
00001000
00000001
00000000
,  // measure 88
00000010
00000000
00000010
00000000
,  // measure 89
00000100
00010000
00001000
00000000
,  // measure 90
00010000
01000000
10000000
00000000
,  // measure 91
00100000
01000000
00010000
00100000
,  // measure 92
00001000
00000000
00000000
00000000
,  // measure 93
00010000
01000000
00100000
00000000
,  // measure 94
00001000
00000000
00010000
00000000
,  // measure 95
00000010
00000100
00000010
00000000
,  // measure 96
00000100
00000000
00000100
00000000
,  // measure 97
00000001
00000010
00000100
00000000
,  // measure 98
00010000
00001000
01000000
00000000
,  // measure 99
01000000
00100000
01000000
00000000
,  // measure 100
00010000
00000000
00000000
00000000
,  // measure 101
10000000
01000000
00100000
00000000
,  // measure 102
00100000
01000000
10000000
00000000
,  // measure 103
00010000
01000000
00100000
00000000
,  // measure 104
10000000
00000000
10000000
00000000
,  // measure 105
00010000
01000000
00001000
00000000
,  // measure 106
00010000
00000100
00000010
00000000
,  // measure 107
00000001
00000010
00000100
00001000
,  // measure 108
00000001
00000000
00000000
00000000
,  // measure 109
00000100
00000010
00000100
00000000
,  // measure 110
00000001
00001000
00000001
00000000
,  // measure 111
00001000
00000100
00010000
00000000
,  // measure 112
00001000
00000000
01000000
00000000
,  // measure 113
00100000
10000000
01000000
00000000
,  // measure 114
00100000
00010000
01000000
00000000
,  // measure 115
00010000
01000000
00001000
00100000
,  // measure 116
00010000
00000000
00010000
00000000
,  // measure 117
10000000
01000000
00100000
00000000
,  // measure 118
00100000
00001000
00010000
00000000
,  // measure 119
00001000
00010000
00000100
00010000
,  // measure 120
00001000
00000100
00000001
00000000
,  // measure 121
00000010
00000100
00001000
00000000
,  // measure 122
00000100
00010000
00001000
01000000
,  // measure 123
00010000
00100000
01000000
10000000
,  // measure 124
00010000
01000000
00100000
10000000
,  // measure 125
01000000
00000000
00000000
00010000
00000000
00000000
00001000
00000000
00000000
00010000
00000000
00001000
;
