#TITLE:squall;
#SUBTITLE:;
#ARTIST:猫叉Master+;
#TITLETRANSLIT:;
#SUBTITLETRANSLIT:;
#ARTISTTRANSLIT:;
#GENRE:;
#CREDIT:;
#MENUCOLOR:;
#METERTYPE:DDR;
#BANNER:squall.png;
#BACKGROUND:squall-bg.png;
#LYRICSPATH:;
#CDTITLE:cdtitle.png;
#MUSIC:squall.mp3;
#OFFSET:-0.025;
#SAMPLESTART:83.384;
#SAMPLELENGTH:15.000;
#SELECTABLE:YES;
#LISTSORT:;
#BPMS:0.000=190.000;
#STOPS:;
#BGCHANGES:;
#ATTACKS:;

//---------------dance-single - ----------------
#NOTES:
     dance-single:
     :
     Hard:
     14:
     0.798,0.811,0.817,0.043,0.310:
0000
0000
0000
0000
,
0000
0000
0000
0000
,
0000
0000
0000
0000
,
0000
0000
0000
0000
,
0001
0000
0010
0000
0100
0000
1000
0000
0100
0000
0010
0000
,
0001
0000
0100
0000
0010
0000
1000
0000
0010
0000
0100
0000
,
0001
0000
1000
0000
0100
0000
0010
0000
0001
0000
0100
0000
,
0010
0000
1000
0000
0001
0000
0010
0000
0100
0000
1000
0000
,
0001
0000
0100
0000
0100
0000
0010
0000
1000
0000
1000
0000
,
1001
0000
0000
1010
0000
0000
0011
0000
,
0000
0000
0000
0000
0100
1000
0001
0100
,
0110
0000
0000
1010
0000
0000
0101
0000
,
0000
0000
0000
0000
0010
0100
1000
0001
,
0101
0000
0000
1010
0000
0000
1100
0000
,
0000
0000
0000
0000
0010
0001
1000
0010
,
0110
0000
0000
1010
0000
0000
0101
0000
,
1001
0000
0110
0000
0110
0000
0110
0000
0000
1001
0000
0000
,
0010
0100
1000
0100
0001
0100
1000
0100
,
0001
0100
1000
0100
0010
0001
0100
0010
,
0000
0100
1000
0100
0001
0100
0010
0100
,
1000
0100
0001
0010
0100
1000
0001
0100
,
0000
0010
1000
0010
0001
0010
1000
0010
,
0001
0010
1000
0010
0100
0001
0010
0100
,
1000
0000
0001
0000
0100
0010
0100
0000
0001
0000
0010
0000
0200
0000
0000
0000
,
0300
0000
0000
1000
0000
0000
0100
0000
0000
0010
0000
0000
0001
0000
0100
0000
0010
0000
1000
0000
0010
0000
0100
0000
,
0001
0000
1001
0000
0010
1000
1100
0000
,
0010
0001
0100
0010
1000
0100
0110
0000
,
0001
0000
1001
0000
0001
0100
0110
0000
,
0010
1000
0100
0001
0100
1000
1010
0000
,
0101
0000
0110
0000
0010
1000
1100
0000
,
0010
0001
0100
0010
1000
0100
0110
0000
,
1100
0000
0101
0000
0010
1000
1001
0000
,
0010
0000
0001
0000
0100
0000
0010
1000
0010
0000
0100
0000
0001
0000
1000
0000
,
1100
0000
0011
0000
1000
0010
0110
0000
,
0001
0100
1000
0100
0010
1000
1100
0000
,
0011
0000
1010
0000
0100
0001
0011
0000
,
0100
0000
0000
1000
0000
0000
0001
0000
0000
0100
0000
0000
0010
0000
1000
0000
0010
0000
0100
0000
0001
0000
0100
0000
,
0010
0000
1000
0001
1000
0000
0010
0000
0100
0010
0100
0000
0001
0000
0010
0000
,
1000
0010
0100
1000
0001
0100
1001
0000
,
1010
0000
0101
0001
0010
0100
1100
0000
,
1000
0100
0001
0100
1000
0000
0110
0000
,
0011
0001
0100
0110
0010
1000
0100
0001
,
0100
1000
0020
0000
0130
1000
0100
0001
,
1001
1000
0100
0110
0010
0001
0100
0010
,
1000
0100
0020
0000
0031
0100
1000
0100
,
0110
0010
1000
1100
0100
0010
0001
0100
,
0010
1000
0002
0000
0013
0100
1000
0001
,
0101
0100
0010
1010
1000
0100
0010
0001
,
1000
0010
0200
0000
0301
0010
1000
0010
,
0110
0000
0000
1001
0000
0000
0000
0000
,
0000
0000
0000
0000
0010
0100
0010
1000
,
1010
0000
0000
0101
0000
0000
0000
0000
,
0000
0000
0001
0000
0010
0001
0010
0000
0100
0000
1000
0000
0001
0000
0100
0000
,
0110
0000
0000
1001
0000
0001
0100
0000
,
0001
0010
0100
1000
0010
0100
0001
0100
,
0101
0000
0000
1010
0000
1000
0100
0000
,
1000
0010
0100
1000
0100
0001
0010
0100
,
1000
0000
0100
0000
0100
0000
0001
0000
0100
0000
0100
0000
,
1000
0000
0001
0100
0000
1000
0100
0000
,
0010
0000
1000
0100
0010
0001
0100
0010
,
1000
0000
0001
0100
0000
1000
0100
0000
,
0001
0000
0010
0100
1000
0100
0010
0001
,
1000
0000
0001
0010
0000
1000
0010
0000
,
0001
0000
0100
0010
1000
0010
0100
0001
,
0010
0000
0100
1000
0000
0100
0010
0000
,
0011
0000
0000
0000
1100
0000
0000
0000
0001
1000
0001
0000
0100
0000
0100
0000
,
0110
0010
1000
1100
0100
0010
0011
0000
,
0100
1000
0001
0100
1000
0100
0001
0010
,
0110
0100
1000
1001
0001
0100
0110
0000
,
0010
1000
0100
0100
0010
0001
0100
0001
,
0011
0010
0100
1100
1000
0010
0110
0000
,
0100
0001
0100
0010
1000
0100
0010
0001
,
1001
1000
0100
0110
0010
0001
1001
0000
,
1010
0000
0100
0001
0010
0001
0100
0010
,
1010
1000
0001
0011
0010
0100
1100
0000
,
1000
0100
0001
0100
0010
0001
0100
0010
,
0110
0100
0001
0011
0010
0100
1100
0000
,
1000
0001
0100
0100
0010
1000
0100
0010
,
0110
0100
1000
1001
0001
0100
0101
0000
,
0010
0100
1000
0100
0001
0010
0100
1000
,
1100
0100
0010
0011
0001
0100
0110
0000
,
1000
0100
0001
0100
1000
0010
0001
0010
,
0100
0000
0001
0000
0010
0000
0100
0000
1000
0000
0010
0000
,
0100
0000
1000
0000
0100
0000
0001
0000
0010
0000
0001
0000
,
0100
0000
0010
0000
1000
0000
0100
0000
0010
0000
0001
0000
,
1000
0000
0100
0000
0010
0000
0001
0000
0100
0000
0010
0000
,
1010
0000
1000
0000
0100
0000
0110
0000
0010
0000
0001
0000
,
0101
0000
0100
0000
0010
0000
1010
0000
1000
0000
0001
0000
,
0101
0000
0001
0000
0010
0000
1100
0000
1000
0000
0010
0000
,
1001
0000
0100
0000
0010
0000
0011
0000
1010
0000
1001
0000
;

//---------------dance-single - ----------------
#NOTES:
     dance-single:
     :
     Medium:
     11:
     0.558,0.580,0.181,0.103,0.181:
0000
0000
0000
0000
,
0000
0000
0000
0000
,
0000
0000
0000
0000
,
0000
0000
0000
0000
,
0001
0000
0000
0000
0001
0000
1000
0000
0000
0000
1000
0000
,
0010
0000
0000
0000
0010
0000
0100
0000
0000
0000
0100
0000
,
0001
0000
0000
0000
0001
0000
0010
0000
0000
0000
0100
0000
,
1000
0000
0000
0000
1000
0000
0010
0000
0000
0000
0010
0000
,
0100
0000
0100
0000
0100
0000
0001
0000
0001
0000
0001
0000
,
1000
0000
0000
1100
0000
0000
1001
0000
,
0001
0000
0100
0000
0010
0100
0001
0000
,
0010
0000
0000
0011
0000
0000
0110
0000
,
0100
0000
1000
0000
0001
1000
0010
0000
,
0100
0000
0000
0101
0000
0000
0110
0000
,
0010
0000
1000
0000
0001
1000
0100
0000
,
1000
0000
0000
0101
0000
0000
1100
0000
,
0010
0000
0100
0000
0100
0000
0100
0000
0000
1001
0000
0000
,
0001
0100
0010
0000
0100
0000
0001
0000
,
0010
0000
0100
0000
1000
0001
0100
0010
,
0000
0100
0001
0000
1000
0000
0100
0000
,
0010
0000
0100
1000
0001
0100
0010
0100
,
0000
0001
1000
0000
0100
0000
0010
0000
,
0001
0000
0100
0000
0010
0100
0001
0100
,
0010
1000
0100
0000
0010
0000
0001
0000
,
0100
1000
0010
0000
0200
0000
0302
0000
,
0013
0000
0100
1000
0010
0000
0100
0001
,
0010
0000
0100
1000
0010
0000
0100
0001
,
0010
0000
0100
1000
0010
0000
0100
0000
,
0001
0000
0010
0000
0100
0000
1000
0001
,
0100
0000
0001
1000
0100
0000
0010
0000
,
0001
0000
0100
0010
0100
0000
0001
1000
,
0001
0000
0010
0100
0010
0000
0001
0000
,
0100
0000
0010
0100
0100
0001
0010
0000
,
0001
0000
0100
0010
1000
0000
0100
0010
,
0001
0000
0100
0010
1000
0000
0100
0010
,
0001
0000
0100
0010
1000
0000
0001
0000
,
1000
0000
0100
0100
0020
0000
0032
0000
,
1003
0000
0010
0010
0100
0001
0010
0100
,
1000
0000
0001
0100
0010
0000
0100
0000
,
0010
0100
0001
0000
1000
0000
0100
0000
,
0010
0000
0010
0000
0100
1000
0001
0000
,
0200
0000
0310
0200
0000
0310
0100
0000
,
0001
0010
0100
0000
1000
0000
0001
0000
,
0020
0000
0130
0020
0000
0130
0010
0000
,
0001
0100
1000
0000
0100
0001
1000
0100
,
0020
0000
0031
0020
0000
0031
0010
0000
,
0100
1000
0001
0000
0100
0000
0010
0000
,
2000
0000
3100
2000
0000
3100
1000
0000
,
0001
0100
0010
0000
1000
0100
0010
0001
,
0100
0000
0000
0110
0000
0000
0000
0000
,
0000
0000
0000
0000
0000
1000
0000
0001
,
0100
0000
0000
0110
0000
0000
0000
0000
,
0000
1000
0000
0001
1000
0001
1000
0010
,
0100
0000
0000
0110
0000
0000
0100
0000
,
0001
0000
0100
0000
0010
1000
0001
0000
,
0100
0000
0000
0110
0000
0000
0010
0000
,
0100
0001
1000
0000
0100
0010
0100
1000
,
0001
0000
0100
0000
0100
0000
0010
0000
1000
0000
1000
0000
,
0100
0000
0000
0110
0000
0000
0011
0000
,
0001
0000
0100
0000
0001
1000
0100
0000
,
0010
0000
0000
0110
0000
0000
1100
0000
,
1000
0000
0001
0000
0100
0010
1000
0000
,
0001
0000
0000
0101
0000
0000
0110
0000
,
0010
0000
1000
0000
0100
0010
0001
0000
,
1000
0000
0000
1010
0000
0000
0110
0000
,
0100
0000
0001
0000
1000
0100
0001
0100
,
1000
0000
0001
0100
0000
1000
0100
0000
,
0010
0000
1000
0000
0100
0010
0100
0000
,
1000
0000
0001
0010
0000
1000
0010
0000
,
0001
0000
0100
0000
0010
1000
0100
0010
,
0001
0000
0100
1000
0000
0100
0001
0000
,
0010
0000
0100
0000
1000
0010
0100
0000
,
0001
0000
0010
1000
0000
0010
0001
0000
,
0100
0000
0010
0010
1000
0100
0100
0010
,
0001
0000
1000
0100
0000
0001
0100
0000
,
1000
0000
0010
0000
0100
0001
0010
0000
,
1000
0000
0010
0001
0000
0100
0010
0000
,
1000
0000
0100
0000
0010
0100
1000
0000
,
0001
0000
0100
0010
0000
1000
0100
0000
,
0010
0000
0100
0000
1000
0001
0100
0010
,
1000
0000
0100
0010
0000
0100
1000
0000
,
0001
0000
0100
0000
0010
0010
0010
0000
,
0100
0000
0000
0000
0100
0000
0001
0000
0000
0000
0001
0000
,
1000
0000
0000
0000
1000
0000
0100
0000
0000
0000
0100
0000
,
0010
0000
0000
0000
0001
0000
0100
0000
0000
0000
0010
0000
,
1000
0000
0000
0000
0100
0000
0010
0000
0000
0000
0001
0000
,
0100
0000
0010
0000
0010
0000
1000
0000
0100
0000
0100
0000
,
0010
0000
0001
0000
0001
0000
1000
0000
0010
0000
0010
0000
,
0100
0000
0001
0000
0010
0000
0100
0000
1000
0000
0010
0000
,
0100
0000
0001
0000
1000
0000
0100
0000
0010
0000
0001
0000
;

//---------------dance-single - ----------------
#NOTES:
     dance-single:
     :
     Easy:
     8:
     0.436,0.502,0.026,0.103,0.000:
0000
0000
0000
0000
,
0000
0000
0000
0000
,
0000
0000
0000
0000
,
0000
0000
0000
0000
,
1000
0000
0001
0000
,
0100
0000
0010
0010
,
0010
0000
0100
0000
,
0001
0000
1000
1000
,
1000
0000
0100
0000
,
0010
0000
0000
0010
0000
0000
0010
0000
,
0000
0000
0100
1000
,
0001
0000
0000
0001
0000
0000
0001
0000
,
0000
0000
0100
0010
,
1000
0000
0000
1000
0000
0000
1000
0000
,
0000
0000
0001
0100
,
0010
0000
0000
0010
0000
0000
0010
0000
,
0100
0010
0100
1001
,
0010
1000
0100
1000
,
0010
1000
0100
1000
,
0000
0010
0100
0001
,
0010
0001
0100
0001
,
0000
0010
0100
1000
,
0100
0010
0001
0100
,
0010
0010
0100
0001
,
0010
0000
0010
0000
0100
1000
0100
0010
,
0001
0000
0000
0001
1000
0000
0000
1000
,
0001
0000
0000
0001
1000
0000
0000
1000
,
0010
0000
0000
0010
0100
0000
0000
0100
,
0010
0100
0001
0010
,
0100
0000
0000
0100
1000
0000
0000
1000
,
0100
0000
0000
0100
1000
0000
0001
0000
,
0100
0000
0000
0100
0010
0000
0000
0010
,
0100
0001
0010
0100
,
1000
0000
0000
1000
0001
0000
0000
0001
,
1000
0000
0000
1000
0001
0000
0000
0001
,
0010
0000
0000
0010
0100
0000
0000
0100
,
0010
0100
1000
0010
,
0100
0000
0000
0100
0001
0000
0000
0001
,
0100
0000
0000
0100
0001
0000
1000
0000
,
0100
0000
0000
0100
0010
0000
0000
0010
,
0100
0000
1000
0000
0010
1000
0100
1000
,
0001
0000
0000
0001
0000
0000
0001
0000
,
0100
0010
0100
0001
,
1000
0000
0000
1000
0000
0000
1000
0000
,
0100
0000
0010
0000
0100
1000
0001
0000
,
0001
0000
0000
0001
0000
0000
0001
0000
,
0010
0100
0010
0001
,
1000
0000
0000
1000
0000
0000
1000
0000
,
0010
0000
0100
0000
0010
1000
0001
0000
,
0001
0000
0000
0001
0000
0000
0000
0000
,
0000
0000
0000
0000
1000
0001
1000
0000
,
0100
0000
0000
0100
0000
0000
0000
0000
,
0000
0000
0010
0001
0000
0001
0010
0000
,
0100
0000
0000
0100
0000
0000
0100
0000
,
0001
0000
1000
0001
0000
0001
1000
0000
,
0010
0000
0000
0010
0000
0000
0100
0000
,
0001
1000
0100
0010
,
0002
0100
2003
0100
,
3010
0000
0000
0010
0000
0000
0010
0000
,
0000
0000
0000
0000
0100
0001
0010
0001
,
1000
0000
0000
1000
0000
0000
1000
0000
,
0000
0000
0000
0000
0100
1000
0010
1000
,
0001
0000
0000
0001
0000
0000
0001
0000
,
0000
0000
0000
0000
0100
0001
0010
0001
,
1000
0000
0000
1000
0000
0000
1000
0000
,
1002
1003
2001
3001
,
0100
0000
0100
0010
0000
0010
0001
0000
,
0010
0000
0100
0000
1000
0010
0001
0010
,
0100
0000
0100
0010
0000
0010
1000
0000
,
0001
0000
1000
0000
0100
0001
0010
0001
,
0100
0000
0100
1000
0000
1000
0001
0000
,
0010
0000
0100
0000
1000
0001
0010
0001
,
0100
0000
0100
0001
0000
0001
1000
0000
,
0100
0000
0010
0000
0100
0010
1000
0010
,
0001
0000
0001
0100
0000
0100
0010
0000
,
0100
0000
0001
0000
1000
0001
0100
0001
,
0010
0000
0010
0001
0000
0001
0100
0000
,
0001
0000
0010
0000
0100
1000
0001
1000
,
0010
0000
0010
0100
0000
0100
0001
0000
,
1000
0000
0100
0000
1000
0001
0010
0001
,
0100
0000
0100
1000
0000
1000
0100
0000
,
0001
0000
0010
0000
0100
1000
0001
1000
,
0100
0100
1000
1000
,
0001
0001
0100
0100
,
0010
0010
0100
0100
,
0001
0001
0010
0010
,
0200
1300
2000
3001
,
0002
0103
0200
0310
,
0020
1000
2030
0001
,
3002
0010
0023
0130
;

//---------------dance-single - ----------------
#NOTES:
     dance-single:
     :
     Beginner:
     4:
     0.218,0.270,0.000,0.009,0.000:
0000
0000
0000
0000
,
0000
0000
0000
0000
,
0000
0000
0000
0000
,
0000
0000
0000
0000
,
1000
0000
0001
0000
,
1000
0000
0001
0000
,
0001
0000
1000
0000
,
0001
0000
1000
0000
,
0100
0000
0100
0000
,
0100
0000
0000
0000
,
0010
0000
0010
0000
,
0010
0000
0000
0000
,
1000
0000
1000
0000
,
1000
0000
0000
0000
,
0001
0000
0001
0000
,
0001
0000
0000
0000
,
0020
0000
0030
0100
,
0100
0000
0100
0000
,
1000
0000
1000
0000
,
0001
0000
0001
0000
,
0100
0100
0100
0000
,
0010
0000
0010
0000
,
1000
0000
1000
0000
,
0001
0000
0001
0000
,
0010
0010
0010
0000
,
0100
0000
0100
0000
,
1000
0000
1000
0000
,
0001
0000
0001
0000
,
0100
0000
0100
0000
,
0010
0000
0010
0000
,
0100
0000
0100
0000
,
0001
0000
0001
0000
,
1000
0000
1000
0000
,
0100
0000
0100
0000
,
0010
0000
0010
0000
,
0001
0000
0001
0000
,
1000
0000
1000
0000
,
0001
0001
0001
0000
,
0100
0000
0100
0000
,
0010
0000
0010
0000
,
0100
0100
0100
0000
,
0001
0000
0001
0000
,
1000
1000
1000
0000
,
0001
0000
0001
0000
,
0100
0100
0100
0000
,
1000
0000
1000
0000
,
0001
0001
0001
0000
,
1000
0000
1000
0000
,
0100
0100
0100
0000
,
0010
0000
0000
0000
,
0100
0000
0000
0000
,
0010
0000
0000
0000
,
0100
0000
0000
0000
,
0001
0000
0000
0000
,
1000
0000
0000
0000
,
0001
0000
0000
0000
,
1000
0000
0000
0000
,
0100
0000
0010
0000
,
0001
0000
0001
0000
,
1000
0000
1000
0000
,
0001
0000
1000
0000
,
0001
0000
1000
0000
,
0001
0000
0001
0000
,
0100
0000
0100
0000
,
0010
0000
1000
0000
,
0100
0100
0100
0100
,
0100
0000
0100
0000
,
0010
0000
0010
0000
,
0001
0001
0001
0000
,
1000
0000
1000
0000
,
0001
0000
0001
0000
,
0100
0000
0100
0000
,
0010
0010
0010
0000
,
1000
0000
1000
1000
,
0100
0000
0100
0000
,
1000
0000
1000
0000
,
0001
0001
0001
0000
,
0100
0000
0100
0000
,
0010
0000
0010
0000
,
0100
0000
0100
0000
,
0001
0001
0001
0000
,
0010
0000
0010
0000
,
0100
0000
0100
0000
,
1000
0000
1000
0000
,
0001
0000
0001
0000
,
0100
0000
0100
0000
,
0010
0000
1000
0000
,
0100
0000
0001
0000
,
0010
0000
0100
0000
,
1000
0000
0010
0010
;

//---------------dance-double - ----------------
#NOTES:
     dance-double:
     :
     Hard:
     15:
     0.793,0.889,0.637,0.215,0.379:
00000000
00000000
00000000
00000000
,
00000000
00000000
00000000
00000000
,
00000000
00000000
00000000
00000000
,
00000000
00000000
00000000
00000000
,
00000001
00000000
00000100
00000000
00001000
00000000
00010000
00000000
01000000
00000000
10000000
00000000
,
00100000
00000000
00010000
00000000
00001000
00000000
00000100
00000000
00000001
00000000
00000010
00000000
,
00000001
00000000
00000100
00000000
00001000
00000000
00010000
00000000
00100000
00000000
10000000
00000000
,
01000000
00000000
10000000
00000000
00100000
00000000
00010000
00000000
00001000
00000010
00000001
00001000
,
00000001
00000000
00000100
00000000
00000100
00000000
00000010
00000000
00001000
00000000
00001000
00000000
,
00001100
00000000
00000000
00011000
00000000
00000000
01010000
00000000
,
00000000
00000000
00000000
00000000
00100000
10000000
01000000
00100000
,
01100000
00000000
00000000
11000000
00000000
00000000
01010000
00000000
,
00000000
00000000
00000000
00000000
00000000
00000000
00000000
00000000
00100000
00000000
00001000
00010000
00001000
00000000
00000100
00000000
,
00000110
00000000
00000000
00001010
00000000
00000000
00000101
00000000
,
00000000
00000000
00000000
00000000
00000001
00000100
00000010
00010000
,
00011000
00000000
00000000
01001000
00000000
00000000
00110000
00000000
,
01100000
00000000
00011000
00000000
00011000
00000000
00011000
00000000
00000000
00000110
00000000
00000000
,
00000001
00000100
00001000
00010000
01000000
00100000
01000000
10000000
,
01000000
00100000
00010000
00001000
00000100
00000010
00000001
00000100
,
00000000
00000100
00001000
00000100
00000010
00000100
00010000
01000000
,
00100000
00000000
01000000
00000000
00001000
00000000
00010000
00000000
01000000
00000000
10000000
00010000
10000000
00000000
01000000
00000000
,
00000000
00100000
00001000
00010000
00000100
00000010
00000100
00000001
,
00000100
00010000
00001000
01000000
00010000
00100000
01000000
10000000
,
00010000
00000000
01000000
00000000
00001000
00010000
00001000
00000000
01000000
00000000
00100000
00000000
20000000
00000000
00000000
00000000
,
00000000
00000000
00000000
31000000
00000000
00000000
00100000
00000000
00000000
00010000
00000000
00000000
10000000
00000000
01000000
00000000
00010000
00000000
00001000
00000000
00000100
00000000
00000001
00000000
,
00000010
00000000
00000001
00000100
00000010
00000000
00001000
00000100
,
00010000
00000000
00001000
01000000
00100000
00000000
10000000
01000000
,
00010000
00000000
00001000
00000100
00000001
00000000
00000010
00000000
,
00000100
00010000
00001000
01000000
00010000
00000100
00000010
00001000
,
00001100
00000000
00000100
00010000
00001000
00000000
01000000
00010000
,
00100000
00000000
01000000
10000000
00100000
00010000
00001000
00000100
,
00000010
00000000
00001000
00000100
00010000
00000000
01000000
10000000
,
00100000
00010000
00001000
00000200
00000310
00000001
00001000
00000100
,
00000101
00000000
00000001
00000010
00001000
00000000
00010000
01000000
,
10000000
00000000
00100000
01000000
00010000
00000000
00100000
00001000
,
00010000
00000000
00000100
00001000
00000010
00000000
00000001
00000010
,
00001000
00000000
00000000
00010000
00000000
00000000
01000000
00000000
00000000
00100000
00000000
00000000
10000000
00000000
01000000
00000000
00100000
00000000
00001000
00000000
01000000
00000000
00100000
00000000
,
10000000
00000000
01000000
00100000
01000000
00100000
01000000
00100000
01000000
00100000
01000000
00000000
00100000
00000000
00001000
00000000
,
00010000
00000000
00000100
00001000
00000010
00000000
00000100
00000000
,
00010000
01000000
00100000
10000000
01000000
00010000
00001000
00000100
,
00000010
00010000
01000000
10000000
00100000
00010000
00001000
00000100
,
00000001
00000000
00000001
00000101
00000000
00000100
00000110
00000000
,
00000010
00001000
00010000
01000000
00100000
10000000
01000000
00100000
,
00110000
00000000
00010000
10010000
00000000
10000000
11000000
00000000
,
01000000
00010000
00001000
00000010
00000001
00000100
00001000
00000100
,
00000110
00000000
00000010
00010010
00000000
00010000
00011000
00000000
,
00001000
00100000
10000000
00010000
01000000
10000000
00100000
00010000
,
00011000
00000000
00001000
00001100
00000000
00000100
00000101
00000000
,
00000001
00000010
00001000
00010000
01000000
00100000
00010000
01000000
,
01100000
00000000
00000000
00011000
00000000
00000000
00000000
00000000
,
00000000
00000000
00000000
00000000
00000001
00000010
00000100
00001000
,
00000101
00000000
00000000
00001010
00000000
00000000
00000000
00000000
,
00000000
00000000
00000000
00000000
00000000
00000000
00000001
00000000
00000000
00000000
00000000
00000000
00000010
00000000
00000000
00000100
00000000
00000000
00000010
00000000
00000000
00000100
00000000
00000000
00001000
00000000
00000000
00000000
00000010
00000000
00000000
00000000
00010000
00000000
00000000
00000000
00001000
00000000
00000000
00000000
00100000
00000000
00000000
00000000
00010000
00000000
00000000
00000000
,
10000000
00000000
00000000
00000000
00000000
00000000
11000000
00000000
00000000
00000000
10000000
00000000
01000000
00100000
00000000
00100000
,
00001000
00010000
00000100
00001000
00000001
00000100
00000010
00010000
,
00011000
00000000
00000000
00000000
00000000
00000000
01001000
00000000
00000000
00000000
01000000
00000000
00010000
10000000
00000000
10000000
,
01000000
00100000
00001000
00010000
00000100
00001000
00000010
00000100
,
00000001
00000000
00000100
00000000
00001000
00000000
00010000
00000000
01000000
00000000
10000000
00000000
,
00020000
00000000
00000000
20030000
00000000
00000000
32000000
00000000
,
00000000
00000000
00000000
00000000
03020000
00032000
00003020
00000032
,
00000203
00000000
00000000
00020300
00000000
00000000
02030000
00000000
,
00000000
00000000
00000000
00000000
03200000
20300000
30020000
00230000
,
00302000
00000000
00000000
00003020
00000000
00000000
00000032
00000000
,
00000000
00000000
00000000
00000000
00000203
00000320
00002030
00003200
,
00020300
00000000
00000000
00032000
00000000
00000000
01003000
00000000
,
01001000
00000000
00000000
00000000
00010100
00000000
00000000
00000000
00000100
00000010
00000100
00000010
00000001
00001000
00000001
00001000
,
00000100
00010000
00001000
01001000
01000000
00100000
10100000
00000000
,
10000000
01000000
00010000
00001000
00000010
00000001
00000100
00001000
,
00011000
00010000
01000000
01100000
00100000
00001000
00011000
00000000
,
00010000
00000010
00000100
00001000
00000100
00000001
00000010
00000100
,
00001100
00001000
00000010
00000110
00000100
00001000
00011000
00000000
,
00010000
01000000
10000000
00100000
00010000
00001000
00000100
00000001
,
00000011
00000010
00000100
00010100
00010000
00001000
01001000
00000000
,
01000000
00100000
01000000
00010000
10000000
01000000
00010000
00001000
,
00001100
00000100
00000010
00010010
00010000
00001000
01001000
00000000
,
01000000
00001000
00000100
00000010
00001000
00000100
00000001
00000100
,
00000110
00000010
00000001
00001001
00001000
00000100
00010100
00000000
,
00010000
00001000
01000000
00100000
01000000
00001000
00010000
00000100
,
00000110
00000010
00000001
00001001
00001000
00000100
00010100
00000000
,
00010000
00001000
01000000
10000000
01000000
00100000
00010000
00001000
,
00011000
00010000
00000100
00000110
00000010
00000001
00001001
00000000
,
00001000
00000100
00010000
00001000
01000000
00100000
00010000
00001000
,
00000100
00000000
00000001
00000000
00000010
00000000
00001000
00000000
00010000
00000000
01000000
00000000
,
10000000
00000000
00100000
00000000
00010000
00000000
00001000
00000000
01000000
00000000
00010000
00000000
,
00100000
00000000
00001000
00000000
00000010
00000000
00000001
00000000
00000100
00000000
00000010
00000000
,
00010000
00000000
00001000
00000000
01000000
00000000
00100000
00000000
10000000
00000000
01000000
00000000
,
01100000
00000000
00100000
00000000
00001000
00000000
00011000
00000000
00010000
00000000
00000100
00000000
,
00000110
00000000
00000010
00000000
00000001
00000000
00000101
00000000
00000100
00000000
00000010
00000000
,
00010010
00000000
00010000
00000000
00001000
00000000
01001000
00000000
01000000
00000000
00100000
00000000
,
10100000
00000000
11000000
00000000
01010000
00000000
00011000
00000000
00001100
00000000
00000101
00000000
;

//---------------dance-double - ----------------
#NOTES:
     dance-double:
     :
     Medium:
     12:
     0.562,0.618,0.181,0.017,0.301:
00000000
00000000
00000000
00000000
,
00000000
00000000
00000000
00000000
,
00000000
00000000
00000000
00000000
,
00000000
00000000
00000000
00000000
,
10000000
00000000
01000000
00000000
01000000
00000000
00100000
00000000
00010000
00000000
00010000
00000000
,
01000000
00000000
00001000
00000000
00001000
00000000
00010000
00000000
00000010
00000000
00000010
00000000
,
00001000
00000000
00000001
00000000
00000001
00000000
00000010
00000000
00000100
00000000
00000100
00000000
,
00010000
00000000
00001000
00000000
00001000
00000000
01000000
00000000
00010000
00000000
00010000
00000000
,
00100000
00000000
01000000
00000000
10000000
00000000
00010000
00000000
01000000
00000000
00100000
00000000
,
10000000
00000000
00000000
11000000
00000000
00000000
10010000
00000000
,
00000000
00000000
00000000
00000000
01000000
00001000
00010000
00000100
,
00001000
00000000
00000000
00001010
00000000
00000000
00001001
00000000
,
00000000
00000000
00000000
00000000
00000001
00000010
00000100
00010000
,
00001000
00000000
00000000
00011000
00000000
00000000
01001000
00000000
,
00000000
00000000
00000000
00000000
01000000
00010000
00100000
01000000
,
10000000
00000000
00000000
11000000
00000000
00000000
10010000
00000000
,
10000000
00000000
01000000
00000000
01000000
00000000
01000000
00000000
00000000
10010000
00000000
00000000
,
10000000
01000000
00010000
00000000
01000000
00100000
00001000
00000000
,
00010000
00000010
00000100
00000000
00001000
00000100
00000001
00000010
,
00000000
00000010
00000001
00000000
00000100
00000010
00010000
00000000
,
00001000
01000000
00010000
00100000
01000000
10000000
00010000
01000000
,
00000000
01000000
00100000
00000000
10000000
01000000
00100000
00000000
,
00001000
00010000
00000100
00001000
00000010
00000100
00000001
00000010
,
00000001
00000001
00000100
00000010
00000010
00000100
00000001
00000000
,
00001000
00000100
00010000
00000000
00002000
00000000
02003000
00000000
,
03010000
00000000
00000000
00000000
00010000
00000000
10000000
00000000
00000000
00000000
10000000
00000000
,
01000000
00000000
00000000
00000000
01000000
00000000
00100000
00000000
00000000
00000000
00100000
00000000
,
00001000
00000000
00000000
00000000
00001000
00000000
00010000
00000000
00000000
00000000
00000000
00000000
,
00000100
00010000
00000010
00000100
,
00000001
00000000
00000000
00000000
00000010
00000000
00000001
00000000
00000000
00000100
00000000
00000000
,
00000010
00001000
00000100
00010000
,
00001000
00000000
00000000
00000000
01000000
00000000
00010000
00000000
00000000
10000000
00000000
00000000
,
01000000
00100000
01000000
10000000
,
00010000
00000000
00000000
00000000
00010000
00000000
01000000
00000000
00000000
00000000
01000000
00000000
,
00001000
00000000
00000000
00000000
00001000
00000000
00010000
00000000
00000000
00000000
00010000
00000000
,
00000100
00000000
00000000
00000000
00000100
00000000
00000010
00000000
00000000
00000001
00000000
00000000
,
00000100
00000010
00001000
00000100
,
00010000
00000000
00001000
00010000
00001000
00010000
00001000
01000000
,
00010000
01000000
00100000
10000000
,
01000000
00100000
01000000
00000000
10000000
00000000
00010000
00000000
,
01000000
00001000
00010000
00000100
,
00001000
00000000
00000001
00000100
00000000
00000001
00001000
00000000
,
00000100
00010000
00001000
00000000
01000000
00000000
00010000
00000000
,
00100000
00000000
01000000
10000000
00000000
01000000
00100000
00000000
,
00010000
01000000
00001000
00000000
00010000
00000100
00001000
00000000
,
00000001
00000000
00000100
00000010
00000000
00001000
00000100
00000000
,
00010000
00001000
01000000
00000000
00010000
00000000
10000000
00000000
,
01000000
00000000
00010000
00001000
00000000
00000100
00000001
00000000
,
00000010
00000001
00000100
00000000
00001000
00010000
01000000
00000000
,
10000000
00000000
00000000
10010000
00000000
00000000
00000000
00000000
,
00000000
00000000
00000000
00000000
00001000
00010000
00001000
00010000
,
00000100
00000000
00000000
00001100
00000000
00000000
00000000
00000000
,
00000000
00001000
00000001
00000100
00000010
00001000
00000100
00010000
,
00001000
00000000
00000000
01001000
00000000
01000000
00010000
00000000
,
10000000
01000000
00100000
00010000
01000000
00001000
01000000
00001000
,
00100000
00000000
00000000
00101000
00000000
00001000
00010000
00000000
,
00010000
00000100
00000010
00000001
00000100
00000010
00010000
00001000
,
01000000
00000000
00010000
00000000
00010000
00000000
10000000
00000000
01000000
00000000
01000000
00000000
,
00100000
00000000
00000000
00110000
00000000
00000000
11000000
00000000
,
00000000
00000000
00000000
00000000
10000000
01000000
00010000
00001000
,
00000100
00000000
00000000
00000101
00000000
00000000
00001001
00000000
,
00000000
00000000
00000000
00000000
00000001
00000100
00001000
00010000
,
01000000
00000000
00000000
11000000
00000000
00000000
10010000
00000000
,
00000000
00000000
00000000
00000000
10000000
00100000
00010000
00001000
,
00000010
00000000
00000000
00000011
00000000
00000000
00001001
00000000
,
00000001
00000000
00000100
00000000
00000010
00001000
00000100
00010000
,
00000100
00000000
00001000
00000010
00000000
00000010
00010000
00000000
,
00001000
01000000
00000000
00010000
00100000
01000000
10000000
00010000
,
01000000
00000000
00100000
10000000
00000000
00100000
01000000
00000000
,
00010000
00100000
00000000
00001000
00010000
00000100
00001000
00000010
,
00000100
00000000
00000001
00000010
00000000
00000001
00000100
00000000
,
00001000
00010000
00000000
01000000
10000000
00100000
10000000
01000000
,
00010000
00000000
00001000
00000100
00000000
00000001
00000010
00000000
,
00001000
00010000
01000000
00000000
10000000
00100000
10000000
00100000
,
01000000
00000000
00010000
00100000
00000000
00001000
00010000
00000000
,
00000100
00001000
00000000
00000010
00000100
00000001
00000010
00000000
,
00000001
00000000
00000100
00000010
00000000
00001000
00000100
00000000
,
00010000
00001000
00000000
00100000
00010000
01000000
00100000
00000000
,
10000000
00000000
01000000
00010000
00000000
00001000
00000100
00000000
,
00000001
00000010
00000000
00000001
00000100
00000010
00001000
00000000
,
00000100
00000000
00010000
00001000
00000000
01000000
00010000
00000000
,
00100000
01000000
00000000
10000000
01000000
00100000
00010000
00000000
,
10000000
00000000
01000000
00000000
10000000
00000000
00010000
00000000
01000000
00000000
00010000
00000000
,
00100000
00000000
00001000
00000000
00100000
00000000
00001000
00000000
00010000
00000000
00001000
00000000
,
00010000
00000000
00000100
00000000
00010000
00000000
00000100
00000000
00000010
00000000
00000100
00000000
,
00001000
00000000
00000001
00000000
00001000
00000000
00000001
00000000
00000100
00000000
00000001
00000000
,
00001000
00000000
00000010
00000000
00000100
00000000
00001000
00000000
00000100
00000000
00000010
00000000
,
00010000
00000000
00001000
00000000
00100000
00000000
00010000
00000000
01000000
00000000
00100000
00000000
,
10000000
00000000
01000000
00000000
00100000
00000000
00010000
00000000
00100000
00000000
01000000
00000000
,
10000000
00000000
01000000
00000000
00010000
00000000
00001000
00000000
00000100
00000000
00000001
00000000
;

//---------------dance-double - ----------------
#NOTES:
     dance-double:
     :
     Easy:
     9:
     0.412,0.502,0.026,0.120,0.052: // measure 1
00000000
00000000
00000000
00000000
,  // measure 2
00000000
00000000
00000000
00000000
,  // measure 3
00000000
00000000
00000000
00000000
,  // measure 4
00000000
00000000
00000000
00000000
,  // measure 5
10000000
00000000
01000000
00000000
,  // measure 6
00100000
00000000
00010000
00000000
,  // measure 7
00001000
00000000
00000100
00000000
,  // measure 8
00000010
00000000
00000001
00000000
,  // measure 9
00000100
00000000
00001000
00000000
,  // measure 10
00010000
00000000
00000000
00010000
00000000
00000000
00010000
00000000
,  // measure 11
00000000
00000000
00000000
00000000
01000000
00010000
01000000
00000000
,  // measure 12
10000000
00000000
00000000
10000000
00000000
00000000
10000000
00000000
,  // measure 13
00000000
00000000
00000000
00000000
00100000
00010000
00100000
00000000
,  // measure 14
00010000
00000000
00000000
00010000
00000000
00000000
00010000
00000000
,  // measure 15
00000000
00000000
00000000
00000000
00000100
00001000
00000100
00000000
,  // measure 16
00000010
00000000
00000000
00000010
00000000
00000000
00000010
00000000
,  // measure 17
00001001
00000000
00000100
00000000
00000100
00000000
00000100
00000000
00000000
00001001
00000000
00000000
,  // measure 18
00000001
00000100
00000010
00000000
00001000
00000000
00000100
00000000
,  // measure 19
00010000
00000000
00001000
00000000
00100000
00010000
01000000
00000000
,  // measure 20
00010000
10000000
01000000
00100000
,  // measure 21
00010000
00000000
01000000
00000000
00001000
00010000
00001000
00000000
,  // measure 22
00010000
00000100
00001000
00000010
,  // measure 23
00000100
00000001
00000010
00001000
,  // measure 24
00010000
00001000
00010000
00000000
01000000
00000000
10000000
00000000
,  // measure 25
00100000
01000000
00010000
00000000
20000000
00000000
32000000
00000000
,  // measure 26
03100000
00100000
01000000
01000000
,  // measure 27
10000000
00010000
01000000
00001000
,  // measure 28
00010000
00000100
00001000
00000001
,  // measure 29
00000100
00000100
00000010
00000000
,  // measure 30
00000100
00000001
00001000
00000100
,  // measure 31
00010000
00001000
01000000
00010000
,  // measure 32
10000000
00100000
01000000
00010000
,  // measure 33
00100000
00001000
00010000
00000100
,  // measure 34
00001000
00000001
00000100
00000010
,  // measure 35
00001000
00000100
00010000
00001000
,  // measure 36
00100000
00010000
01000000
00100000
,  // measure 37
10000000
00000000
01000000
00000000
00100000
00010000
00100000
00000000
,  // measure 38
01000000
00000000
10000000
00010000
10000000
00000000
00010000
00000000
,  // measure 39
01000000
00001000
00010000
00000100
,  // measure 40
00001000
00000010
00001000
00000000
00000100
00000000
00000010
00000000
,  // measure 41
00000001
00000001
00000100
00000100
,  // measure 42
00000001
00000000
00000000
00000001
00000000
00000000
00000001
00000000
,  // measure 43
00001000
00000100
00001000
00000000
00000200
00000000
00000300
00000000
,  // measure 44
00010000
00000000
00000000
00010000
00000000
00000000
00010000
00000000
,  // measure 45
00001000
01000000
00001000
00000000
00100000
00000000
00010000
00000000
,  // measure 46
01000000
00000000
00000000
01000000
00000000
00000000
01000000
00000000
,  // measure 47
00100000
10000000
00100000
00000000
02000000
00000000
03000000
00000000
,  // measure 48
00010000
00000000
00000000
00010000
00000000
00000000
00010000
00000000
,  // measure 49
00100000
00001000
00100000
00000000
00001000
00010000
00000100
00000000
,  // measure 50
00001000
00000000
00000000
00001000
00000000
00000000
00000000
00000000
,  // measure 51
00000000
00000000
00000000
00000000
00000000
00000001
00000000
00000001
,  // measure 52
00000100
00000000
00000000
00000100
00000000
00000000
00000000
00000000
,  // measure 53
00000000
00000010
00000000
00001000
00000010
00000000
00001000
00000000
,  // measure 54
00000100
00000000
00000000
00000100
00000000
00000000
00000100
00000000
,  // measure 55
00010000
00001000
01000000
00010000
,  // measure 56
10000000
00000000
00000000
10000000
00000000
00000000
10000000
00000000
,  // measure 57
01000000
00010000
00001000
00000100
,  // measure 58
00000002
00000000
00002003
00000000
,  // measure 59
00003010
00000000
00000000
00010000
00000000
00000000
00001000
00000000
,  // measure 60
00000000
00000000
00100000
00010000
,  // measure 61
01000000
00000000
00000000
01000000
00000000
00000000
01000000
00000000
,  // measure 62
00000000
00000000
00100000
10000000
,  // measure 63
01000000
00000000
00000000
01000000
00000000
00000000
01000000
00000000
,  // measure 64
00000000
00000000
00010000
00001000
,  // measure 65
00000100
00000000
00000000
00000100
00000000
00000000
00000100
00000000
,  // measure 66
00000001
00000001
00001000
00001001
,  // measure 67
00000001
00000000
00000001
00000010
00000000
00000010
00000100
00000000
,  // measure 68
00001000
00000100
00010000
00001000
,  // measure 69
01000000
00000000
01000000
00010000
00000000
00010000
00100000
00000000
,  // measure 70
01000000
10000000
00100000
01000000
,  // measure 71
00010000
00000000
00010000
01000000
00000000
01000000
00001000
00000000
,  // measure 72
00010000
00000100
00001000
00000010
,  // measure 73
00000100
00000000
00000001
00000010
00000000
00000010
00000001
00000000
,  // measure 74
00000100
00000000
00000010
00000000
00001000
00000100
00001000
00000000
,  // measure 75
00000100
00000000
00000100
00010000
00000000
00010000
00001000
00000000
,  // measure 76
01000000
00010000
00100000
01000000
,  // measure 77
10000000
00000000
10000000
01000000
00000000
01000000
00010000
00000000
,  // measure 78
00001000
00000100
00000001
00000010
,  // measure 79
00000001
00000000
00000001
00000100
00000000
00000100
00000010
00000000
,  // measure 80
00001000
00000000
00000100
00000000
00010000
00001000
00010000
00000000
,  // measure 81
00001000
00000000
00100000
00010000
00000000
00010000
01000000
00000000
,  // measure 82
00100000
10000000
01000000
00100000
,  // measure 83
00020000
00000000
20030000
00000000
,  // measure 84
32000000
00000000
03020000
00000000
,  // measure 85
00032000
00000000
00003200
00000000
,  // measure 86
00000302
00000000
00000023
00000000
,  // measure 87
00000130
00000000
00000000
00000000
00000100
00000000
00010000
00000000
00000000
00000000
00010000
00000000
,  // measure 88
00001000
00000000
00000000
00000000
00001000
00000000
01000000
00000000
00000000
00000000
01000000
00000000
,  // measure 89
00010000
00000000
00000000
00000000
00010000
00000000
10000000
00000000
00000000
00000000
10000000
00000000
,  // measure 90
01000000
00000000
00100000
00000000
00100000
00000000
00010000
00000000
01000000
00000000
01000000
00000000
;
