#TITLE:meme;
#SUBTITLE:;
#ARTIST:Zektbach;
#TITLETRANSLIT:;
#SUBTITLETRANSLIT:;
#ARTISTTRANSLIT:;
#GENRE:;
#CREDIT:;
#MENUCOLOR:;
#METERTYPE:DDR;
#BANNER:meme.png;
#BACKGROUND:meme-bg.png;
#LYRICSPATH:;
#CDTITLE:cdtitle.png;
#MUSIC:meme.mp3;
#OFFSET:-0.028;
#SAMPLESTART:80.535;
#SAMPLELENGTH:15.000;
#SELECTABLE:YES;
#LISTSORT:;
#BPMS:0.000=155.000;
#STOPS:;
#BGCHANGES:;
#ATTACKS:;

//---------------dance-single - ----------------
#NOTES:
     dance-single:
     :
     Hard:
     14:
     0.690,0.816,0.124,0.290,0.439:
0000
0000
0000
0000
,
0000
0000
0000
0000
,
0000
0000
0000
0000
,
0000
0000
0000
0000
,
0020
0000
0000
0000
,
0200
0030
0302
0023
,
0200
0000
0000
0030
,
1300
0000
0000
0000
0110
0000
0000
0001
0000
0000
1000
0000
0001
0000
0100
0010
,
1000
0000
0001
0100
0000
1000
0100
0000
,
0010
1000
0100
0001
0000
0100
1000
0000
,
0010
0000
0100
1000
0000
0100
0001
0000
,
0010
0000
0100
0000
0001
0000
0100
0000
0000
0000
1000
0000
0010
0000
0100
0001
,
0100
0000
0010
1000
0000
0100
0001
0000
,
0100
1000
0010
0100
0000
1000
0100
0000
,
0001
0000
0010
0100
0000
0001
0100
0000
,
1000
0000
0010
0000
0001
0000
0010
0000
0000
0000
0100
0000
1000
0000
0100
0001
,
2000
0000
0100
0100
3002
0000
0100
0100
,
2003
0000
0010
0010
3002
0000
0010
0010
,
1003
0100
0001
0100
0010
1000
0010
0001
,
0100
0000
0010
0000
1000
0000
0100
0000
0010
0000
0001
0000
0100
0000
0010
1000
,
0002
0000
0100
0100
2003
0000
0100
0100
,
3002
0000
0010
0010
2003
0000
0010
0010
,
3001
0100
1000
0100
0010
0001
0010
1000
,
0100
0000
0010
0000
0001
0000
0100
0000
0010
0000
1000
0000
0100
0000
0010
0001
,
1000
0000
0100
0000
0010
0000
0001
0000
0100
0010
0100
0000
0001
0000
1000
0000
,
0001
0000
0010
0000
0100
0000
1000
0000
0010
0100
0010
0000
1000
0000
0001
0000
,
1000
0000
0100
0000
0010
0000
0001
0000
1000
0010
1000
0000
0001
0000
0010
0000
,
0001
0000
0100
0000
0010
0000
1000
0000
0001
0010
0001
0000
1000
0000
0010
0000
,
1000
0000
0100
0000
0010
0000
0010
0000
0001
0100
0001
0000
1000
0100
1000
0000
,
0001
0000
0100
0000
0010
0000
0010
0000
1000
0100
1000
0000
0001
0100
0001
0000
,
1000
0000
0001
0000
0100
0000
0100
0000
0010
1000
0010
0000
0100
0001
0100
0000
,
0001
0000
1000
0000
0100
0000
0100
0000
0010
0001
0010
0000
0100
1000
0100
0000
,
0010
0001
1000
0000
0010
0000
0100
0000
0001
1000
0100
0000
1000
0001
0100
0000
,
0010
1000
0001
0000
0010
0000
0100
0000
1000
0001
0100
0000
0001
1000
0100
0000
,
1000
0010
0100
0000
0001
0000
1000
0000
0100
0010
0001
0000
0100
0010
1000
0000
,
0001
0010
0100
0000
1000
0000
0001
0000
1000
0010
0100
0000
0001
0010
0100
0000
,
1000
0001
0100
0000
1000
0000
1000
0000
0100
0010
1000
0000
0100
0010
0100
0010
,
0001
1000
0100
0000
0001
0000
0001
0000
0100
0010
0001
0000
0100
0010
0100
0010
,
1000
0100
0010
0000
0100
0000
0100
0000
1000
0010
0100
0000
0010
1000
0010
0100
,
0001
0100
0010
0000
0100
0000
0100
0000
0001
0010
0100
0000
0010
0001
0010
0100
,
1000
0000
0000
0000
,
0000
0000
0000
0000
,
0000
0000
0000
0000
,
0000
0000
0000
0000
,
0001
0100
0010
0000
0110
0000
0100
0001
0000
2000
0000
0000
3100
0000
0000
0000
,
1000
0100
0010
0000
0110
0000
0100
1000
0000
0002
0000
0000
0103
0000
0000
0000
,
0010
1000
0100
0000
0110
0000
0010
0001
0000
0200
0000
0000
0310
0000
0000
0000
,
0100
0001
0010
0000
0110
0000
0100
1000
0000
0020
0000
0000
0130
0000
0000
0000
,
0001
0100
0010
0000
1000
0100
0010
0001
0000
2001
0000
0000
3010
0000
0000
0000
,
1000
0100
0010
0000
0001
0100
0010
1000
0000
1002
0000
0000
0013
0000
0000
0000
,
0100
1000
0010
0000
0100
0001
0010
0100
0000
2100
0000
0000
3010
0000
0000
0000
,
0100
0001
0010
0000
0100
1000
0010
0100
0000
0102
0000
0000
1003
0000
0000
0000
,
0012
0000
0013
0100
2000
0000
3010
0100
,
2000
0000
3100
0001
0020
0000
0230
1000
,
0010
0310
0002
1000
0100
0103
0020
1000
,
0100
0130
0001
1000
0110
0110
0001
0010
,
2100
0000
3001
0100
2000
0000
3100
0010
,
2000
0000
3100
0010
0002
0000
0203
0010
,
0001
0301
2000
0001
0100
3100
0020
0100
,
0001
0031
1000
0100
1001
1001
0010
0001
,
1000
0000
0001
0100
0010
0100
0001
0000
1000
0000
0100
0000
0010
0100
1000
0000
,
0001
0000
0100
0010
1000
0010
0100
0000
0001
1000
0100
0000
1000
0001
0100
0000
,
0001
0000
1000
0100
0010
0100
1000
0000
0001
0000
0100
0000
0010
0100
0001
0000
,
1000
0000
0100
0010
0001
0010
0100
0000
1000
0001
0100
0000
0001
1000
0100
0000
,
0010
0000
0001
0100
0010
0100
0001
0000
1000
0000
0100
0000
0010
0100
1000
0000
,
0001
0000
0100
0010
0100
0010
1000
0100
0010
0001
0010
0100
1000
0001
1000
0000
,
0010
0000
1000
0100
0010
0100
1000
0000
0001
0000
0100
0000
0010
0100
0001
0000
,
1000
0000
0100
0010
0100
0010
0001
0100
0010
1000
0010
0100
0001
1000
0001
0000
,
0100
0000
0010
1000
0000
0000
0001
0010
,
0000
0000
0100
1000
0000
0000
0001
0100
,
0000
0010
0000
0100
,
0000
0001
0000
0010
,
0100
0000
1000
0100
0000
0000
0001
0100
,
0000
0000
1000
0010
0000
0000
0001
0010
,
0000
1000
0000
0001
,
0000
0000
0010
0000
0000
0000
0100
0100
;

//---------------dance-single - ----------------
#NOTES:
     dance-single:
     :
     Medium:
     11:
     0.470,0.565,0.000,0.033,0.070:
0000
0000
0000
0000
,
0000
0000
0000
0000
,
0000
0000
0000
0000
,
0000
0000
0000
0000
,
1000
0000
0001
0000
,
0010
0000
0100
1000
,
0010
0000
0100
0000
,
0001
0000
0000
0000
1000
0000
0000
0010
0000
0000
0010
0000
0100
0000
0001
0000
,
1000
0000
0100
0010
0000
0000
0001
0100
,
0000
0000
0010
1000
0000
0000
0001
0010
,
0000
0100
0000
1000
,
0000
0010
0000
0100
,
0001
0000
0010
0100
0000
0000
0001
0100
,
0000
0000
1000
0100
0000
0000
0010
0001
,
0000
0100
0000
0010
,
0000
1000
0000
0001
,
0020
0001
0100
0001
,
1000
0000
0001
0000
1000
0000
0031
1000
,
0200
0001
0010
0001
,
1000
0000
0010
0000
1000
0000
0310
0001
,
2000
0100
0001
0100
,
0001
0000
0010
0000
0001
0000
3100
0010
,
0002
0100
1000
0100
,
1000
0010
1000
0103
,
0001
0100
0001
0100
0010
1000
0100
0000
,
1000
0100
1000
0100
0010
0001
0100
0000
,
0001
0010
0001
0010
0100
1000
0010
0000
,
1000
0010
1000
0010
0100
0001
0010
0000
,
0001
0100
1000
0100
0001
0100
0010
0000
,
1000
0100
0001
0100
1000
0100
0010
0000
,
0001
0010
1000
0010
0001
0010
0100
0000
,
1000
0010
0001
0010
1000
0010
0100
0000
,
0001
0010
0100
1000
0001
0100
1000
0010
,
0001
1000
0100
0010
0001
0100
1000
0010
,
0001
1000
0010
0100
0001
0010
1000
0100
,
0001
0100
0010
1000
0100
0001
0010
1000
,
0100
1000
0010
0100
0001
0100
1000
0010
,
0001
0100
0010
1000
0100
0001
0010
1000
,
0100
0010
0001
0100
0010
1000
0100
0001
,
0010
0100
0001
1000
0001
0010
1000
0100
,
0001
0000
0000
0000
,
0000
0000
0000
0000
,
0000
0000
0000
0000
,
0000
0000
0000
0000
,
1000
0000
0100
0000
0010
0000
0001
0000
0000
0010
0000
0000
0010
0000
0000
0000
,
0001
0000
0100
0000
0010
0000
1000
0000
0000
0010
0000
0000
0010
0000
0000
0000
,
1000
0000
0010
0000
0100
0000
0001
0000
0000
0010
0000
0000
0010
0000
0000
0000
,
0001
0000
0010
0000
0100
0000
1000
0000
0000
0010
0000
0000
0010
0000
0000
0000
,
1000
0000
0010
0000
0100
0000
0001
1000
0000
0100
0000
0000
0010
0000
0000
0000
,
0001
0000
0010
0000
0100
0000
1000
0001
0000
0100
0000
0000
0010
0000
0000
0000
,
1000
0000
0100
0000
0001
0000
0100
0010
0000
0001
0000
0000
0100
0000
0000
0000
,
0001
0000
0100
0000
1000
0000
0100
0010
0000
1000
0000
0000
0100
0000
0100
0000
,
0010
0000
0001
0100
0000
0001
0010
0100
,
1000
0000
0100
0010
0001
0001
0100
0010
,
1000
0000
0001
0100
0000
0010
1000
0000
,
0100
0010
0001
0100
1000
0100
0001
0010
,
0100
0000
1000
0001
0000
0100
0010
0000
,
1000
0100
0010
0001
0100
0100
0010
0000
,
1000
0000
0001
0100
0000
0010
1000
0000
,
0100
0001
0100
1000
0010
0010
0100
0001
,
0010
0100
0010
0100
1000
0001
1000
0001
,
0100
0000
1000
0000
0100
0000
0001
0000
0010
0000
0100
0000
1000
0001
0010
0000
,
0001
0100
0001
0100
0010
1000
0010
1000
,
0001
0000
0010
0000
1000
0000
0010
0000
0001
0000
0100
0000
0010
1000
0001
0000
,
1000
0001
1000
0001
0100
0010
0100
0010
,
1000
0000
0100
0000
0010
0000
0001
0000
1000
0000
0010
0000
0100
0001
1000
0000
,
0001
0010
0001
0010
0100
1000
0100
1000
,
0001
0000
0100
0000
1000
0000
0100
0000
0001
0000
0010
0000
0100
1000
0001
0000
,
1000
0000
0001
0100
0000
0000
0010
1000
,
0000
0000
0100
0010
0000
0000
0001
0100
,
0000
0010
0000
0100
,
0000
0001
0000
1000
,
0100
0000
0010
0100
0000
0000
1000
0100
,
0000
0000
0010
0001
0000
0000
0100
0010
,
0000
0100
0000
0001
,
0000
0000
1000
0000
0000
0000
0100
0100
;

//---------------dance-single - ----------------
#NOTES:
     dance-single:
     :
     Easy:
     8:
     0.349,0.377,0.000,0.099,0.000:
0000
0000
0000
0000
,
0000
0000
0000
0000
,
0000
0000
0000
0000
,
0000
0000
0000
0000
,
0010
0000
0100
0000
,
1000
0000
0001
0100
,
0010
0000
0100
0000
,
0001
0000
1000
0000
0001
0000
0100
0010
,
1000
0001
0000
0001
,
0010
0100
0000
0100
,
1000
0010
0000
0010
,
0100
0000
0001
0000
0100
0000
0010
1000
,
0001
0100
0000
0100
,
0010
0001
0000
0001
,
0010
1000
0000
1000
,
0100
0000
0010
0000
0001
0000
0100
0001
,
0020
0001
0030
0001
,
0200
0010
0300
0010
,
2000
0100
3000
0100
,
0020
0000
0001
0000
0130
0000
1000
0001
,
0020
0100
0030
0100
,
0002
0010
0003
0010
,
0200
1000
0300
1000
,
0020
0000
0100
0000
1030
0000
0001
1000
,
0010
0000
0010
0000
0001
0100
0001
0000
,
0010
0010
0100
0100
,
1000
0000
1000
0000
0001
0100
0001
0000
,
1000
1000
0010
0010
,
0100
0000
0100
0000
0001
0010
0001
0000
,
0100
0100
0010
0010
,
1000
0000
1000
0000
0001
0010
0001
0000
,
0100
0100
0001
0001
,
1000
0000
1000
0000
0100
0010
0100
0000
,
1000
0000
1000
0000
0001
1000
0001
0000
,
0100
0000
0100
0000
0010
1000
0010
0000
,
0100
0000
0100
0000
0001
0010
0001
0000
,
0010
0000
0010
0000
0100
1000
0100
0000
,
0010
0000
0010
0000
0001
0100
0001
0000
,
0100
0000
0100
0000
0001
1000
0001
0000
,
0010
0000
0010
0000
0100
0010
0100
0000
,
1000
0000
0000
0000
,
0010
0000
0000
0000
,
0100
0000
0000
0000
,
1000
0000
0000
0000
,
0001
0000
0100
0000
0010
0100
0001
0000
,
1000
0000
0100
0000
0010
0100
1000
0000
,
0001
0000
0010
0000
0100
0010
0001
0000
,
1000
0000
0010
0000
0100
0010
1000
0000
,
0001
0000
0100
0000
1000
0100
0001
0000
,
1000
0000
0100
0000
0001
0100
1000
0000
,
0001
0000
0010
0000
1000
0010
0001
0000
,
1000
0000
0010
0000
0001
0010
1000
0000
,
0020
0100
1000
0130
,
0002
0010
0100
0013
,
0100
1000
0001
0100
,
0010
1000
0100
0000
0100
1000
0010
0100
,
0002
0010
1000
0013
,
0200
1000
0010
1300
,
0010
0100
0001
0010
,
0100
1000
0001
0000
0001
0100
0010
1000
,
0100
0010
0100
1000
,
0001
0000
0100
0000
0010
0100
0001
0000
,
1000
0010
0100
0001
,
0010
0000
0100
0000
1000
0010
0100
0000
,
0001
0100
0010
1000
,
0100
0010
0001
0000
0001
0010
0100
0000
,
1000
0010
0100
0001
,
0010
0100
1000
0000
1000
0100
0001
0100
,
0010
0001
0000
0100
,
0000
1000
0000
0010
,
0000
1000
0000
0100
,
0000
0001
0000
0010
,
0000
0100
0000
1000
,
0000
0010
0000
0001
,
0000
0100
0000
1000
,
0000
0000
0001
0000
0000
0000
0100
0100
;

//---------------dance-single - ----------------
#NOTES:
     dance-single:
     :
     Beginner:
     4:
     0.155,0.220,0.000,0.000,0.000:
0000
0000
0000
0000
,
0000
0000
0000
0000
,
0000
0000
0000
0000
,
0000
0000
0000
0000
,
0100
0000
0000
0000
,
0010
0000
0000
0000
,
0100
0000
0000
0000
,
0010
0000
0010
0000
,
0100
0000
0000
0000
,
0100
0000
0000
0000
,
0001
0000
0000
0000
,
1000
0000
1000
0000
,
0100
0000
0000
0000
,
0010
0000
0000
0000
,
0001
0000
0000
0000
,
0100
0000
0100
0000
,
0010
0000
0010
0000
,
0100
0000
0100
0000
,
0010
0000
0010
0000
,
0100
0100
0100
0000
,
0001
0000
0001
0000
,
1000
0000
1000
0000
,
0001
0000
0001
0000
,
1000
1000
1000
0000
,
0001
0000
0001
0000
,
1000
0000
1000
0000
,
0001
0000
0001
0000
,
1000
0000
1000
0000
,
0010
0000
0010
0000
,
0100
0000
0100
0000
,
0010
0000
0010
0000
,
0100
0000
0100
0000
,
0001
0000
0001
0000
,
0010
0000
0010
0000
,
0100
0000
0100
0000
,
1000
0000
1000
0000
,
0001
0000
0001
0000
,
0100
0000
0100
0000
,
0010
0000
0010
0000
,
1000
0000
1000
0000
,
0001
0000
0000
0000
,
0000
0000
0000
0000
,
0000
0000
0000
0000
,
0000
0000
0000
0000
,
1000
1000
1000
0000
,
0001
0001
0001
0000
,
1000
1000
1000
0000
,
0001
0001
0001
0000
,
0100
0100
0100
0000
,
0010
0010
0010
0000
,
0100
0100
0100
0000
,
0010
0010
0010
0000
,
1000
0000
1000
0000
,
0001
0000
0001
0000
,
1000
0000
0001
0000
,
1000
0000
1000
0000
,
0001
0000
0001
0000
,
1000
0000
1000
0000
,
0001
0000
1000
0000
,
0001
0000
0001
0000
,
0010
0000
0010
0000
,
0100
0000
0100
0000
,
0010
0000
0100
0000
,
0010
0000
0010
0000
,
0100
0000
0100
0000
,
0010
0000
0010
0000
,
0100
0000
0010
0000
,
0100
0000
0100
0000
,
0010
0000
0000
0000
,
0100
0000
0000
0000
,
0001
0000
0000
0000
,
1000
0000
0000
0000
,
0100
0000
0000
0000
,
0010
0000
0000
0000
,
0001
0000
0000
0000
,
0100
0000
0000
0000
,
0010
0000
0000
0000
;

//---------------dance-double - ----------------
#NOTES:
     dance-double:
     :
     Hard:
     14:
     0.663,0.722,0.066,0.240,0.414:
00000000
00000000
00000000
00000000
,
00000000
00000000
00000000
00000000
,
00000000
00000000
00000000
00000000
,
00000000
00000000
00000000
00000000
,
00020000
00000000
00000000
00000000
,
02030000
00000000
23000000
30200000
,
00320000
00000000
00000000
00030000
,
00011000
00000000
00000000
00000000
00001000
00000000
00000000
00000100
00000000
00000000
00000001
00000000
00000010
00000000
00000100
00010000
,
00001000
00000000
00010000
00001000
00000000
00001000
01000000
00000000
,
00100000
00000000
01000000
00000000
00010000
00000000
10000000
01000000
00000000
01000000
10000000
00000000
00010000
00000000
00000000
00000000
,
00100000
00000000
01000000
10000000
00000000
10000000
00010000
00000000
,
01000000
00000000
00001000
00000000
00010000
00000000
00000100
00001000
00000000
00001000
00000010
00000000
00001000
00000000
00000100
00010000
,
00001000
00000000
00010000
00001000
00000000
00010000
00000100
00000000
,
00000010
00000000
00000100
00000000
00001000
00000000
00000001
00000100
00000000
00000100
00000001
00000000
00001000
00000000
00000000
00000000
,
00000010
00000000
00000100
00000001
00000000
00000001
00001000
00000000
,
00000100
00000000
00010000
00000000
00001000
00000000
01000000
00010000
00000000
00010000
00100000
00000000
00010000
00000000
01000000
00001000
,
00020000
00000000
00031000
00000100
00000010
00010000
00001000
00000000
,
00010000
00000000
00001000
00000000
01000000
00000000
00010000
00100000
00000000
00100000
00010000
00000000
01000000
00000000
00100000
00000000
,
20000000
00000000
30010000
01000000
00001000
01000000
00100000
00000000
,
00010000
00000000
00001000
00000000
00000100
00000000
00000010
00001000
00000000
00001000
00000100
00000000
00000010
00000000
00000100
00010000
,
00002000
00000000
00013000
01000000
00100000
00001000
00010000
00000000
,
00001000
00000000
00010000
00000000
00000100
00000000
00001000
00000010
00000000
00000010
00001000
00000000
00000100
00000000
00000010
00000000
,
00000002
00000000
00001003
00000100
00010000
00000100
00000010
00000000
,
00001000
00000000
00010000
00000000
01000000
00000000
00100000
00010000
00000000
00010000
01000000
00000000
00100000
00000000
01000000
00001000
,
00010000
00000000
00001000
00000000
01000000
00000000
00010000
00000000
10000000
01000000
10000000
00000000
00100000
00000000
10000000
00000000
,
00010000
00000000
01000000
00000000
00001000
00000000
00010000
00000000
00000100
00001000
00000100
00000000
00000010
00000000
00000100
00000000
,
00010000
00000000
00001000
00000000
01000000
00000000
00010000
00000000
00100000
01000000
00100000
00000000
00010000
00000000
00100000
00000000
,
00001000
00000000
00010000
00000000
00000100
00000000
00001000
00000000
00000010
00000100
00000010
00000000
00001000
00000000
00000001
00000000
,
00000010
00000000
00000100
00000000
00010000
00000000
00001000
00000000
00010000
00000100
00010000
00000000
00001000
01000000
00001000
00000000
,
00010000
00000000
00000100
00000000
00001000
00000000
00000010
00000000
00000100
00000001
00000100
00000000
00000010
00001000
00000010
00000000
,
00010000
00000000
00001000
00000000
01000000
00000000
00010000
00000000
00100000
01000000
00100000
00000000
00010000
10000000
00010000
00000000
,
00100000
00000000
00001000
00000000
00010000
00000000
00000100
00000000
00001000
00000010
00001000
00000000
00000001
00000100
00000001
00000000
,
00000010
00000000
00000100
00000000
00010000
00000000
00001000
00000000
01000000
00001000
00000000
00001000
01000000
00000000
00010000
10000000
,
01000000
00000000
00010000
00000000
00001000
00000000
00000100
00000000
00000001
00000010
00000000
00000010
00000001
00000000
00000100
00000010
,
00010000
00000000
00001000
00000000
01000000
00000000
00010000
00000000
00100000
01000000
00000000
01000000
10000000
00000000
01000000
00100000
,
00001000
00000000
00010000
00000000
00000100
00000000
00001000
00000000
00000010
00000100
00000000
00000100
00000001
00000000
00001000
00000100
,
00010000
00000000
00001000
00000000
01000000
00000000
00010000
00000000
10000000
01000000
10000000
00000000
01000000
00100000
01000000
00100000
,
00010000
00000000
00100000
00000000
00001000
00000000
00010000
00000000
00000100
00001000
00000100
00000000
00000010
00000001
00000010
00000001
,
00000100
00000000
00000010
00000000
00001000
00000000
00000100
00000000
00010000
00001000
00010000
00000000
00001000
01000000
00001000
01000000
,
00100000
00000000
10000000
00000000
01000000
00000000
00100000
00000000
00001000
00010000
00001000
00000000
01000000
00010000
10000000
01000000
,
00200000
00000000
00000000
00000000
,
02300000
00000000
00000000
00000000
,
23000000
00000000
00000000
00000000
,
00000000
00000000
30020000
00000000
,
01030000
00100000
10000000
00000000
01000000
00000000
00100000
00001000
00000000
00020000
00000000
00000000
00031000
00000000
00000000
00000000
,
00010000
00000100
00001000
00000000
00000010
00000000
00000100
00000001
00000000
00000020
00000000
00000000
00000130
00000000
00000000
00000000
,
00001000
00000100
00010000
00000000
00001000
00000000
01000000
00010000
00000000
00200000
00000000
00000000
01300000
00000000
00000000
00000000
,
10000000
01000000
00100000
00000000
00001000
00000000
00010000
00000100
00000000
00000020
00000000
00000000
00000031
00000000
00000000
00000000
,
00000001
00000100
00000010
00000000
00001000
00000100
00010000
00001000
00000000
02000000
00000000
00000000
03100000
00000000
00000000
00000000
,
10000000
01000000
00100000
00000000
00010000
01000000
00001000
00010000
00000000
00000200
00000000
00000000
00000310
00000000
00000000
00000000
,
00000001
00000100
00000010
00000000
00010000
00001000
00100000
00010000
00000000
20000000
00000000
00000000
31000000
00000000
00000000
00000000
,
10000000
01000000
00100000
00000000
00001000
00010000
00000100
00001000
00000000
00000002
00000000
00000000
00000013
00000000
00000010
00000000
,
00000012
00000000
00000013
00000100
00020000
00000000
00030010
00001000
,
00200000
00000000
01300000
00010000
00000200
00000000
00000310
00010000
,
00100000
00100000
00010000
00001000
01000000
01000000
00010000
00100000
,
01000000
01000000
10000000
00010000
01100000
01100000
10000000
00100000
,
20100000
00000000
31000000
00010000
00002000
00000000
00103000
00010000
,
00000020
00000000
00000130
00001000
02000000
00000000
03100000
00001000
,
00000010
00000010
00001000
00010000
00000100
00000100
00001000
00000010
,
00000100
00000100
00000001
00001000
00000110
00000110
00000001
00000100
,
00000101
00000000
00000001
00000100
00000001
00000000
00001000
00000000
00000100
00000000
00010000
00000000
00001000
00000000
01000000
00000000
,
00010000
00000000
00100000
01000000
00100000
00000000
00010000
00000000
01000000
00000000
00100000
00000000
10000000
00000000
01000000
00000000
,
00100000
00000000
00010000
01000000
00010000
00000000
10000000
00000000
01000000
00000000
00010000
00000000
00001000
00000000
00000010
00000000
,
00000001
00000000
00000100
00001000
00000100
00000000
00000001
00000000
00001000
00000000
00000100
00000000
00010000
00000000
01000000
00000000
,
10000000
00000000
00100000
01000000
00100000
00000000
10000000
00000000
01000000
00000000
00010000
00000000
00001000
00000000
00000010
00000000
,
00000001
00000000
00000100
00000010
00000100
00000000
00000001
00000000
00001000
00000100
00001000
00000000
00000100
00010000
00000100
00000000
,
00001000
00000000
00000001
00000100
00000010
00000000
00001000
00000000
00000100
00000000
00010000
00000000
00001000
00000000
01000000
00000000
,
00100000
00000000
10000000
01000000
10000000
00000000
00010000
00000000
01000000
00001000
01000000
00001000
00100000
00010000
00100000
00010000
,
10000000
00000000
01000000
00100000
00000000
00000000
00010000
00001000
,
00000000
00000000
00000100
00000010
00000000
00000000
00000001
00000100
,
00000000
00000010
00000000
00000100
,
00000000
00000001
00000000
00001000
,
00000001
00000000
00000010
00000100
00000000
00000000
00001000
00010000
,
00000000
00000000
00100000
01000000
00000000
00000000
10000000
00010000
,
00000000
10000000
00000000
01000000
,
00000000
00000000
00100000
00000000
00000000
00000000
00010000
00010000
;

//---------------dance-double - ----------------
#NOTES:
     dance-double:
     :
     Medium:
     11:
     0.511,0.565,0.000,0.108,0.070:
00000000
00000000
00000000
00000000
,
00000000
00000000
00000000
00000000
,
00000000
00000000
00000000
00000000
,
00000000
00000000
00000000
00000000
,
00020000
00000000
00000000
00000000
,
00032000
00000000
00003200
00000000
,
00000320
00000000
00000000
00000000
,
00001030
00000000
00000000
00000000
00000001
00000000
00000000
00000100
00000000
00000000
00000100
00000000
00000010
00000000
00001000
00000000
,
00000100
00000000
00010000
00001000
00000000
00010000
01000000
00000000
,
10000000
00100000
01000000
10000000
00000000
01000000
00010000
00000000
,
00100000
00000000
00001000
00010000
00000000
00000100
00001000
00000000
,
00000010
00000100
00000001
00000000
00000010
00000001
00000100
00000000
,
00000010
00000000
00001000
00000100
00000000
00010000
00001000
00000000
,
01000000
00001000
00010000
01000000
00000000
10000000
00100000
00000000
,
10000000
00000000
01000000
00010000
00000000
00001000
00000010
00000000
,
00000001
00000100
00000001
00000000
00001000
00000100
00010000
00001000
,
02000000
00100000
10000000
03010000
,
10000000
01000000
00010000
00000000
00001000
00000010
00000001
00000000
,
00000200
00001000
00000010
00000301
,
00001000
00000100
00010000
00000000
00001000
01000000
00010000
01000000
,
00200000
00010000
01000000
10300000
,
10000000
01000000
00010000
00000000
00001000
00000010
00000001
00000000
,
00000020
00000100
00001000
00000031
,
00000001
00000100
00001000
00000000
00010000
00100000
10000000
00100000
,
01000000
01000000
00100000
10000000
01000000
01000000
00010000
00001000
,
00000010
00000010
00000001
00000100
00000010
00000010
00001000
00000100
,
00010000
00010000
00001000
01000000
00100000
00100000
10000000
01000000
,
00010000
00010000
00001000
00000010
00000001
00000001
00000100
00000010
,
00001000
00001000
00000100
00010000
00001000
00001000
01000000
00100000
,
10000000
10000000
01000000
00010000
00001000
00001000
00000010
00000001
,
00000100
00000100
00000001
00001000
00000100
00000100
00010000
00001000
,
01000000
01000000
00010000
00100000
01000000
01000000
10000000
00010000
,
01000000
01000000
00100000
10000000
01000000
00010000
00001000
00000010
,
00000001
00000001
00000100
00000010
00000001
00000010
00001000
00010000
,
01000000
01000000
00100000
10000000
01000000
00010000
00001000
00000010
,
00000001
00000001
00001000
00000100
00000001
00000100
00001000
00010000
,
00100000
00100000
01000000
10000000
00100000
00010000
00001000
00000100
,
00000001
00000001
00000010
00000001
00000100
00001000
00010000
00100000
,
10000000
10000000
00100000
01000000
10000000
01000000
00010000
00001000
,
00000010
00000010
00000100
00000001
00000010
00001000
00010000
01000000
,
20000000
00000000
00000000
00000000
,
00000000
00000000
00000000
00000000
,
00000000
00000000
00000000
00000000
,
00000000
00000000
00000000
30000000
,
10000000
00000000
01000000
00000000
00010000
00000000
00001000
00000000
00000000
00000010
00000000
00000000
00000010
00000000
00000000
00000000
,
00000001
00000000
00000100
00000000
00001000
00000000
00010000
00000000
00000000
00100000
00000000
00000000
00100000
00000000
00000000
00000000
,
10000000
00000000
01000000
00000000
00010000
00000000
00001000
00000000
00000000
00000100
00000000
00000000
00000100
00000000
00000000
00000000
,
00000001
00000000
00000010
00000000
00001000
00000000
00010000
00000000
00000000
00100000
00000000
00000000
00100000
00000000
00000000
00000000
,
10000000
00000000
01000000
00000000
00010000
00000000
00001000
00000010
00000000
00000002
00000000
00000000
00001003
00000000
00000000
00000000
,
00000001
00000000
00000100
00000000
00001000
00000000
00010000
00100000
00000000
20000000
00000000
00000000
30010000
00000000
00000000
00000000
,
10000000
00000000
00100000
00000000
00010000
00000000
00001000
00000100
00000000
00000002
00000000
00000000
00001003
00000000
00000000
00000000
,
00000001
00000000
00000010
00000000
00001000
00000000
00010000
01000000
00000000
20000000
00000000
00000000
30010000
00000000
00000000
00000000
,
10000000
00000000
01000000
00100000
00000000
00010000
01000000
00000000
,
00001000
00010000
00000100
00001000
00000000
00000100
00010000
00000000
,
00001000
00000000
01000000
00001000
00000000
00010000
00000100
00000000
,
00001000
00000010
00000100
00000010
00001000
00001000
00000100
00000010
,
00000001
00000000
00000100
00000010
00000000
00001000
00000100
00000000
,
00010000
00001000
01000000
00010000
00000000
01000000
00001000
00000000
,
00010000
00000000
00000100
00010000
00000000
00001000
01000000
00000000
,
00010000
00100000
01000000
00100000
00010000
00010000
01000000
00100000
,
10000000
01000000
00010000
01000000
00100000
00001000
00100000
00001000
,
00010000
00000000
00000100
00000000
00001000
00000000
00000010
00000000
00000100
00000001
00000100
00000000
00000001
00000000
00000000
00000000
,
00001000
00000100
00010000
00000100
00001000
00000010
00001000
00000100
,
00010000
00000000
00001000
00000000
01000000
00000000
00010000
00000000
00100000
01000000
00100000
00000000
00010000
00000000
10000000
00000000
,
10000000
00100000
00010000
00100000
01000000
00001000
01000000
00001000
,
00010000
00000000
00000010
00000000
00001000
00000000
00000100
00000000
00000010
00000001
00000010
00000000
00000001
00000000
00000000
00000000
,
00001000
00000010
00010000
00000010
00001000
00000100
00001000
00000010
,
00010000
00000000
00001000
00000000
00100000
00000000
00010000
00000000
01000000
00100000
01000000
00000000
00010000
00000000
10000000
00000000
,
10000000
00000000
10000000
01000000
00000000
00000000
01000000
00010000
,
00000000
00000000
00010000
00001000
00000000
00000000
00001000
00000100
,
00000000
00000001
00000000
00000010
,
00000000
00000100
00000000
00001000
,
00000001
00000000
00000001
00000100
00000000
00000000
00000100
00001000
,
00000000
00000000
00001000
00010000
00000000
00000000
00010000
00100000
,
00000000
10000000
00000000
00010000
,
00000000
00000000
00100000
00000000
00000000
00000000
00001000
00001000
;

//---------------dance-double - ----------------
#NOTES:
     dance-double:
     :
     Easy:
     8:
     0.362,0.408,0.000,0.066,0.000: // measure 1
00000000
00000000
00000000
00000000
,  // measure 2
00000000
00000000
00000000
00000000
,  // measure 3
00000000
00000000
00000000
00000000
,  // measure 4
00000000
00000000
00000000
00000000
,  // measure 5
00000001
00000000
00000000
00000000
,  // measure 6
00000100
00000000
00000010
00000000
,  // measure 7
00001000
00000000
00000000
00000000
,  // measure 8
00000100
00000000
00010000
00000000
00001000
00000000
01000000
00010000
,  // measure 9
00100000
01000000
10000000
01000000
,  // measure 10
00010000
00001000
00000010
00000001
,  // measure 11
00000100
00001000
00000100
00000010
,  // measure 12
00010000
00000000
00001000
00000000
01000000
00000000
00010000
00100000
,  // measure 13
01000000
10000000
01000000
00010000
,  // measure 14
00001000
00000010
00000100
00010000
,  // measure 15
00001000
00100000
01000000
10000000
,  // measure 16
00010000
00000000
01000000
00000000
00001000
00000000
00010000
00000100
,  // measure 17
00002000
00000001
00000100
00003001
,  // measure 18
00000002
00000100
00001000
00000103
,  // measure 19
00000200
00001000
00010000
00001300
,  // measure 20
00002000
00000000
00010000
00000000
00100000
00000000
00013000
00001000
,  // measure 21
00020000
00100000
10000000
00130000
,  // measure 22
00200000
10000000
01000000
10300000
,  // measure 23
20000000
01000000
00010000
31000000
,  // measure 24
02000000
00000000
00010000
00000000
00001000
00000000
03010000
00001000
,  // measure 25
00010000
01000000
10000000
00100000
,  // measure 26
00010000
00001000
00000100
00000001
,  // measure 27
00000010
00001000
00010000
01000000
,  // measure 28
10000000
00100000
00010000
00001000
,  // measure 29
00000100
00000001
00000010
00001000
,  // measure 30
00010000
01000000
10000000
00100000
,  // measure 31
00010000
00001000
00000100
00000001
,  // measure 32
00000010
00001000
00010000
01000000
,  // measure 33
10000000
00000000
01000000
00000000
00010000
00000000
00001000
00000010
,  // measure 34
00000001
00000000
00000100
00000000
00001000
00000000
00010000
00100000
,  // measure 35
10000000
00000000
01000000
00000000
00010000
00000000
00001000
00000010
,  // measure 36
00000001
00000000
00000100
00000000
00001000
00000000
00010000
00100000
,  // measure 37
10000000
00000000
00100000
00000000
00010000
00000000
00001000
00000100
,  // measure 38
00000001
00000000
00000010
00000000
00001000
00000000
00010000
00100000
,  // measure 39
10000000
00000000
01000000
00000000
00010000
00000000
00001000
00000100
,  // measure 40
00000001
00000000
00000010
00000000
00001000
00000000
00010000
01000000
,  // measure 41
10000000
00000000
00000000
00000000
,  // measure 42
00010000
00000000
00000000
00000000
,  // measure 43
01000000
00000000
00000000
00000000
,  // measure 44
00000000
00000000
00100000
00000000
,  // measure 45
00100000
00000000
10000000
01000000
00010000
00001000
00000100
00000000
,  // measure 46
00000100
00000000
00000001
00000100
00001000
00010000
01000000
00000000
,  // measure 47
01000000
00000000
10000000
01000000
00010000
00001000
00000100
00000000
,  // measure 48
00000100
00000000
00000001
00000100
00001000
00010000
01000000
00000000
,  // measure 49
01000000
00000000
10000000
00100000
00010000
00001000
00000010
00000000
,  // measure 50
00000010
00000000
00000001
00000010
00001000
00010000
00100000
00000000
,  // measure 51
00100000
00000000
10000000
01000000
00010000
00001000
00000010
00000000
,  // measure 52
00000010
00000000
00000001
00000100
00001000
00010000
00100000
00000000
,  // measure 53
00100000
00000000
10000000
01000000
00000000
00000000
01000000
00010000
,  // measure 54
00000000
00000000
00010000
00001000
00000000
00000000
00001000
00000100
,  // measure 55
00000000
00000100
00000001
00000010
,  // measure 56
00000100
00000000
00001000
00000000
00000001
00000010
00000100
00000000
,  // measure 57
00000010
00000000
00000001
00000100
00000000
00000000
00000100
00001000
,  // measure 58
00000000
00000000
00001000
00010000
00000000
00000000
00010000
01000000
,  // measure 59
00000000
01000000
10000000
00100000
,  // measure 60
01000000
00000000
00010000
00000000
10000000
00100000
01000000
00000000
,  // measure 61
00010000
10000000
01000000
00010000
,  // measure 62
00001000
00000000
00000100
00000000
00000001
00000010
00000100
00000000
,  // measure 63
00000010
00000001
00000100
00001000
,  // measure 64
00010000
00000000
00100000
00000000
10000000
01000000
00100000
00000000
,  // measure 65
01000000
10000000
00100000
00010000
,  // measure 66
00001000
00000000
00000100
00000000
00000001
00000010
00000100
00000000
,  // measure 67
00001000
00000001
00000100
00001000
,  // measure 68
00010000
00000000
01000000
00000000
10000000
00010000
01000000
00000000
,  // measure 69
00100000
00000000
10000000
10000000
00000000
00000000
01000000
01000000
,  // measure 70
00000000
00000000
00010000
00010000
00000000
00000000
00001000
00001000
,  // measure 71
00000000
00000100
00000000
00000001
,  // measure 72
00000000
00000010
00000000
00001000
,  // measure 73
00010000
00000000
01000000
01000000
00000000
00000000
10000000
10000000
,  // measure 74
00000000
00000000
00100000
00100000
00000000
00000000
00010000
00010000
,  // measure 75
00000000
00001000
00000000
00000100
,  // measure 76
00000000
00000000
00000001
00000000
00000000
00000000
00000010
00000010
;
