#TITLE:helix pulse;
#SUBTITLE:;
#ARTIST:zvuc;
#TITLETRANSLIT:;
#SUBTITLETRANSLIT:;
#ARTISTTRANSLIT:;
#GENRE:;
#CREDIT:;
#MENUCOLOR:;
#METERTYPE:DDR;
#BANNER:helix pulse.png;
#BACKGROUND:helix pulse-bg.png;
#LYRICSPATH:;
#CDTITLE:cdtitle.png;
#MUSIC:helix pulse.mp3;
#OFFSET:-0.025;
#SAMPLESTART:72.740;
#SAMPLELENGTH:15.000;
#SELECTABLE:YES;
#LISTSORT:;
#BPMS:0.000=132.000;
#STOPS:;
#BGCHANGES:;
#ATTACKS:;

//---------------dance-single - ----------------
#NOTES:
     dance-single:
     :
     Hard:
     13:
     0.604,0.676,0.211,0.152,0.461:
0000
0000
0000
0000
,
0000
0000
0000
0000
,
0000
0000
0000
0000
,
0000
0000
0000
0000
,
0001
0000
0010
0100
0000
0000
0100
1000
0000
0000
1000
0001
0000
0000
0001
0100
,
0000
0000
0100
0010
0000
0000
0010
1000
0001
0000
0001
0000
1000
0001
0100
0000
,
0010
0000
1000
0010
0000
0000
0010
0100
0000
0000
0100
0001
0000
0000
0001
0010
,
0000
0000
0010
0100
0000
0000
0100
1000
0001
0100
0001
0100
0010
0000
0010
0000
,
0100
0000
0001
0010
0000
0000
0010
0100
0000
0100
1000
0100
0000
0000
0010
0001
,
0000
0000
1000
0010
0000
0000
0010
0100
0000
0100
0001
0100
0020
0000
0000
0000
,
0130
0000
0001
1000
0000
0000
0010
0100
0000
0100
0001
0010
0000
0000
0100
1000
,
0000
0000
0001
0100
0000
0000
0010
1000
0001
0000
1000
0001
1000
0001
0100
0010
,
0100
0000
0001
0100
0000
0000
1000
0100
0000
0001
0010
0001
0000
0000
1000
0100
,
0000
0000
0010
0100
0000
0000
1000
0100
0010
0000
0010
0000
0001
0010
0100
1000
,
0001
0000
1000
0100
0000
0000
0001
0100
0000
1000
0001
0100
0000
0000
1000
0100
,
0000
0000
0010
1000
0000
0000
0001
0010
0000
0000
0100
0000
1000
0001
0000
0000
,
1001
0000
0000
0010
0000
0000
0100
0000
0001
0000
0010
0000
0001
0100
0001
1000
,
0000
0100
0000
0100
0000
0100
0000
0100
,
1001
0000
0000
0010
0000
0000
0000
0100
0000
0000
0010
0000
1000
0000
0100
0000
,
1000
0000
0010
0000
1000
0000
0010
0000
0100
0010
1000
0001
0000
0010
0001
1000
,
0100
0000
0000
0010
0000
0000
0100
0000
1000
0000
0010
0000
1000
0100
1000
0001
,
0100
0000
0010
0000
0100
0000
0001
0000
1000
0000
0001
0000
0010
0000
0000
0100
0000
0000
0010
0000
0000
0100
0000
0000
,
1001
0000
0000
0010
0000
0000
0000
0100
0000
0000
0010
0000
0001
0000
0100
0000
,
0001
0000
0000
0010
0000
0000
0001
0000
0000
0010
0000
0000
0100
0000
0010
0000
0001
0000
1000
0000
0010
0000
0100
0000
,
0002
0100
0000
0100
,
2003
0100
0000
0100
,
3002
0010
0000
0010
,
2003
0010
0000
0010
,
3200
0001
1000
0001
,
0320
1000
0001
1000
,
0032
1000
0203
1000
,
0320
0001
0230
0001
,
0310
0000
1000
0100
0000
1000
0010
0100
,
0101
0000
0010
0100
0000
1000
0010
1000
,
1100
0000
0010
0100
0000
0001
0010
0001
,
0101
0000
0010
0100
0000
1000
0100
0010
,
0021
0000
0000
0000
0001
0000
0000
0000
0001
0000
0000
0000
0031
0000
0000
0001
,
2000
0000
0000
0000
0100
0000
0000
0000
0100
0000
0000
0000
3100
0000
0100
0010
,
0001
0100
1000
0100
0010
1000
0100
0010
,
0001
0100
0001
0100
0010
1000
0010
1000
0001
0010
0001
0010
0100
1000
0100
1000
,
0001
0100
1000
0000
0100
0001
1000
0100
,
0010
0001
0100
0000
0010
0001
1000
0100
,
0010
1000
0100
0000
0001
0100
0010
0001
,
0100
1000
0001
0000
0010
0100
1000
0100
,
0001
0010
0200
0000
0301
0100
1000
0001
,
0010
1000
0020
0000
0130
0001
0100
1000
,
0010
0100
2000
0000
3100
0001
0010
1000
,
0010
0001
2000
0000
3100
0010
0100
1000
,
1001
0001
0101
0000
0010
1000
0100
0010
,
0110
0100
1100
0000
1000
0001
0100
0010
,
1010
1000
1100
0000
0100
1000
0001
0100
,
0110
0010
0011
0000
0001
1000
0100
0001
,
0011
0010
0110
0000
0100
0001
1000
0010
,
0110
0100
1100
0000
1000
0001
0100
1000
,
1100
0100
0110
0000
0101
0100
0110
0000
,
1000
0000
0100
0000
0010
0000
0001
0000
1000
0010
0100
0001
2000
0000
0000
0000
,
3001
0000
0100
0001
0000
0100
0010
0000
1000
0000
0010
0000
0100
0010
0100
0001
,
1000
0000
0100
0000
1000
0100
1000
0000
0001
0000
1000
0000
1001
0000
0000
0000
,
0010
0000
0100
0001
0000
0100
1000
0000
0100
0000
0010
0000
0100
0000
1000
0000
,
0010
0000
0000
0000
0000
0000
0010
0000
0000
0000
0000
0000
0100
0000
0000
0000
0000
0000
0100
0000
0000
0000
0000
0000
0010
0000
0000
0100
0000
0000
0010
0000
0000
0100
0000
0000
0010
0000
0000
0000
0100
0000
0000
0000
0010
0000
0000
0000
,
0100
0000
0001
0100
0000
1000
0100
0000
0010
0000
1000
0000
0001
0010
0100
1000
,
0001
0000
0100
0000
0010
0000
1000
0000
0100
0000
0010
0001
1000
0000
0000
0000
,
0010
0000
0100
1000
0000
0100
0001
0000
1000
0000
0100
0000
0001
0000
0100
0000
,
0010
0000
0000
0000
0000
0000
0000
0000
0000
0000
0000
0000
0000
0000
0000
0000
0000
0000
0000
0000
0000
0000
0000
0000
0100
0000
0000
0000
0000
0000
0000
0000
0000
0000
0000
0000
1000
0000
0000
0000
0000
0000
0000
0000
0000
0000
0000
0000
0010
0000
0000
0000
0000
0000
0000
0000
0000
0000
0000
0000
0000
0000
0000
0000
0000
0000
0000
0000
0000
0000
0000
0000
0100
0000
0000
0000
0000
0000
0000
0000
0000
0000
0000
0000
0001
0000
0000
0000
0000
0000
0000
0000
0000
0000
0000
0000
0010
0000
0000
0000
0000
0000
0000
0000
0000
0000
0000
0000
0000
0000
0000
0000
0100
0000
0000
0000
0000
0000
0000
0000
0000
0000
0000
0000
0000
0000
0000
0000
1000
0000
0000
0000
0000
0000
0000
0000
0000
0000
0000
0000
0000
0000
0000
0000
0001
0000
0000
0000
0000
0000
0000
0000
0000
0000
0000
0000
0000
0000
0000
0000
0000
0000
1000
0000
0000
0000
0000
0000
0000
0000
0000
0000
0000
0000
0000
0000
0000
0000
0000
0000
1001
0000
0000
0000
0000
0000
0000
0000
0000
0000
0000
0000
;

//---------------dance-single - ----------------
#NOTES:
     dance-single:
     :
     Medium:
     9:
     0.419,0.460,0.042,0.152,0.017:
0000
0000
0000
0000
,
0000
0000
0000
0000
,
0000
0000
0000
0000
,
0000
0000
0000
0000
,
2000
3200
0320
0032
,
0203
0320
2030
3002
,
0023
0230
2300
3002
,
0203
2300
3200
0320
,
1030
0100
1000
0000
0001
0100
0001
0000
,
1000
0010
0100
0001
0010
0100
1000
0000
,
0001
0010
0001
0000
1000
0010
1000
0000
,
0001
0010
0100
1000
0010
0100
0001
0000
,
1000
0100
0010
0000
0001
0100
1000
0000
,
0001
0010
0001
1000
0100
0010
0001
0000
,
1000
0100
0010
0000
1000
0001
0100
0000
,
0010
1000
0001
0010
0100
0100
0100
0000
,
1000
0000
0001
0000
0100
0010
0100
0001
,
0010
0000
0100
0000
1000
0001
0110
0000
,
1000
0000
0001
0000
0010
0100
1000
0000
,
0001
0010
0100
0001
1000
0100
0010
0000
,
0001
0000
1000
0000
0010
0100
0001
0000
,
1000
0100
0010
0000
0001
1000
0110
0000
,
1000
0010
0100
0000
0001
0010
1000
0000
,
0100
1000
0010
0001
0100
0001
0010
0000
,
0100
1000
0000
1000
,
0001
0100
0000
0100
,
0010
1000
0000
1000
,
0001
0010
0000
0010
,
0001
0100
0000
0100
,
1000
0010
0000
0010
,
0100
0001
0000
0001
,
0010
0100
0000
0100
,
1000
0000
0000
0000
0001
0000
0100
0000
0000
0000
0100
0000
0000
0100
0000
0000
,
0100
0000
0000
0000
0010
0000
1000
0000
0000
0000
0001
0000
0000
0001
0000
0000
,
0001
0000
0000
0000
0010
0000
0100
0000
0000
0000
1000
0000
0000
1000
0000
0000
,
1000
0000
0000
0000
0010
0000
0100
0000
0000
0001
0000
0000
0001
0000
0000
0000
,
0001
1000
0001
1000
,
0010
0100
0010
0100
,
0001
0010
0100
0000
1000
0100
0010
0000
,
0001
0100
1000
0010
0001
0100
0001
0000
,
1000
0100
0010
0000
0010
0000
0010
0100
,
1000
0001
0100
0000
0100
0000
0100
0010
,
1000
0001
0010
0000
0010
0000
0010
0100
,
0010
0001
0100
0000
0100
0000
0100
1000
,
0010
0000
0010
0000
0100
0001
0010
0100
,
1000
0000
0001
0000
0001
0000
0100
0001
,
0010
0000
0100
1000
0010
0000
0100
0000
,
0001
1000
0001
1000
0100
0010
0001
0000
,
1000
0100
0010
0000
0001
0000
0100
0010
,
1000
0100
0010
0000
0001
0000
0100
0001
,
0010
0000
0100
0000
1000
0010
0100
0010
,
0001
0000
1000
0000
0010
0100
0001
1000
,
0100
0000
0010
0000
1000
0001
0100
0010
,
0001
0000
0010
0000
0100
1000
0001
0100
,
1000
0000
0010
0100
0001
0000
0010
0000
,
1000
0100
0001
0010
0100
0001
1000
0100
,
0010
0000
0100
0000
1000
0100
0010
0000
,
0001
0100
0001
0000
1000
0100
0011
0000
,
1000
0000
0010
0000
1000
0001
0100
0000
,
1000
0100
0010
0001
0100
0010
0001
0000
,
1000
0000
0010
0000
0001
0100
0001
0000
,
1000
0010
0100
0000
0001
0100
1010
0000
,
0001
0100
0001
0100
0010
1000
0010
1000
,
0100
0000
0010
0000
0001
0000
0100
0000
1000
0000
0000
0000
2002
0000
0000
3003
;

//---------------dance-single - ----------------
#NOTES:
     dance-single:
     :
     Easy:
     5:
     0.261,0.297,0.000,0.008,0.000:
0000
0000
0000
0000
,
0000
0000
0000
0000
,
0000
0000
0000
0000
,
0000
0000
0000
0000
,
0010
0000
0010
0000
,
0010
0100
0001
0010
,
0100
0000
0100
0000
,
0100
0010
1000
0100
,
0010
0010
0010
0000
,
0010
0100
0001
0010
,
0100
0100
0100
0000
,
0100
0010
1000
0100
,
0010
0010
0010
0000
,
0010
0100
0001
0010
,
0100
0100
0100
0000
,
0100
0010
1000
0100
,
0010
0001
0010
0000
,
0100
1000
0100
0000
,
0010
1000
0010
0000
,
0100
0001
0100
0000
,
0010
0001
0010
0000
,
0100
1000
0100
0000
,
0010
1000
0010
0000
,
0100
0001
0100
0000
,
0010
0100
0000
0100
,
0001
0100
0000
0100
,
1000
0100
0000
0100
,
0010
0100
0000
0100
,
0001
0010
0000
0010
,
0100
0010
0000
0010
,
1000
0010
0000
0010
,
0100
0010
0000
0010
,
0001
1000
0000
1000
,
0001
0100
0000
0100
,
0010
1000
0000
1000
,
0001
0010
0000
0010
,
0100
1000
0100
1000
,
0001
0100
0001
0100
,
0010
1000
0010
1000
,
0001
0010
0001
0010
,
0100
0000
0100
0000
1000
0100
1000
0000
,
0001
0000
0001
0000
0100
0010
0100
0000
,
0001
0010
0100
1000
,
0001
0100
0010
1000
,
0001
0000
0001
0000
0010
0100
0010
0000
,
0001
0000
0001
0000
0100
0010
0100
0000
,
0010
1000
0100
0001
,
0010
0001
0100
1000
,
0010
0000
0100
0000
0001
1000
0001
0000
,
0100
0000
0010
0000
1000
0001
1000
0000
,
0010
0100
0001
0010
,
0100
1000
0010
0100
,
0001
0000
1000
0000
0100
0010
0100
0000
,
1000
0000
0001
0000
0100
0010
0100
0000
,
0001
0100
1000
0010
,
0001
0100
1000
0010
,
0001
0100
0010
0000
,
0010
0100
0001
0001
,
1000
0100
0010
0000
,
0010
0100
1000
0000
,
0001
0100
0010
0000
,
0010
0100
0001
0001
,
0010
0100
1000
0000
,
1000
0000
0000
0000
0100
0000
0000
0000
0010
0000
0000
0000
0020
0000
0000
0030
;

//---------------dance-single - ----------------
#NOTES:
     dance-single:
     :
     Beginner:
     1:
     0.105,0.162,0.000,0.008,0.000:
0000
0000
0000
0000
,
0000
0000
0000
0000
,
0000
0000
0000
0000
,
0000
0000
0000
0000
,
1000
0000
0000
0000
,
0001
0000
0000
0000
,
0010
0000
0000
0000
,
0100
0000
0000
0000
,
1000
0000
0000
0000
,
0010
0000
0000
0000
,
0100
0000
0000
0000
,
0001
0000
0000
0000
,
1000
0000
0000
0000
,
0100
0000
0000
0000
,
0010
0000
0000
0000
,
0001
0000
0000
0000
,
1000
0000
1000
0000
,
1000
0000
0000
0000
,
0001
0000
0001
0000
,
0001
0000
0000
0000
,
0100
0000
0100
0000
,
0100
0000
0000
0000
,
0010
0000
0010
0000
,
0010
0000
0000
0000
,
1000
0000
0000
0000
,
0100
0000
0000
0000
,
0010
0000
0000
0000
,
0001
0000
0000
0000
,
1000
0000
0000
0000
,
0100
0000
0000
0000
,
0010
0000
0000
0000
,
0001
0000
0000
0000
,
1000
0000
0000
0000
,
0010
0000
0000
0000
,
0100
0000
0000
0000
,
0001
0000
0000
0000
,
1000
0000
0000
0000
,
0010
0000
0000
0000
,
0100
0000
0000
0000
,
0001
0000
0000
0000
,
1000
1000
0000
0000
,
0001
0001
0000
0000
,
1000
1000
0000
0000
,
0001
0001
0000
0000
,
1000
1000
0000
0000
,
0001
0001
0000
0000
,
1000
1000
0000
0000
,
0001
0001
0000
0000
,
0100
0100
0000
0000
,
0010
0010
0000
0000
,
0100
0100
0000
0000
,
0010
0010
0000
0000
,
0100
0100
0000
0000
,
0010
0010
0000
0000
,
0100
0100
0000
0000
,
0010
0010
0000
0000
,
1000
0000
1000
0000
,
1000
0000
0000
0000
,
0001
0000
0001
0000
,
0001
0000
0000
0000
,
1000
0000
1000
0000
,
1000
0000
0000
0000
,
0001
0000
0001
0000
,
0001
0000
0000
0000
0000
0000
0000
0000
0001
0000
0000
0000
0002
0000
0000
0003
;

//---------------dance-double - ----------------
#NOTES:
     dance-double:
     :
     Hard:
     13:
     0.558,0.676,0.017,0.042,0.241:
00000000
00000000
00000000
00000000
,
00000000
00000000
00000000
00000000
,
00000000
00000000
00000000
00000000
,
00000000
00000000
00000000
00000000
,
00100000
00001000
00010000
00000100
00001000
00000010
00010000
00001000
,
00100000
00010000
01000000
00001000
00010000
00000010
00001000
00000100
,
00010000
00001000
00010000
01000000
10000000
00100000
00010000
00001000
,
00000100
00000000
00000010
00000000
00010000
00000000
00001000
00000000
00000010
00000001
00000010
00000001
00000100
00000000
00000100
00000000
,
00000010
00001000
00000100
00010000
00001000
00100000
00010000
01000000
,
00100000
10000000
01000000
00010000
00000100
00001000
02000000
03200000
,
00310000
00000010
00001000
00100000
00010000
01000000
00100000
10000000
,
00010000
00000000
01000000
00000000
00001000
00000000
00010000
00000000
00000100
00001000
00000100
00000000
00001000
00000100
00001000
00000000
,
00000010
00000100
00010000
01000000
00001000
00000100
00000010
00010000
,
00001000
00100000
00010000
00000010
00001000
00010000
01000000
10000000
,
00100000
10000000
01000000
00010000
00001000
00000100
00000010
00001000
,
00010000
00000000
01000000
00000000
10000000
00000000
01000000
00000000
00010000
00000000
00100000
00000000
01000000
00100000
00000000
00000000
,
01000000
00000000
00000000
10000000
00000000
00000000
00010000
00000000
01000000
00000000
00001000
00000000
00010000
00001000
00010000
00000000
,
00000100
00001000
00000010
00000100
00000002
00000010
00000013
00000000
,
00000001
00000000
00000000
00000100
00000000
00000000
00001000
00000000
00010000
00000000
01000000
00000000
10000000
00000000
00010000
00000000
,
01000000
00000000
00100000
00000000
10000000
00000000
01000000
00000000
00100000
00010000
00100000
00000000
00000000
01000000
10000000
01000000
,
00100000
00000000
00000000
00001000
00000000
00000000
00010000
00000000
00000100
00000000
00001000
00000000
00000010
00000100
00000010
00000000
,
00000100
00000001
00000010
00001000
00020000
00100000
00130000
00000000
,
10000000
00000000
00000000
00010000
00000000
00000000
00100000
00000000
00001000
00000000
00010000
00000000
00000010
00000000
00000100
00000000
,
00001000
00000000
00000000
01000000
00000000
00000000
00010000
00000000
00000000
00100000
00000000
00000000
01000000
00000000
10000000
00000000
01000000
00000000
00100000
00000000
00010000
00000000
00100000
00000000
,
00001000
00010000
01000000
00000000
00100000
00000000
00001000
00010000
,
00000100
00000010
00000001
00000000
00000100
00000000
00000010
00001000
,
00000100
00000000
00010000
00000000
00001000
00000000
01000000
00010000
,
00100000
01000000
00010000
00001000
,
00000010
00000000
00000001
00000000
00000100
00001000
00010000
00000100
,
00001000
00100000
10000000
01000000
,
00100000
00001000
01000000
00100000
,
00010000
00000000
00001000
00000000
00000100
00000000
00000001
00001000
,
00000100
00000000
00000000
00000000
00001000
00000000
00000100
00000000
00000000
00000000
00000100
00000000
00010000
00001000
00000000
00000000
,
00010000
00000000
00000000
00000000
01000000
00000000
10000000
00000000
00000000
00000000
00100000
00000000
01000000
00010000
00000000
01000000
,
01000000
00000000
00000000
00000000
00010000
00000000
00100000
00000000
00000000
00000000
00100000
00000000
00001000
00010000
00000000
00000100
,
00000100
00000000
00000000
00000000
00001000
00000000
00000010
00000000
00000000
00000100
00000000
00000000
00000001
00000000
00001000
00000000
,
00000100
00000000
00000000
00000000
00000100
00000000
00000000
00000000
00000100
00000000
00000000
00000000
00000100
00000000
00010000
00001000
,
01000000
00000000
00000000
00000000
01000000
00000000
00000000
00000000
01000000
00000000
00000000
00000000
01000000
00000000
00010000
00100000
,
01000000
10000000
01000000
00010000
00001000
00000010
00000001
00000100
,
00000001
00000010
00000001
00000010
00000100
00010000
00000100
00010000
00001000
00100000
00001000
00100000
00010000
01000000
00010000
01000000
,
00100000
10000000
01000000
00000000
00010000
00001000
00000010
00000001
,
00000100
00001000
00000100
00000000
00000010
00010000
00001000
00100000
,
00010000
00001000
00000100
00000000
00010000
00001000
01000000
00100000
,
00010000
00001000
00000100
00000000
00000010
00001000
00000100
01000000
,
00010000
00100000
00001000
00000000
00100000
00010000
01000000
00000100
,
00001000
00000010
00000100
00000000
00000001
00000010
00000100
00000000
,
00001000
00000100
00000001
00000100
00010000
00001000
00100000
10000000
,
00100000
00001000
01000000
00010000
00001000
00000010
00000001
00000010
,
00010000
00001000
01000000
00000000
00010000
10000000
01000000
00010000
,
00001000
00000100
00000001
00000000
00000010
00000001
00000100
00001000
,
00010000
00100000
10000000
00000000
00010000
00100000
00000010
00001000
,
00000100
01000000
00010000
00000000
00100000
01000000
10000000
00000000
,
01000000
00010000
00000100
00000000
00001000
00000010
00001000
00100000
,
10000000
00010000
00000010
00000000
00000001
00000100
00010000
00000000
,
00001000
00000010
00010000
00100000
01000000
00010000
00100000
00001000
,
00000010
00000000
00000001
00000000
00000100
00000000
00001000
00000000
00010000
01000000
10000000
00100000
02000000
00000000
00000000
00000000
,
03010000
00000000
00100000
00001000
00000000
00010000
00000100
00000000
00001000
00000000
00000010
00000000
00000100
00000001
00001000
00000001
,
00000010
00001000
00010000
01000000
10000000
00100000
01100000
00000000
,
10000000
00000000
01000000
00100000
00000000
00001000
00010000
00000100
00000000
00000000
00001000
00000000
00000001
00000000
00000100
00000000
,
00000010
00000000
00000000
00000000
00000000
00000000
00000010
00000000
00000000
00000000
00000000
00000000
00000100
00000000
00000000
00000000
00000000
00000000
00000100
00000000
00000000
00000000
00000000
00000000
00000001
00000000
00000000
00001000
00000000
00000000
00000001
00000000
00000000
00001000
00000000
00000000
00000001
00000000
00000000
00000000
00000100
00000000
00000000
00000000
00001000
00000000
00000000
00000000
,
00010000
00000000
00100000
10000000
00000000
00010000
00100000
00000000
00001000
00000000
00010000
00000000
00000100
00001000
00000010
00000100
,
00000010
00001000
00000100
00010000
01000000
10000000
10010000
00000000
,
10000000
00000000
00010000
01000000
00000000
00001000
00010000
00000000
00000100
00000000
00001000
00000000
00000010
00000000
00000100
00000000
,
00000001
00000000
00000000
00000000
00000000
00000000
00000000
00000000
00000000
00000000
00000000
00000000
00000000
00000000
00000000
00000000
00000000
00000000
00000000
00000000
00000000
00000000
00000000
00000000
00001000
00000000
00000000
00000000
00000000
00000000
00000000
00000000
00000000
00000000
00000000
00000000
00000000
00000000
00000000
00000000
00000000
00000000
00000000
00000000
00000000
00000000
00000000
00000000
00010000
00000000
00000000
00000000
00000000
00000000
00000000
00000000
00000000
00000000
00000000
00000000
00000000
00000000
00000000
00000000
00000000
00000000
00000000
00000000
00000000
00000000
00000000
00000000
10000000
00000000
00000000
00000000
00000000
00000000
00000000
00000000
00000000
00000000
00000000
00000000
00000000
00000000
00000000
00000000
00000000
00000000
00000000
00000000
00000000
00000000
00000000
00000000
01000000
00000000
00000000
00000000
00000000
00000000
00000000
00000000
00000000
00000000
00000000
00000000
00000000
00000000
00000000
00000000
00100000
00000000
00000000
00000000
00000000
00000000
00000000
00000000
00000000
00000000
00000000
00000000
00000000
00000000
00000000
00000000
00010000
00000000
00000000
00000000
00000000
00000000
00000000
00000000
00000000
00000000
00000000
00000000
00000000
00000000
00000000
00000000
10000000
00000000
00000000
00000000
00000000
00000000
00000000
00000000
00000000
00000000
00000000
00000000
00000000
00000000
00000000
00000000
00000000
00000000
00010000
00000000
00000000
00000000
00000000
00000000
00000000
00000000
00000000
00000000
00000000
00000000
00000000
00000000
00000000
00000000
00000000
00000000
10000000
00000000
00000000
00000000
00000000
00000000
00000000
00000000
00000000
00000000
00000000
00000000
;

//---------------dance-double - ----------------
#NOTES:
     dance-double:
     :
     Medium:
     9:
     0.398,0.433,0.000,0.008,0.042: // measure 1
00000000
00000000
00000000
00000000
,  // measure 2
00000000
00000000
00000000
00000000
,  // measure 3
00000000
00000000
00000000
00000000
,  // measure 4
00000000
00000000
00000000
00000000
,  // measure 5
10000000
01000000
00010000
00001000
,  // measure 6
00000010
00001000
00010000
01000000
,  // measure 7
10000000
00100000
00010000
00001000
,  // measure 8
00000100
00000001
00000010
00000100
,  // measure 9
00001000
00000001
00000100
00000000
00000001
00001000
00000100
00000000
,  // measure 10
00001000
00000010
00010000
00000000
00001000
00100000
00010000
00000000
,  // measure 11
01000000
00100000
10000000
00000000
01000000
00100000
00010000
00000000
,  // measure 12
01000000
00001000
00010000
00000100
00001000
00000010
00000100
00000000
,  // measure 13
00000001
00000010
00000100
00000000
00000010
00000100
00010000
00000000
,  // measure 14
00001000
01000000
00100000
00000000
10000000
01000000
00010000
00000000
,  // measure 15
01000000
00100000
00001000
00000000
00010000
00000100
00001000
00000000
,  // measure 16
00000010
00000100
00001000
00010000
00100000
10000000
00010000
00000000
,  // measure 17
10000000
00000000
00000000
01000000
00000000
00000000
00100000
00000000
00000000
00000000
00001000
00000000
00000000
00010000
00000000
00010000
,  // measure 18
00000000
00001000
00000000
00000100
00000000
00000001
00000010
00000100
,  // measure 19
00001000
00000000
00000000
00000100
00000000
00000000
00010000
00000000
00000000
00000000
00001000
00000000
00000000
00000000
01000000
00000000
,  // measure 20
00010000
00000000
00100000
00000000
01000000
00000000
10000000
00000000
00000000
10000000
01000000
00000000
00000000
10000000
01000000
00000000
,  // measure 21
10000000
00000000
00000000
00100000
00000000
00000000
01000000
00000000
00000000
00000000
00010000
00000000
00000000
00100000
00000000
00100000
,  // measure 22
00000000
00001000
00000000
00010000
00000010
00000100
00000001
00000010
,  // measure 23
00000100
00000000
00000000
00001000
00000000
00000000
00000001
00000000
00000000
00000000
00000100
00000000
00000010
00000000
00001000
00000000
,  // measure 24
00000100
00000100
00010000
00000000
00000100
00000100
00000010
00000001
,  // measure 25
00000100
00000001
00000100
00001000
,  // measure 26
00010000
00100000
10000000
01000000
,  // measure 27
00010000
01000000
10000000
00100000
,  // measure 28
01000000
00001000
00010000
00000100
,  // measure 29
00001000
00000010
00000100
00000001
,  // measure 30
00000010
00000001
00001000
00010000
,  // measure 31
10000000
01000000
00100000
00010000
,  // measure 32
01000000
00001000
00010000
00000100
,  // measure 33
00001000
00000010
00000100
00000000
00000001
00000000
00000010
00000000
,  // measure 34
00000100
00010000
00001000
00000000
01000000
00000000
00010000
00000000
,  // measure 35
00100000
01000000
10000000
00000000
01000000
00000000
00010000
00000000
,  // measure 36
00001000
00000100
00000010
00000000
00001000
00000000
00000100
00000000
,  // measure 37
00010000
00001000
00100000
00000000
00100000
00001000
00010000
00000000
,  // measure 38
00010000
00000100
00001000
00000000
00001000
00000010
00000100
00000000
,  // measure 39
00000100
00000001
00000010
00000100
00010000
00001000
01000000
00100000
,  // measure 40
10000000
01000000
00100000
01000000
10000000
00010000
01000000
00000000
,  // measure 41
00100000
10000000
01000000
00000000
00010000
00000000
00001000
00000000
,  // measure 42
00000010
00000001
00000100
00000000
00001000
00000000
00010000
00000000
,  // measure 43
00100000
10000000
01000000
00000000
00010000
00000000
00001000
00000000
,  // measure 44
00000010
00000001
00000100
00000000
00000001
00000010
00000100
00000000
,  // measure 45
00000010
00000001
00000100
00000000
00001000
00000000
00010000
00000000
,  // measure 46
00100000
10000000
01000000
00000000
00010000
00000000
00001000
00000000
,  // measure 47
00000010
00000001
00000100
00000000
00000001
00000010
00000100
00000000
,  // measure 48
00010000
00000000
00001000
00000000
00100000
00010000
01000000
00000000
,  // measure 49
00100000
10000000
01000000
00000000
00010000
00000000
00001000
00000000
,  // measure 50
00000010
00000001
00000100
00000000
00001000
00000000
00010000
00000000
,  // measure 51
00100000
10000000
01000000
00000000
00010000
00001000
00000010
00000000
,  // measure 52
00000001
00000100
00001000
00000100
00000001
00000000
00001000
00000000
,  // measure 53
00000100
00010000
00001000
00000000
00100000
00010000
01000000
00000000
,  // measure 54
00100000
10000000
01000000
00000000
00010000
00001000
00000010
00000000
,  // measure 55
00000001
00000100
00000001
00001000
00000100
00001000
00000001
00000000
,  // measure 56
00000100
00001000
00010000
00100000
10000000
00010000
00100000
00000000
,  // measure 57
01000000
10000000
01000000
00000000
00100000
00000000
00001000
00000000
,  // measure 58
00010000
00000000
00000100
00000000
00001000
00000010
00001000
00000000
,  // measure 59
00000001
00000010
00000001
00000000
00001000
00000000
00000100
00000000
,  // measure 60
00010000
00001000
00010000
00000000
00001000
01000000
00100000
00000000
,  // measure 61
10000000
00000000
01000000
00000000
00100000
00001000
00010000
00000000
,  // measure 62
00000100
00000000
00000100
00000000
00001000
00000010
00000100
00000000
,  // measure 63
00000001
00000010
00000100
00000000
00010000
00001000
01000000
00000000
,  // measure 64
00010000
00000000
00100000
00000000
01000000
00000000
10000000
00000000
00010000
00000000
01000000
00000000
00200000
00000000
00000000
00300000
;

//---------------dance-double - ----------------
#NOTES:
     dance-double:
     :
     Easy:
     5:
     0.246,0.270,0.000,0.093,0.000: // measure 1
00000000
00000000
00000000
00000000
,  // measure 2
00000000
00000000
00000000
00000000
,  // measure 3
00000000
00000000
00000000
00000000
,  // measure 4
00000000
00000000
00000000
00000000
,  // measure 5
00010000
01000000
10000000
00100000
,  // measure 6
10000000
01000000
00010000
00000000
,  // measure 7
00001000
00010000
00001000
00000100
,  // measure 8
00000001
00000100
00001000
00000000
,  // measure 9
00010000
00010000
01000000
10000000
,  // measure 10
00100000
00100000
10000000
00000000
,  // measure 11
01000000
01000000
00010000
00001000
,  // measure 12
00000100
00000100
00000001
00000000
,  // measure 13
00000010
00000010
00000001
00000100
,  // measure 14
00001000
00010000
01000000
00000000
,  // measure 15
10000000
10000000
01000000
00010000
,  // measure 16
00001000
00000100
00000001
00001000
,  // measure 17
00000001
00000000
00000100
00000000
,  // measure 18
00000010
00001000
00000100
00000000
,  // measure 19
00001000
00000000
00000100
00000000
,  // measure 20
00010000
00001000
01000000
00000000
,  // measure 21
00010000
00000000
00100000
00000000
,  // measure 22
01000000
10000000
00010000
00000000
,  // measure 23
10000000
00000000
00010000
00000000
,  // measure 24
00001000
00000100
00002000
00000000
,  // measure 25
00003002
00000000
00000000
00000003
,  // measure 26
00000200
00000000
00000000
00000300
,  // measure 27
00000020
00000000
00000000
00000030
,  // measure 28
00020000
00000000
00000000
00030000
,  // measure 29
00002000
00000000
00000000
00003000
,  // measure 30
02000000
00000000
00000000
03000000
,  // measure 31
00200000
00000000
00000000
00300000
,  // measure 32
20000000
00000000
00000000
30000000
,  // measure 33
01000000
00100000
00000000
00100000
,  // measure 34
00001000
00010000
00000000
00010000
,  // measure 35
00000100
00001000
00000000
00001000
,  // measure 36
00000010
00000100
00000000
00000100
,  // measure 37
00000001
00000001
00000001
00000001
,  // measure 38
00000010
00000010
00000010
00000010
,  // measure 39
00000100
00010000
00000100
00010000
,  // measure 40
00001000
01000000
00001000
01000000
,  // measure 41
00010000
10000000
01000000
01000000
,  // measure 42
10000000
00010000
01000000
00001000
,  // measure 43
00010000
00000100
00001000
00001000
,  // measure 44
00000010
00000100
00000001
00000001
,  // measure 45
00000010
00000001
00000100
00001000
,  // measure 46
00000100
00000001
00000010
00000001
,  // measure 47
00000100
00001000
00010000
01000000
,  // measure 48
10000000
00100000
10000000
01000000
,  // measure 49
00010000
01000000
00010000
00001000
,  // measure 50
00010000
00001000
00000100
00001000
,  // measure 51
00000100
00000001
00000010
00000001
,  // measure 52
00000010
00000001
00000100
00001000
,  // measure 53
00000100
00001000
00010000
00001000
,  // measure 54
00010000
00100000
00010000
00100000
,  // measure 55
10000000
00100000
10000000
01000000
,  // measure 56
10000000
00000000
01000000
00000000
00100000
00100000
00100000
00000000
,  // measure 57
00010000
10000000
01000000
00010000
,  // measure 58
00001000
00000010
00000001
00000000
,  // measure 59
00000001
00000100
00001000
00010000
,  // measure 60
00100000
10000000
01000000
00000000
,  // measure 61
10000000
01000000
00010000
00001000
,  // measure 62
00000010
00000001
00000100
00000000
,  // measure 63
00000001
00000010
00001000
00010000
,  // measure 64
01000000
00000000
00000000
00000000
10000000
00000000
00000000
00000000
00020000
00000000
00000000
00000000
02030000
00000000
00000000
03000000
;
