#TITLE:VALLIS-NERIA;
#SUBTITLE:;
#ARTIST:DJ YOSHITAKA;
#TITLETRANSLIT:;
#SUBTITLETRANSLIT:;
#ARTISTTRANSLIT:;
#GENRE:;
#CREDIT:;
#MENUCOLOR:;
#METERTYPE:DDR;
#BANNER:VALLIS-NERIA.png;
#BACKGROUND:VALLIS-NERIA-bg.png;
#LYRICSPATH:;
#CDTITLE:cdtitle.png;
#MUSIC:VALLIS-NERIA.mp3;
#OFFSET:-1.321;
#SAMPLESTART:22.057;
#SAMPLELENGTH:15.000;
#SELECTABLE:YES;
#LISTSORT:;
#BPMS:0.000=185.000;
#STOPS:;
#BGCHANGES:;
#ATTACKS:;

//---------------dance-single - ----------------
#NOTES:
     dance-single:
     :
     Hard:
     14:
     0.761,0.783,0.336,0.313,0.225:
0000
0000
0000
0000
,
0000
0000
0000
0000
,
0000
0000
0000
0000
,
0000
0000
0000
0000
,
0002
0000
0000
0000
,
0020
0000
0000
0003
,
0200
0000
0000
0000
,
0000
0000
0000
0330
,
1000
0100
1000
0010
0100
0001
0010
0100
,
0000
1001
0000
0010
0100
1000
0001
0000
,
0100
0010
0100
1000
0100
0001
0010
0100
,
0000
1001
0000
0010
0001
0100
0010
0000
,
0100
0001
0010
0100
1000
0100
0001
0100
,
0000
1001
0000
0010
0001
1000
0010
0000
,
0100
0001
1000
0100
0010
0001
0100
0010
,
1000
0000
0001
0100
0000
0010
0000
1000
0000
0000
0001
0000
0010
0100
0000
0100
,
1000
0000
0001
0100
0001
0000
0010
0000
0100
0000
1000
0000
0001
0000
0100
0000
,
0000
0110
0000
1001
0000
0010
1001
0000
,
0020
0000
1030
0200
0000
0320
0000
0032
,
0000
2003
0000
3020
0000
0230
0000
0301
,
1000
0000
0100
0010
0100
0000
1000
0000
0010
0000
0100
0000
0001
0000
1002
0000
,
0000
0013
0100
0010
0100
2000
0000
3002
,
0000
0100
0203
0000
0000
0310
0010
1000
,
0100
0000
0010
0000
0001
0000
0100
0000
0001
0000
0010
0100
0010
0000
0001
0000
,
1000
0000
0100
0010
0100
0000
1000
0000
0010
0000
0100
0000
0001
0000
0001
0000
,
0000
1100
0000
0010
0100
0001
0010
0100
,
2002
0000
3003
0220
0000
0000
0330
0010
,
1000
0000
0001
0010
0001
0000
1000
0000
0100
0000
0010
0000
0001
0000
0100
0000
,
0010
0010
0010
0010
0000
1100
0000
0101
,
0001
1000
0001
0000
0010
0000
0100
1000
0000
1000
0001
0000
0100
0000
0010
0000
,
0100
0100
0100
0100
0000
0011
0000
1010
,
0001
0000
0000
0010
0000
0000
0100
0000
1000
0000
0000
0001
0000
0000
0100
0000
,
0010
0100
0100
1000
0100
0100
0001
0100
,
0010
1000
0100
0010
0001
0010
0100
1000
,
0010
1000
0010
0000
0100
0000
0010
1000
0000
0001
0000
0000
0100
0000
0010
0000
,
0100
0000
0001
0010
0001
0000
0100
0000
0010
0000
1000
0100
1000
0000
0010
0000
,
0100
0100
0100
0100
0000
0011
0000
1010
,
0001
0100
0001
0000
1000
0000
0100
0010
0000
0010
0001
0000
1000
0000
0100
0000
,
0010
0010
0010
0010
0000
0101
0000
1100
,
0001
0000
0000
0100
0000
0000
0010
0000
1000
0000
0000
0001
0000
0000
0010
0000
,
0001
0100
0100
1000
0100
0100
0010
0100
,
0001
0010
0100
1000
0100
0010
0001
0100
,
0020
0000
0000
0000
0000
0000
0100
0000
0130
0000
0000
0001
0000
0000
0001
0000
,
0001
0000
0000
1000
0000
0000
1000
0000
1000
0000
0100
0000
0010
0000
0001
0000
,
0100
0010
1000
0010
0100
0001
0010
0100
,
1000
0000
0100
0000
0010
0000
0001
0000
0100
0000
1000
0100
0010
0000
1000
0000
,
0100
0010
0001
0100
0010
1000
0100
1000
,
0010
0000
0100
0000
1000
0000
0100
0000
0010
0000
1000
0100
0010
0000
0001
0000
,
0100
0010
1000
0100
0010
0001
0010
0100
,
1000
0000
0001
0000
0100
0000
1000
0000
0100
0000
0001
1000
0100
0000
0010
0000
,
0100
1000
0010
0100
0001
0100
1000
0100
,
0001
0000
0010
0000
0100
0000
0001
0000
0100
0000
0010
0001
1000
0000
0100
0000
,
0010
0001
0100
1000
0100
0001
0010
0100
,
1000
0010
0100
0001
0101
1000
1100
0001
,
0101
1000
0100
0010
0001
0100
1000
0100
,
0010
1000
0100
1000
1010
0001
0011
1000
,
1010
0001
0100
0010
1000
0100
0010
0001
,
0100
0010
0100
0001
0101
1000
1100
0001
,
0101
1000
0001
1000
0010
0200
0310
0200
,
0301
0000
0010
0100
0000
1000
0000
0001
0000
0000
0100
0000
0001
1000
0000
1000
,
0200
0000
0000
0000
,
0010
0000
0000
0000
,
0001
0000
0000
0000
,
1000
0000
0010
0300
,
0010
0000
0001
0000
1000
0010
0100
0100
,
0000
0001
0000
1000
0000
0100
0000
0100
,
0000
0000
0010
0000
0020
0000
0000
0000
0000
0000
0000
0000
0030
0000
0001
1000
,
0100
0001
0100
1000
0010
0100
1001
0000
,
0001
0000
1000
0010
1000
0000
0100
0000
0010
0000
0001
0000
1000
0000
0010
0000
,
0000
0110
0000
1001
0000
0100
1001
0000
,
0200
0000
0301
0020
0000
0230
0000
2300
,
0000
3002
0000
0203
0000
0320
0000
1030
,
0001
0000
0010
0100
0010
0000
0001
0000
0100
0000
0010
0000
1000
0000
2001
0000
,
0000
3100
0010
0100
0010
0002
0000
2003
,
0000
0010
3020
0000
0000
0130
0100
0001
,
0010
0000
0100
0000
1000
0000
0010
0000
1000
0000
0100
0010
0100
0000
1000
0000
,
0001
0000
0010
0100
0010
0000
0001
0000
0100
0000
0010
0000
1000
0000
1000
0000
,
0000
0011
0000
0100
0010
1000
0100
0010
,
2002
0000
3003
0220
0000
0000
0330
0100
,
0001
0000
1000
0100
1000
0000
0001
0000
0010
0000
0100
0000
1000
0000
0010
0000
,
0100
0100
0100
0100
0000
0011
0000
1010
,
1000
0001
1000
0000
0100
0000
0010
0001
0000
0001
1000
0000
0010
0000
0100
0000
,
0010
0010
0010
0010
0000
1100
0000
0101
,
1000
0000
0000
0100
0000
0000
0010
0000
0001
0000
0000
1000
0000
0000
0010
0000
,
0100
0010
0010
0001
0010
0010
1000
0010
,
0100
0001
0010
0100
1000
0100
0010
0001
,
0100
0001
0100
0000
0010
0000
0100
0001
0000
1000
0000
0000
0010
0000
0100
0000
,
0010
0000
1000
0100
1000
0000
0010
0000
0100
0000
0001
0010
0001
0000
0100
0000
,
0010
0010
0010
0010
0000
1100
0000
0101
,
1000
0010
1000
0000
0001
0000
0010
0100
0000
0100
1000
0000
0001
0000
0010
0000
,
0100
0100
0100
0100
0000
1010
0000
0011
,
1000
0000
0000
0010
0000
0000
0100
0000
0001
0000
0000
1000
0000
0000
0100
0000
,
1000
0010
0010
0001
0010
0010
0100
0010
,
1000
0100
0010
0001
0010
0100
1000
0010
,
0200
0000
0000
0000
0000
0000
0010
0000
0310
0000
0000
1000
0000
0000
1000
0000
,
1000
0000
0000
0001
0000
0000
0001
0000
0001
0000
0010
0000
0100
0000
1000
0000
,
0220
0000
0000
0000
,
0000
0000
0000
0330
;

//---------------dance-single - ----------------
#NOTES:
     dance-single:
     :
     Challenge:
     18:
     1.000,1.000,0.824,0.740,0.462:
0000
0000
0000
0000
,
0000
0000
0000
0000
,
0000
0000
0000
0000
,
0000
0000
0000
0000
,
1000
0000
0100
0000
0010
0001
0100
0100
,
0000
1010
0000
0110
0000
0101
0000
0011
,
0000
0110
2002
0000
0000
0000
0000
0000
,
0000
0000
0000
3003
,
1000
0100
0001
0100
1000
0100
0010
0001
,
0000
0101
0000
1100
0010
0001
0101
0010
,
1100
0100
0011
0100
0001
0100
0010
1000
,
0000
0000
1100
0000
0000
0000
0101
0000
0110
0000
2000
3000
0110
0000
0002
0003
,
0110
1000
0100
0010
0001
0100
1000
0100
,
0010
1000
0001
0100
0010
1000
0100
0010
,
0001
0000
1000
0100
1000
0000
0001
0010
0001
0000
1000
0001
0100
0000
0001
1000
,
0010
0000
0100
0010
0000
1000
0000
0001
0010
0000
0100
0000
1000
0001
0000
0100
,
0010
0000
1000
0100
0010
0000
0100
0000
1000
0000
0001
0000
0100
0000
1010
0000
,
0000
0000
0011
0000
0000
0000
1100
0000
0001
0000
0100
0010
1000
0000
0001
0000
,
2200
3300
0001
0101
0000
0110
0000
1010
,
0000
1001
0000
0011
0000
1010
1000
0001
,
0101
0000
0010
0100
1000
0000
0010
0000
0100
0000
0001
0000
1000
0000
1100
0000
,
0000
0010
0001
1000
1100
0010
0100
0210
,
0000
1000
2300
0000
0000
3010
0010
0100
,
0001
0000
0010
0000
1000
0000
0010
0000
0001
0000
0100
0010
0100
0000
0001
0000
,
1100
0000
0010
0001
0100
0000
0010
0000
1000
0000
0100
0000
1000
0000
1010
0000
,
0000
0011
0000
0100
1100
0010
0001
0110
,
2002
0000
0000
0000
3003
0000
0220
0000
0000
0000
0000
0000
0330
0000
0010
1000
,
0001
0000
0010
0100
1000
0000
0101
0000
0010
0000
1000
0000
0110
0000
0001
0000
,
0120
0100
0130
0101
0000
1010
0000
1001
,
0010
0100
1000
0000
0010
0000
0100
1000
0000
0001
0010
0000
1000
0000
0001
0000
,
0210
0010
0310
0011
0000
1100
0000
1001
,
0100
0000
0010
1000
0000
0000
0100
0000
0010
0000
0001
0100
0000
0000
0010
1000
,
0200
0000
0310
0001
0100
0000
0020
0000
0130
0001
0010
0000
0200
0000
0310
0000
,
0002
0203
2300
3200
0320
2030
3200
0320
,
0031
0100
1000
0100
0001
0000
1000
0100
0000
0020
0000
0000
0031
0000
0100
0000
,
0010
0000
2000
0100
3001
0000
0100
0000
1000
0000
0002
0100
1003
0000
0100
0000
,
2010
0010
3010
0101
0000
0011
0000
1100
,
0001
0100
0010
0000
1000
0000
0100
0001
0000
1000
0010
0000
0001
0000
0100
0000
,
0012
0010
0013
1100
0000
1010
0000
0101
,
0010
0000
0100
0001
0000
0000
0010
0000
0100
0000
1000
0001
0000
0000
0010
0001
,
2000
0000
3100
1000
0010
0000
0200
0000
0310
1000
0100
0000
0020
0000
0130
0000
,
2000
3200
0302
0203
0320
0032
0203
0320
,
2030
0000
0000
0000
0000
0000
3001
0100
0020
0000
0000
0230
0000
0000
0301
0000
,
2000
0000
0000
3200
0000
0000
0310
0000
0002
0000
1003
0100
0001
0000
0100
0000
,
1000
0000
0010
1000
0100
0000
0010
0000
0001
0100
1000
0000
0100
0000
0010
1000
,
0100
0000
0001
0000
0100
1000
0001
0000
0100
0000
0010
1000
0100
0000
1000
0000
,
0001
0000
0010
0001
0100
0000
1000
0000
0100
0001
0010
0000
0100
0000
1000
0100
,
0001
0000
0100
0000
1000
0010
0100
0000
0001
0000
1000
0001
0010
0000
0100
0000
,
1000
0000
0100
0100
0100
0000
1000
0000
0010
0100
0001
0000
0010
0000
0100
0100
,
0100
0000
0010
0000
0001
0100
1000
0000
0100
0000
0001
0010
0100
0000
1000
0000
,
0001
0000
0100
0100
0100
0000
0001
0000
0010
0001
0100
0000
0010
0000
0100
0100
,
0100
0000
0010
0000
1000
0100
0001
0000
0100
0000
0010
0001
0100
0000
0010
0000
,
1001
0000
0010
1000
0001
0000
0100
0000
1000
0100
0001
0000
1000
0000
0100
0100
,
0100
0000
1000
0000
0010
0100
0001
0000
1100
0000
0010
0000
0101
0000
0010
0000
,
1100
0000
0010
0001
0100
0000
0010
0000
1000
0010
0001
0000
0010
0000
0100
0100
,
0100
0000
0001
0000
1000
0001
0100
0000
1010
0000
0100
0000
0011
0000
0100
0000
,
1010
0000
0100
0001
1000
0000
0100
0000
0001
0100
1000
0000
0010
0000
0100
0100
,
0100
0000
0010
0000
1000
0001
0010
0000
1100
0000
0010
0000
0101
0000
0010
0000
,
1000
0100
1000
0100
0010
0001
0010
0001
1000
0010
0001
0010
1000
0010
0100
0001
,
0010
0000
0100
1000
0000
1100
0000
0100
0010
0000
0011
0000
0001
1000
0000
1000
,
0010
0000
0100
0000
0001
0000
0100
0010
,
0000
0100
0000
0001
0000
1000
0100
0001
,
0100
0000
0010
0000
1000
0010
0000
0001
,
0000
0100
0000
1000
0000
0100
0000
0010
,
1000
0000
0001
0000
0010
0100
0001
0100
,
0000
1000
0000
0010
0000
0100
0000
1001
,
0000
0000
0110
0000
2002
0000
0000
0000
0000
0000
0000
0000
3003
0000
0010
0100
,
0001
0010
0100
1000
0001
0100
1010
0001
,
0010
0000
0001
0100
1000
0000
0100
0000
0010
0000
1000
0000
0100
0000
0011
0000
,
0000
0000
1100
0000
0000
0000
1010
0000
0100
0000
0001
0010
0100
0000
1000
0000
,
0202
0303
1000
1100
0000
0110
0000
0011
,
0000
1010
0000
0101
0000
1001
0100
0110
,
0001
0000
1000
0010
0001
0000
0010
0000
0100
0000
0001
0000
0010
0000
0110
0000
,
0000
1000
0100
0001
0110
0100
1000
1002
,
0000
0010
0023
0000
0000
0130
0100
1000
,
0001
0000
0100
0000
0010
0000
1000
0000
0001
0000
0100
0001
0010
0000
0100
0000
,
1001
0000
0010
1000
0100
0000
0001
0000
1000
0000
0010
0000
0001
0000
0101
0000
,
0000
1000
0010
0100
0101
0010
1000
1001
,
0220
0000
0000
0000
0330
0000
2002
0000
0000
0000
0000
0000
3003
0000
0010
1000
,
0100
0000
0001
0100
1000
0000
1010
0000
0100
0000
0001
0000
0110
0000
1000
0000
,
0102
0100
0103
0110
0000
1100
0000
0101
,
1000
0100
0001
0000
0100
0000
1000
0010
0000
0010
0001
0000
0010
0000
0100
0000
,
2010
0010
3010
0110
0000
0101
0000
1100
,
0001
0000
0100
1000
0000
0000
0001
0000
0010
0000
1000
0010
0000
0000
0100
0001
,
0020
0000
1030
0010
0001
0000
0200
0000
0301
0010
1000
0000
0020
0000
0031
0000
,
0200
0320
0032
2003
3200
0302
2003
3200
,
1300
0010
0001
0010
1000
0000
0001
0010
0000
0100
0001
0000
0100
0000
1000
0000
,
0010
0000
2000
0100
3001
0000
0100
0000
1000
0000
0020
1000
0130
0000
0010
0000
,
0012
0010
0013
1100
0000
1010
0000
0101
,
1000
0100
0001
0000
0100
0000
1000
0010
0000
0010
0001
0000
0010
0000
0100
0000
,
2010
0010
3010
0101
0000
1100
0000
0011
,
1000
0000
0100
0001
0000
0000
1000
0000
0010
0000
0001
0100
0000
0000
0010
1000
,
0200
0000
0301
0100
1000
0000
0002
0000
1003
0010
0001
0000
2000
0000
3001
0000
,
0020
2030
3002
0203
0320
0032
2003
3200
,
0302
0000
0000
0000
0000
0000
1003
0100
0020
0000
0000
0032
0000
0000
1003
0000
,
0020
0000
0000
0230
0000
0000
0301
0000
2000
0000
3001
0010
1000
0000
0010
0000
,
0002
0203
0320
2030
,
0200
3000
0000
0002
0300
0000
1003
0000
;

//---------------dance-single - ----------------
#NOTES:
     dance-single:
     :
     Medium:
     11:
     0.594,0.597,0.244,0.458,0.099:
0000
0000
0000
0000
,
0000
0000
0000
0000
,
0000
0000
0000
0000
,
0000
0000
0000
0000
,
2000
0000
0000
0000
,
3200
0000
0000
0000
,
0320
0000
0000
0000
,
0000
0000
0000
0030
,
0001
0000
0100
0001
0100
0000
1000
0100
,
0000
0100
0000
0100
0010
0000
0001
0000
,
1000
0000
0010
1000
0010
0000
0100
0010
,
0000
0010
0000
0010
1000
0001
1000
0001
,
0010
0000
0100
1000
0100
0000
0010
0001
,
0000
0001
0000
0001
1000
0010
0100
0001
,
1000
0100
1000
0100
0001
0100
0001
0100
,
1000
0000
0000
0001
0000
0100
0000
0010
0000
0000
0000
0000
1001
0000
0000
0000
,
1000
0100
0100
0010
0001
0100
0010
0100
,
0000
1001
0000
0110
0000
1000
0001
0000
,
1000
0000
0100
0010
0000
0001
0000
0110
,
0000
1000
0000
0110
0000
0001
0000
0100
,
0010
0001
0010
0100
1000
0100
0001
0001
,
0000
1000
0100
1000
0100
0010
0000
1001
,
0000
0100
0200
0000
0000
0010
0010
0000
,
1000
0010
0001
0310
,
0001
0100
0100
0010
1000
0100
0010
0010
,
0000
0001
0000
1000
0100
1000
0010
0100
,
0002
0000
0000
2000
0000
0000
3003
0001
,
0100
0000
0000
0100
0000
0000
0100
0000
0010
0000
1000
0000
0100
0000
0000
0000
,
0200
0000
0000
0320
0000
0032
0000
2003
,
0001
0000
0000
0000
0001
0000
0000
0100
0000
0000
0010
0000
3010
0000
0000
0000
,
0200
0000
0000
0320
0000
2030
0000
3002
,
0010
0000
0000
1000
0000
0000
0100
0000
0100
0000
0000
1000
0000
0000
0013
0000
,
0001
0100
0000
1000
0100
0000
0001
0000
,
0010
0100
1000
0010
0100
0001
0010
0100
,
0010
0000
0010
0000
0100
0000
0000
0100
0000
0100
0000
0000
1000
0000
1000
0000
,
0001
0101
1000
1100
,
2000
0000
0000
3200
0000
0320
0000
0032
,
0100
0000
0000
0000
0100
0000
0000
1000
0000
0000
0010
0000
0013
0000
0000
0000
,
0002
0000
0000
0203
0000
0320
0000
2030
,
0010
0000
0000
0001
0000
0000
0100
0000
0100
0000
0000
0001
0000
0000
3010
0000
,
1000
0100
0000
0001
0100
0000
1000
0000
,
0100
0010
0001
0010
0100
1000
0010
1000
,
0200
0000
0000
0000
0000
0000
0010
0000
0310
0000
0000
0100
0000
0000
0100
0000
,
0100
1010
0101
1001
,
0001
0000
0100
0000
0010
1000
0100
0000
,
0010
0000
0100
1000
0001
0000
0100
0000
,
0010
0000
1000
0100
0001
0000
0100
0000
,
1000
0000
0010
0100
0001
0000
1000
0000
,
0001
0000
0100
0010
0100
0000
0001
0000
,
1000
0000
0100
0000
0010
0100
1000
0000
,
0001
0000
1000
0100
1000
0000
0001
0000
,
0100
0000
0010
0000
1000
0001
1000
0000
,
0001
0000
0100
0010
0100
0000
0001
1000
,
0001
1000
1100
0101
,
1001
0000
0001
0100
0001
0000
1000
0000
,
0100
0010
0100
0000
1100
0000
0110
0000
,
0011
0000
0100
0010
0100
0000
0001
0000
,
1000
0100
1000
0000
0011
0000
0110
0000
,
1100
0100
1000
0100
0010
0001
0010
0001
,
0100
0000
0000
0010
0000
1000
0000
0001
0000
0000
0000
0000
1001
0000
0000
0000
,
0020
0000
0000
0000
,
0230
0000
0000
0000
,
0302
0000
0000
0000
,
2003
0000
3020
0000
,
0130
0000
0001
0000
1000
0100
0010
0010
,
0000
0100
0000
1000
0000
0001
0000
0100
,
0000
0010
0020
0000
0000
0000
0030
1000
,
0100
1100
0101
1001
,
0010
1000
0100
0000
0010
0100
1000
0001
,
0000
0100
0000
0010
0000
0100
1001
0000
,
0001
0000
0100
0002
0000
2003
0000
3200
,
0000
0320
0000
0230
0000
2300
0000
3001
,
0100
0010
0100
0000
0001
1000
0001
0002
,
0000
0013
0100
0010
0100
2000
0000
3002
,
0000
0103
0200
0000
0000
0010
0010
0000
,
1000
0001
1000
0310
,
1000
0100
1000
0000
0001
0100
0010
0010
,
0000
0100
0000
0001
1000
0100
0010
0001
,
2000
0000
0000
0002
0000
0000
3003
1000
,
0100
0000
0000
0100
0000
0000
0100
0000
0010
0000
0001
0000
1001
0000
0000
0000
,
0020
0000
0000
0230
0000
0302
0000
2003
,
0001
0000
0000
0000
0001
0000
0000
0010
0000
0000
0100
0000
3100
0000
0000
0000
,
0020
0000
0000
0230
0000
2300
0000
3002
,
0100
0000
0000
1000
0000
0000
0010
0000
0010
0000
0000
1000
0000
0000
0103
0000
,
0001
0010
0000
1000
0010
0000
0001
0000
,
0100
0010
1000
0100
0010
0001
0100
0010
,
0100
0000
0100
0000
0010
0000
0000
0010
0000
0010
0000
0000
1000
0000
1000
0000
,
0001
0011
1000
1010
,
2000
0000
0000
3020
0000
0230
0000
0302
,
0010
0000
0000
0000
0010
0000
0000
1000
0000
0000
0100
0000
0103
0000
0000
0000
,
0002
0000
0000
0023
0000
0230
0000
2300
,
0100
0000
0000
0001
0000
0000
0010
0000
0010
0000
0000
0001
0000
0000
3100
0000
,
1000
0010
0000
0001
0010
0000
1000
0000
,
0010
0100
0001
0100
0010
1000
0100
1000
,
0020
0000
0000
0000
0000
0000
0100
0000
0130
0000
0000
0010
0000
0000
0010
0000
,
0010
1100
0011
1001
,
0220
0000
0000
0000
,
0000
0000
0000
0330
;

//---------------dance-single - ----------------
#NOTES:
     dance-single:
     :
     Easy:
     8:
     0.387,0.410,0.069,0.069,0.000:
0000
0000
0000
0000
,
0000
0000
0000
0000
,
0000
0000
0000
0000
,
0000
0000
0000
0000
,
0001
0000
0000
0000
,
0100
0000
0000
0000
,
0020
0000
0000
0000
,
0000
0000
0030
0000
,
1000
0100
1000
0000
0001
0000
0100
0000
,
0010
0000
0100
0000
0001
1000
0100
0000
,
0010
0001
0010
0000
0100
0000
1000
0000
,
0001
0000
0100
0000
0010
0100
0001
0000
,
1000
0100
1000
0000
0010
0000
0100
0000
,
0001
0000
1000
0000
0100
0010
0100
0000
,
1000
0001
1000
0000
0001
0000
0100
0000
,
0010
0010
0010
1001
,
0100
0001
0100
0000
0010
0000
1000
0100
,
0000
0010
0000
0100
0000
1000
0001
0000
,
0100
0000
0010
0100
0000
0001
0000
1000
,
0000
0100
0000
0010
0000
0001
0000
0000
,
1000
0000
0100
0000
0010
0000
0100
1000
,
0000
0001
0100
0000
0010
0000
0100
0001
,
0000
1000
0200
0000
0000
0000
0000
0000
,
0000
0000
0300
0000
,
0010
0000
0100
0000
1000
0000
0001
0100
,
0000
0001
0000
1000
0100
0000
0010
0000
,
0100
0000
0000
2000
0000
0000
0000
0000
,
3000
0000
0000
0000
,
0001
0000
0000
0100
0000
0010
0000
0010
,
1000
0000
1000
0000
0001
0100
0001
0000
,
1000
0000
0000
0100
0000
0010
0000
0001
,
0100
0001
1000
0100
,
1000
0000
0000
1000
0000
0000
1000
0000
,
0001
0001
0100
0100
,
0010
0100
0001
1000
,
0100
0100
0010
0010
,
0001
0000
0000
0010
0000
0100
0000
0100
,
1000
0000
0001
0000
0100
0010
1000
0000
,
0001
0000
0000
1000
0000
0100
0000
1000
,
0001
0100
0010
1000
,
0001
0000
0000
0001
0000
0000
0001
0000
,
1000
1000
0100
0100
,
0020
0000
0031
0100
,
0001
1000
0100
0010
,
0001
0001
1000
1000
,
0001
0000
0010
0000
0100
1000
0100
0000
,
0010
0010
0100
0100
,
0010
0000
0100
0000
1000
0001
1000
0000
,
0001
0001
1000
1000
,
0001
0000
0100
0000
0010
1000
0010
0000
,
0100
0100
0010
0010
,
0100
0000
0100
0000
0001
1000
0001
0000
,
0010
0100
1000
0001
,
0100
0010
0110
0110
,
0100
0001
1000
0100
,
0010
0001
1001
1001
,
1000
0010
0100
0001
,
1000
0100
0110
0110
,
0010
0000
0001
0000
0100
0010
0100
0010
,
0100
0100
0100
0100
,
0001
0000
0000
0000
,
1000
0000
0000
0000
,
0100
0000
0000
0000
,
0010
0000
0001
0000
,
1000
0100
0010
0100
,
1000
0001
0100
0010
,
0100
0000
0000
0000
,
0010
0000
0000
1001
,
0100
1000
0100
0000
0010
0000
0001
0100
,
0000
0010
0000
0100
0000
0001
1000
0000
,
0100
0000
0010
0100
0000
1000
0000
0001
,
0000
0100
0000
0010
0000
1000
0000
0000
,
0001
0000
0100
0000
0010
0000
0100
0001
,
0000
1000
0100
0000
0010
0000
0100
1000
,
0000
0001
0200
0000
0000
0000
0000
0000
,
0000
0000
0300
0000
,
0010
0000
0100
0000
0001
0000
1000
0100
,
0000
1000
0000
0001
0100
0000
0010
0000
,
0100
0000
0000
0002
0000
0000
0000
0000
,
0003
0000
0000
0000
,
1000
0000
0000
0100
0000
0010
0000
0010
,
0001
0000
0001
0000
1000
0100
1000
0000
,
0001
0000
0000
0100
0000
0010
0000
1000
,
0100
1000
0001
0100
,
0001
0000
0000
0001
0000
0000
0001
0000
,
1000
1000
0100
0100
,
0010
0100
1000
0001
,
0100
0100
0010
0010
,
1000
0000
0000
0010
0000
0100
0000
0100
,
0001
0000
1000
0000
0100
0010
0001
0000
,
1000
0000
0000
0001
0000
0100
0000
0001
,
1000
0100
0010
0001
,
1000
0000
0000
1000
0000
0000
1000
0000
,
0001
0001
0100
0100
,
0020
0000
1030
0100
,
1000
0001
0100
0010
,
2002
0000
0000
0000
,
0000
0000
0000
3003
;

//---------------dance-single - ----------------
#NOTES:
     dance-single:
     :
     Beginner:
     4:
     0.222,0.261,0.000,0.008,0.000:
0000
0000
0000
0000
,
0000
0000
0000
0000
,
0000
0000
0000
0000
,
0000
0000
0000
0000
,
1000
0000
0000
0000
,
0100
0000
0000
0000
,
0010
0000
0000
0000
,
0000
0000
0000
0000
,
0001
0000
0001
0000
,
0100
0100
0100
0000
,
1000
0000
1000
0000
,
0010
0010
0010
0000
,
0001
0000
0001
0000
,
0010
0010
0010
0000
,
1000
0000
1000
0000
,
0100
0100
0100
0000
,
0001
0000
0001
0000
,
1000
0000
1000
0000
,
0100
0000
0100
0000
,
0010
0010
0010
0010
,
0010
0000
0010
0000
,
0001
0000
0001
0000
,
0100
0000
0000
0000
,
0010
0010
0100
0100
,
0100
0000
0100
0000
,
0001
0000
0001
0000
,
1000
0000
1000
0000
,
0001
0001
0001
0000
,
0100
0000
0100
0000
,
0010
0010
0010
0000
,
0100
0000
0100
0000
,
0001
0001
0001
0000
,
1000
0000
1000
0000
,
0100
0000
0100
0000
,
0010
0000
0010
0000
,
0001
0000
0001
0000
,
1000
0000
1000
0000
,
0001
0001
0001
0000
,
0100
0000
0100
0000
,
0001
0001
0001
0000
,
0010
0000
0010
0000
,
0100
0000
0100
0000
,
1000
0000
0001
0000
,
0100
0000
0010
0000
,
1000
0000
1000
0000
,
1000
0000
1000
0000
,
0100
0000
0100
0000
,
0100
0000
0100
0000
,
0010
0000
0010
0000
,
0010
0000
0010
0000
,
0001
0000
0001
0000
,
0001
0000
0001
0000
,
1000
0000
0010
0000
,
0100
0100
0100
0000
,
0001
0000
0010
0000
,
0100
0100
0100
0000
,
1000
0000
0100
0000
,
0010
0010
0010
0000
,
0001
0000
0100
0000
,
0010
0010
0010
0000
,
1000
0000
0000
0000
,
0100
0000
0000
0000
,
0010
0000
0000
0000
,
0001
0000
0001
0000
,
0001
0000
0000
0000
,
0100
0000
0000
0000
,
0010
0000
0000
0000
,
0100
0100
0100
0100
,
0100
0000
0100
0000
,
0001
0000
0001
0000
,
1000
0000
1000
0000
,
0100
0000
0100
0000
,
0010
0000
0010
0000
,
0001
0000
0001
0000
,
1000
0000
0000
0000
,
1000
1000
1000
0000
,
0001
0000
0001
0000
,
0100
0100
0100
0000
,
0010
0000
1000
0000
,
0001
0001
0001
0000
,
0010
0000
0010
0000
,
0100
0100
0100
0000
,
1000
0000
0001
0000
,
0100
0100
0100
0000
,
0001
0001
0001
0000
,
1000
1000
1000
0000
,
0100
0100
0100
0000
,
0010
0000
0010
0000
,
0100
0000
1000
0000
,
0001
0001
0001
0000
,
0100
0000
0010
0000
,
1000
1000
1000
0000
,
0001
0000
0001
0000
,
1000
0000
1000
0000
,
0100
0000
0010
0010
,
0010
0000
0100
0100
,
0200
0000
0000
0000
,
0000
0000
0000
0300
;

//---------------dance-double - ----------------
#NOTES:
     dance-double:
     :
     Hard:
     14:
     0.704,0.746,0.214,0.252,0.191:
00000000
00000000
00000000
00000000
,
00000000
00000000
00000000
00000000
,
00000000
00000000
00000000
00000000
,
00000000
00000000
00000000
00000000
,
00020000
00000000
00000000
00000000
,
00032000
00000000
00000000
00000000
,
02003000
00000000
00000000
00000000
,
00000000
00000000
00000000
03000000
,
00100000
10000000
00010000
00100000
00001000
00010000
00000010
00001000
,
00000000
00000001
00000000
00000001
00000010
00000100
00001000
00000000
,
00000100
00010000
00001000
01000000
00100000
00010000
00001000
00000100
,
00000000
00000010
00000000
00000010
00001000
00100000
00010000
00000000
,
00001000
01000000
00010000
00100000
01000000
10000000
01000000
00010000
,
00000000
00001000
00000000
00001000
00000100
00000010
00001000
00000000
,
00000100
00000010
00000001
00000100
00010000
00000100
00000010
00001000
,
00000100
00000000
00000010
00000001
00000000
00001000
00000000
00000010
00000000
00000000
00000000
00000000
00001000
00000100
00000000
00000100
,
00010000
00000000
00001000
01000000
00001000
00000000
00010000
00000000
01000000
00000000
10000000
00000000
00100000
00000000
01000000
00000000
,
00000000
00000000
00100000
00000000
00000000
00000000
01000000
00000000
00010000
00000000
00100000
00001000
00100000
00000000
00000000
00000000
,
00001000
00000000
00010000
00000100
00000000
00000010
00000000
00000001
,
00000000
00000100
00000000
00000010
00000000
00001000
00000000
00000100
,
00010000
00000000
00001000
00100000
00001000
00000000
00010000
00000000
01000000
00000000
10000000
00000000
00100000
00000000
00100000
00000000
,
00000000
10000000
00100000
10000000
00100000
01000000
00000000
00010000
,
00000000
00100000
00002000
00000000
00000000
00000000
00000100
00000000
,
00023000
00000000
01000000
00000000
00031000
00100000
01000000
00100000
,
00001000
00000000
00010000
00000010
00010000
00000000
00000010
00000000
00000100
00000000
00000001
00000000
00000010
00000000
00000010
00000000
,
00000000
00001100
00000000
00001000
00000100
00001000
00000010
00000100
,
00000002
00000000
00000000
00002000
00000000
00000000
00003003
00000001
,
00001000
00000000
00000000
00010000
00000000
00000000
10000000
00000000
00010000
00000000
00001000
00000000
00000001
00000000
00000000
00000000
,
00001000
00000100
00001000
00001100
00000000
00011000
00000000
01010000
,
01000000
00010000
01000000
00000000
00100000
00000000
01000000
00010000
00000000
00010000
00100000
00000000
00010000
00000000
01000000
00000000
,
00001000
01000000
00010000
01010000
00000000
00011000
00000000
00001100
,
00000100
00000000
00000000
00000010
00000000
00000000
00000001
00000000
00000100
00000000
00000000
00000010
00000000
00000000
00001000
00000000
,
00000100
00010000
00010000
01000000
00010000
00010000
00000010
00001000
,
00000100
00010000
00001000
00100000
00010000
01000000
00100000
10000000
,
01000000
00100000
01000000
00000000
10000000
00000000
00010000
01000000
00000000
00200000
00000000
00000000
01300000
00000000
00010000
00000000
,
10000000
01000000
00010000
00001000
00000100
00000001
00000010
00001000
,
00010000
01000000
00010000
01010000
00000000
00011000
00000000
00001100
,
00000100
00001000
00000100
00000000
00000010
00000000
00000100
00001000
00000000
00001000
00000010
00000000
00001000
00000000
00000100
00000000
,
00010000
00000100
00001000
00001100
00000000
00011000
00000000
01010000
,
01000000
00000000
00000000
00100000
00000000
00000000
10000000
00000000
01000000
00000000
00000000
00100000
00000000
00000000
00010000
00000000
,
01000000
00001000
00001000
00000100
00001000
00001000
00100000
00010000
,
01000000
00001000
00010000
00000010
00001000
00000100
00000010
00000001
,
00000020
00000000
00000000
00000000
00000000
00000000
00001030
00000000
00000010
00000000
00000000
00000001
00000000
00000000
00000100
00000000
,
00000010
00000000
00000000
00001000
00000000
00000000
00000100
00000000
00010000
00000000
00001000
00000000
01000000
00000000
00100000
00000000
,
10000000
01000000
10000000
01000000
00100000
00010000
01000000
00010000
,
00100000
00001000
00010000
00000100
00000010
00000001
00000100
00000000
,
00000001
00000010
00000001
00000010
00000001
00000100
00000010
00001000
,
00000100
00010000
00001000
00100000
00010000
01000000
10000000
00000000
,
01000000
00100000
01000000
00100000
10000000
01000000
00010000
00001000
,
00000100
00000001
00000010
00001000
00000010
00000001
00000100
00000000
,
00000001
00000100
00000001
00000100
00000001
00000010
00001000
00010000
,
01000000
10000000
00100000
01000000
00010000
10000000
01000000
00000000
,
10000000
01000000
00100000
00010000
01000000
00001000
00010000
00000100
,
00001000
00000010
00000100
00000001
00000020
00001030
00000020
00000031
,
00000020
00000130
00010000
00001000
00100000
00010000
01000000
00100000
,
10000000
01000000
00100000
00010000
02000000
13000000
02000000
03100000
,
02000000
03010000
00100000
00001000
00010000
00000010
00001000
00000100
,
00000010
00000001
00000100
00000010
00002000
00003100
00002000
00003010
,
00002000
00003001
00000100
00001000
00010000
02000000
13000000
00200000
,
10300000
00000000
01000000
00100000
00000000
00010000
00000000
01000000
00000000
00000000
00000000
00000000
00001000
00010000
00000000
00010000
,
00000200
00000000
00000000
00000000
,
00000320
00000000
00000000
00000000
,
00000032
00000000
00000000
00000000
,
00000203
00000000
00000000
00000000
,
00000310
00000000
00001000
00000000
00000100
00010000
00001000
00001000
,
00000000
01000000
00000000
00010000
00000000
00100000
00000000
01000000
,
00000000
10000000
02000000
00000000
00000000
00000000
00000000
03100000
,
00010000
01000000
00010000
00100000
00001000
00010000
00011000
00000000
,
00001000
00000000
00010000
00000010
00010000
00000000
00001000
00000000
00000010
00000000
00000001
00000000
00000100
00000000
00000010
00000000
,
00000000
00000000
00000100
00000000
00000000
00000000
00000010
00000000
00001000
00000000
00000100
00010000
00000100
00000000
00000000
00000000
,
00010000
00000000
00001000
00100000
00000000
01000000
00000000
10000000
,
00000000
00100000
00000000
01000000
00000000
00010000
00000000
00100000
,
00001000
00000000
00010000
00000100
00010000
00000000
00001000
00000000
00000010
00000000
00000001
00000000
00000100
00000000
00000100
00000000
,
00000000
00000001
00000100
00000001
00000100
00000010
00000000
00001000
,
00000000
00000100
00020000
00000000
00000000
00000000
00100000
00000000
,
00032000
00000000
00000010
00000000
00013000
00000100
00000010
00000100
,
00010000
00000000
00001000
01000000
00001000
00000000
01000000
00000000
00100000
00000000
10000000
00000000
01000000
00000000
01000000
00000000
,
00000000
00110000
00000000
00010000
00100000
00010000
01000000
00100000
,
20000000
00000000
00000000
00020000
00000000
00000000
30030000
10000000
,
00010000
00000000
00000000
00001000
00000000
00000000
00000001
00000000
00001000
00000000
00010000
00000000
10000000
00000000
00000000
00000000
,
00010000
00100000
00010000
00110000
00000000
00011000
00000000
00001010
,
00000010
00001000
00000010
00000000
00000100
00000000
00000010
00001000
00000000
00001000
00000100
00000000
00001000
00000000
00000010
00000000
,
00010000
00000010
00001000
00001010
00000000
00011000
00000000
00110000
,
00100000
00000000
00000000
01000000
00000000
00000000
10000000
00000000
00100000
00000000
00000000
01000000
00000000
00000000
00010000
00000000
,
00100000
00001000
00001000
00000010
00001000
00001000
01000000
00010000
,
00100000
00001000
00010000
00000100
00001000
00000010
00000100
00000001
,
00000010
00000100
00000010
00000000
00000001
00000000
00001000
00000010
00000000
00000200
00000000
00000000
00000310
00000000
00001000
00000000
,
00000001
00000010
00001000
00010000
00100000
10000000
01000000
00010000
,
00001000
00000010
00001000
00001010
00000000
00011000
00000000
00110000
,
00100000
00010000
00100000
00000000
01000000
00000000
00100000
00010000
00000000
00010000
01000000
00000000
00010000
00000000
00100000
00000000
,
00001000
00100000
00010000
00110000
00000000
00011000
00000000
00001010
,
00000010
00000000
00000000
00000100
00000000
00000000
00000001
00000000
00000010
00000000
00000000
00000100
00000000
00000000
00001000
00000000
,
00000010
00010000
00010000
00100000
00010000
00010000
00000100
00001000
,
00000010
00010000
00001000
01000000
00010000
00100000
01000000
10000000
,
02000000
00000000
00000000
00000000
00000000
00000000
03010000
00000000
01000000
00000000
00000000
10000000
00000000
00000000
00100000
00000000
,
01000000
00000000
00000000
00010000
00000000
00000000
00100000
00000000
00001000
00000000
00010000
00000000
00000010
00000000
00000100
00000000
,
00002002
00000000
00000000
00000000
,
00000000
00000000
00000000
00003003
;

//---------------dance-double - ----------------
#NOTES:
     dance-double:
     :
     Medium:
     11:
     0.563,0.597,0.031,0.290,0.122:
00000000
00000000
00000000
00000000
,
00000000
00000000
00000000
00000000
,
00000000
00000000
00000000
00000000
,
00000000
00000000
00000000
00000000
,
20000000
00000000
00000000
00000000
,
32000000
00000000
00000000
00000000
,
03200000
00000000
00000000
00000000
,
00000000
00000000
00000000
00300000
,
00001000
01000000
00001000
00000000
00010000
00000000
00000100
00000010
,
00000000
00000010
00000000
00000010
00000001
00000000
00000100
00000000
,
00000010
00001000
00000010
00000000
00001000
00000000
00000100
00010000
,
00000000
00010000
00000000
00010000
00001000
00000000
01000000
00000000
,
00010000
00100000
01000000
00000000
10000000
00000000
01000000
00100000
,
00000000
00100000
00000000
00100000
00001000
00000000
00010000
00000000
,
00000100
00001000
00000010
00000000
00000100
00000001
00000010
00000000
,
00000100
00000000
00000000
00001000
00000000
00000100
00000000
00010000
00000000
00000000
00000000
00000000
00001000
01000000
00000000
01000000
,
00001000
00100000
00010000
01000000
00100000
10000000
01000000
10000000
,
00000000
01000000
00000000
00100000
00000000
00010000
01000000
00000000
,
00010000
00000000
00100000
00001000
00000000
00010000
00000000
00001000
,
00000000
00010000
00000000
00000100
00000000
00001000
00000000
00000010
,
00000100
00000000
00000001
00000000
00000010
00000100
00001000
00001000
,
00000000
00000100
00000000
00010000
00000000
00001000
00000000
00001000
,
00000000
01000000
02000000
00000000
00000000
00000000
00100000
00000000
,
00010000
00000000
03100000
00000000
00010000
10000000
01000000
00000000
,
00100000
00010000
01000000
00010000
00100000
00001000
00010000
00000100
,
00000000
00001000
00000000
00000010
00000100
00000000
00000001
00000100
,
00000020
00000000
00000000
00002030
00000000
00000000
00003000
00000100
,
00010000
00000000
00000000
00010000
00000000
00000000
00010000
00000000
00001000
00000000
01000000
00000000
00100000
00000000
00000000
00000000
,
20000000
00000000
00000000
32000000
00000000
03100000
00000000
00100000
,
00001000
00000000
00010000
00000000
00001000
00000000
00000000
00010000
00000000
00000000
00000100
00000000
00001000
00000000
00000000
00000000
,
00000020
00000000
00000000
00000230
00000000
00000302
00000000
00001003
,
00000100
00000000
00000000
00001000
00000000
00000000
00000100
00000000
00010000
00000000
00000000
00001000
00000000
00000000
00010000
00000000
,
00001000
01000000
00000000
00100000
01000000
00000000
00010000
00000000
,
10000000
01000000
00010000
00000000
00001000
00000100
00000001
00000000
,
00000010
00000000
00000100
00000000
00000010
00000000
00000000
00000001
00000000
00000001
00000000
00000000
00000010
00000000
00000100
00000000
,
00001000
00001100
00000001
00000101
,
00000002
00000000
00000000
00000203
00000000
00000310
00000000
00000010
,
00010000
00000000
00001000
00000000
00010000
00000000
00000000
00001000
00000000
00000000
01000000
00000000
00010000
00000000
00000000
00000000
,
00200000
00000000
00000000
02300000
00000000
23000000
00000000
30010000
,
01000000
00000000
00000000
00010000
00000000
00000000
01000000
00000000
00001000
00000000
00000000
00010000
00000000
00000000
00001000
00000000
,
00010000
00000100
00000000
00000010
00000100
00000000
00001000
00000000
,
00000001
00000100
00001000
00000000
00010000
01000000
10000000
00000000
,
00200000
00000000
00000000
00000000
00000000
00000000
10000000
00000000
10300000
00000000
00000000
01000000
00000000
00000000
01000000
00000000
,
01000000
00000000
00000000
00100000
00000000
00000000
00100000
00000000
00100000
00000000
00010000
00000000
10000000
00000000
00100000
00000000
,
01000000
00100000
10000000
00000000
01000000
00100000
00010000
00000000
,
01000000
00010000
00100000
00001000
00010000
00000100
00001000
00000000
,
00000010
00000100
00000001
00000000
00000010
00000100
00001000
00000000
,
00000001
00000100
00000010
00001000
00000100
00010000
00001000
00000000
,
00100000
00010000
01000000
00000000
00100000
10000000
01000000
00000000
,
00010000
00001000
00000100
00000010
00001000
00000100
00000010
00000000
,
00000001
00000010
00000100
00000000
00001000
00000100
00000010
00000000
,
00000001
00000100
00001000
00010000
01000000
00100000
00010000
00000000
,
10000000
01000000
00010000
00000000
00010000
01000000
10000000
00000000
,
10000000
00100000
00010000
00001000
00000100
00000001
00000010
00000000
,
00000001
00000100
00001000
00000000
00001000
00000100
00000001
00000000
,
00000001
00000010
00001000
00010000
01000000
10000000
00100000
00000000
,
10000000
00100000
00010000
00000000
00010000
00100000
10000000
00000000
,
10000000
01000000
00010000
00001000
00000010
00000001
00000100
00000000
,
00000001
00000010
00000001
00000010
00000100
00001000
00000100
00001000
,
00000100
00000000
00000000
00010000
00000000
00001000
00000000
00010000
00000000
00000000
00000000
00000000
00001000
01000000
00000000
01000000
,
00020000
00000000
00000000
00000000
,
00230000
00000000
00000000
00000000
,
02300000
00000000
00000000
00000000
,
23000000
00000000
30200000
00000000
,
01300000
00000000
00010000
00000000
10000000
01000000
00100000
00100000
,
00000000
00010000
00000000
01000000
00000000
00001000
00000000
00010000
,
00000000
00000100
00020000
00000000
00000000
00000000
00030000
00001000
,
01000000
00000000
00010000
00000000
00100000
01000000
00100000
00001000
,
00010000
00000100
00001000
00000010
00000100
00000001
00000010
00000001
,
00000000
00000010
00000000
00000100
00000000
00001000
00000010
00000000
,
00001000
00000000
00000100
00010000
00000000
00001000
00000000
00010000
,
00000000
00001000
00000000
00100000
00000000
00010000
00000000
01000000
,
00100000
00000000
10000000
00000000
01000000
00100000
00010000
00010000
,
00000000
00100000
00000000
00001000
00000000
00010000
00000000
00010000
,
00000000
00000010
00000020
00000000
00000000
00000000
00000100
00000000
,
00001000
00000000
00000130
00000000
00001000
00000001
00000010
00000000
,
00000100
00001000
00000010
00001000
00000100
00010000
00001000
00100000
,
00000000
00010000
00000000
01000000
00100000
00000000
10000000
00100000
,
02000000
00000000
00000000
03020000
00000000
00000000
00030000
00100000
,
00001000
00000000
00000000
00001000
00000000
00000000
00001000
00000000
00010000
00000000
00000010
00000000
00000100
00000000
00000000
00000000
,
00000002
00000000
00000000
00000023
00000000
00000130
00000000
00000100
,
00010000
00000000
00001000
00000000
00010000
00000000
00000000
00001000
00000000
00000000
00100000
00000000
00010000
00000000
00000000
00000000
,
02000000
00000000
00000000
03200000
00000000
20300000
00000000
30010000
,
00100000
00000000
00000000
00010000
00000000
00000000
00100000
00000000
00001000
00000000
00000000
00010000
00000000
00000000
00001000
00000000
,
00010000
00000010
00000000
00000100
00000010
00000000
00001000
00000000
,
00000001
00000010
00001000
00000000
00010000
00100000
10000000
00000000
,
01000000
00000000
00100000
00000000
01000000
00000000
00000000
10000000
00000000
10000000
00000000
00000000
01000000
00000000
00100000
00000000
,
00010000
00110000
10000000
10100000
,
20000000
00000000
00000000
30200000
00000000
01300000
00000000
01000000
,
00001000
00000000
00010000
00000000
00001000
00000000
00000000
00010000
00000000
00000000
00000010
00000000
00001000
00000000
00000000
00000000
,
00000200
00000000
00000000
00000320
00000000
00000032
00000000
00001003
,
00000010
00000000
00000000
00001000
00000000
00000000
00000010
00000000
00010000
00000000
00000000
00001000
00000000
00000000
00010000
00000000
,
00001000
00100000
00000000
01000000
00100000
00000000
00010000
00000000
,
10000000
00100000
00010000
00000000
00001000
00000010
00000001
00000000
,
00000200
00000000
00000000
00000000
00000000
00000000
00000001
00000000
00000301
00000000
00000000
00000010
00000000
00000000
00000010
00000000
,
00000010
00000000
00000000
00000100
00000000
00000000
00000100
00000000
00000100
00000000
00001000
00000000
00000001
00000000
00000100
00000000
,
00000020
00000100
00000100
00000100
,
00000100
00000000
00000000
00000100
00000000
00000000
00000130
00000000
;

//---------------dance-double - ----------------
#NOTES:
     dance-double:
     :
     Easy:
     8:
     0.391,0.373,0.031,0.046,0.000:
00000000
00000000
00000000
00000000
,
00000000
00000000
00000000
00000000
,
00000000
00000000
00000000
00000000
,
00000000
00000000
00000000
00000000
,
00000001
00000000
00000000
00000000
,
00000010
00000000
00000000
00000000
,
00000100
00000000
00000000
00000000
,
00010000
00000000
00001000
00000000
,
01000000
00010000
00100000
01000000
,
10000000
01000000
00010000
00001000
,
00000100
00000001
00000010
00000001
,
00000100
00000010
00001000
00000100
,
00010000
00001000
01000000
00010000
,
00100000
01000000
10000000
01000000
,
00010000
00001000
00000100
00000001
,
00000010
00000001
00000100
00000110
,
00000010
00000000
00001000
00000000
00000100
00000000
00001000
00000100
,
00000000
00010000
00000000
00000100
00000000
00010000
00001000
00000000
,
00100000
00000000
00010000
01000000
00000000
00010000
00000000
10000000
,
00000000
00010000
00000000
01000000
00000000
00100000
00000000
10000000
,
01000000
00000000
00100000
00000000
00010000
00000000
01000000
00001000
,
00000000
00010000
00000000
00000100
00000000
00001000
00000000
00000010
,
00000000
00000100
00000001
00000000
00000000
00000000
00000010
00000000
,
00000100
00000010
00000001
00000100
,
00000010
00000000
00001000
00000000
00000100
00000000
00010000
00001000
,
00000000
01000000
00000000
00010000
00100000
00000000
00010000
00000000
,
01000000
00000000
00000000
00100000
00000000
00000000
00000000
00000000
,
01000000
01000000
01000000
01100000
,
00100000
10000000
01000000
00010000
,
01000000
10000000
00100000
01000000
,
00001000
00010000
00000100
00001000
,
00000010
00000100
00000010
00000100
,
00000001
00000000
00000000
00001000
00000000
00000000
00000100
00000000
,
00010000
00001000
01000000
00010000
,
00100000
00100000
01000000
01000000
,
10000000
01000000
00010000
00001000
,
00000010
00000001
00000100
00001000
,
00000100
00000001
00000010
00000100
,
00010000
00001000
01000000
00010000
,
00100000
01000000
00100000
01000000
,
10000000
00000000
00000000
00010000
00000000
00000000
01000000
00000000
,
00001000
00010000
00000100
00001000
,
00000010
00000010
00000100
00000100
,
00000001
00000100
00001000
00010000
,
00001000
00010000
00001000
00010000
,
01000000
00000000
10000000
00000000
00010000
10000000
00010000
00000000
,
10000000
01000000
00010000
00001000
,
00000100
00000000
00000001
00000000
00001000
00000001
00001000
00000000
,
00000001
00000010
00001000
00010000
,
01000000
00000000
10000000
00000000
00100000
01000000
00100000
00000000
,
10000000
01000000
00010000
00001000
,
00000100
00000000
00000001
00000000
00000010
00000100
00000010
00000000
,
00000001
00000100
00000010
00001000
,
00000100
00010000
00001000
00001000
,
00001000
00010000
00001000
01000000
,
00010000
00100000
01000000
01000000
,
01000000
10000000
01000000
00010000
,
00001000
00000100
00000001
00000001
,
00000001
00000010
00000001
00000010
,
00000100
00010000
00000100
00010000
,
00002000
00000000
00000000
00000000
,
02003000
00000000
00000000
00000000
,
03020000
00000000
00000000
00000000
,
00230000
00000000
02300000
00000000
,
13000000
00000000
01000000
00000000
00100000
00000000
00001000
00100000
,
00000000
00001000
00000000
00010000
00000000
00000100
00000000
00010000
,
00000000
00001000
01000000
00000000
00000000
00000000
00000000
00010000
,
01000000
00010000
01000000
01100000
,
01000000
00000000
00010000
00000000
00100000
00000000
00010000
00100000
,
00000000
00001000
00000000
00100000
00000000
00001000
00010000
00000000
,
00000100
00000000
00001000
00000010
00000000
00001000
00000000
00000001
,
00000000
00001000
00000000
00000010
00000000
00000100
00000000
00000001
,
00000010
00000000
00000100
00000000
00001000
00000000
00000010
00010000
,
00000000
00001000
00000000
00100000
00000000
00010000
00000000
01000000
,
00000000
00100000
10000000
00000000
00000000
00000000
01000000
00000000
,
00100000
01000000
10000000
00100000
,
01000000
00000000
00010000
00000000
00100000
00000000
00001000
00010000
,
00000000
00000010
00000000
00001000
00000100
00000000
00001000
00000000
,
00000010
00000000
00000000
00000100
00000000
00000000
00000000
00000000
,
00000010
00000010
00000010
00000110
,
00000100
00000001
00000010
00001000
,
00000010
00000001
00000100
00000010
,
00010000
00001000
00100000
00010000
,
01000000
00100000
01000000
00100000
,
10000000
00000000
00000000
00010000
00000000
00000000
00100000
00000000
,
00001000
00010000
00000010
00001000
,
00000100
00000100
00000010
00000010
,
00000001
00000010
00001000
00010000
,
01000000
10000000
00100000
00010000
,
00100000
10000000
01000000
00100000
,
00001000
00010000
00000010
00001000
,
00000100
00000010
00000100
00000010
,
00000001
00000000
00000000
00001000
00000000
00000000
00000010
00000000
,
00010000
00001000
00100000
00010000
,
01000000
01000000
00100000
00100000
,
10000000
00100000
00010000
00001000
,
00020000
00000000
00000000
00000000
,
00000000
00000000
00000000
00030000
;

//---------------dance-double - ----------------
#NOTES:
     dance-double:
     :
     Challenge:
     17:
     0.883,1.000,0.549,0.305,0.446: // measure 1
00000000
00000000
00000000
00000000
,  // measure 2
00000000
00000000
00000000
00000000
,  // measure 3
00000000
00000000
00000000
00000000
,  // measure 4
00000000
00000000
00000000
00000000
,  // measure 5
00001000
00000000
00010000
00000000
00000100
00001000
00000010
00000010
,  // measure 6
00000000
00000101
00000000
00001100
00000000
00010100
00000000
00011000
,  // measure 7
00000000
01001000
02020000
00000000
00000000
00000000
00000000
00000000
,  // measure 8
00000000
00000000
00000000
03030000
,  // measure 9
00010000
10000000
01000000
00010000
00001000
00000100
00000001
00000010
,  // measure 10
00000000
00000011
00000000
00001001
00000100
00000001
00001001
00001000
,  // measure 11
00001100
00000100
00010100
00010000
00001000
01000000
10000000
01000000
,  // measure 12
00000000
00000000
00010000
00000000
00000000
00000000
00000100
00000000
00000101
00000000
00000001
00001000
00000100
00000000
01000000
00010000
,  // measure 13
10000000
00100000
00010000
00001000
00000100
00000010
00001000
00010000
,  // measure 14
01000000
00100000
10000000
01000000
00010000
00001000
00000010
00000001
,  // measure 15
00000010
00000100
00010000
00001000
00000010
00000001
00000100
00000010
,  // measure 16
00001000
00000000
00000100
00010000
00000000
00001000
00000000
01000000
00010000
00000000
00100000
00000000
01000000
10000000
00000000
10000000
,  // measure 17
00010000
00000000
10000000
01000000
00010000
00000000
00001000
00000000
00000100
00000000
00000010
00000000
00001000
00000000
00000011
00000000
,  // measure 18
00000000
00000000
00001100
00000000
00000000
00000000
00011000
00000000
01010000
00000000
01000000
00010000
00100000
00000000
00001000
00000000
,  // measure 19
00000020
00000000
00000031
00000200
00000000
00000310
00000000
00001010
,  // measure 20
00000000
00001100
00000000
01010000
00000000
00110000
00000000
00100000
,  // measure 21
01000000
00000000
00100000
00001000
00010000
00000000
00000100
00000000
00001000
00000000
00000010
00000000
00000001
00000000
00000011
00000000
,  // measure 22
00000000
00000000
00000010
00000000
00000100
00000000
00000010
00000000
00000100
00000000
00000001
00000010
00000001
00000000
00000101
00000000
,  // measure 23
00000000
00001000
00000200
00000000
00000000
00001000
00001300
00000100
,  // measure 24
00010000
00000000
01000000
00000000
00100000
00000000
00001000
00000000
00000010
00000000
00000001
00000100
00001000
00000000
00010000
00000000
,  // measure 25
00001000
00000000
00000100
00000010
00001000
00000000
00000100
00000000
00000001
00000000
00000100
00000000
00001000
00000000
00001010
00000000
,  // measure 26
00000000
00000010
00001000
00000100
00010100
00010000
00001000
01001000
,  // measure 27
02000000
00000000
03000000
20020000
00000000
00000000
00030000
31000000
,  // measure 28
00100000
00000000
00001000
00010000
00000100
00000000
00000010
00000000
00001000
00010000
01000000
00000000
00100000
00000000
00001000
00000000
,  // measure 29
00001200
00001000
00001000
00000301
00000000
00000011
00000000
00002100
,  // measure 30
00003001
00000100
00001000
00000000
00010000
00000000
01000000
10000000
00000000
00100000
00010000
00000000
00001000
00000000
00010000
00000000
,  // measure 31
00210000
00010000
00010000
10300000
00000000
11000000
00000000
01010000
,  // measure 32
00010000
00000000
00000000
00100000
00000000
00000000
00001000
00000000
00000100
00000000
00000000
00000010
00000000
00000000
00010000
00000000
,  // measure 33
01000000
00000000
10000000
00100000
00010000
00000000
00100000
00000000
10000000
01000000
00010000
00000000
00001000
00000000
00000100
00000000
,  // measure 34
00000001
00000010
00000001
00000100
00001000
00010000
00000010
00001000
,  // measure 35
00000100
00010000
01000000
00010000
00000100
00000000
00010000
00001000
00000000
00200000
00000000
00000000
00310000
00000000
01000000
00000000
,  // measure 36
00100000
00000000
10000000
01000000
00010000
00000000
00001000
00000000
00000010
00000000
00000001
00000100
00001000
00000000
00010000
00000000
,  // measure 37
00210000
00010000
00010000
10300000
00000000
11000000
00000000
00120000
,  // measure 38
10030000
00100000
00010000
00000000
00001000
00000000
00000010
00000001
00000000
00000100
00001000
00000000
00010000
00000000
00001000
00000000
,  // measure 39
00001200
00001000
00001000
00000301
00000000
00000011
00000000
00001010
,  // measure 40
00001000
00000000
00000000
00000100
00000000
00000000
00010000
00000000
00100000
00000000
00000000
01000000
00000000
00000000
00001000
00000000
,  // measure 41
00000010
00000000
00000001
00000100
00001000
00000000
00000100
00000000
00000001
00000010
00001000
00000000
00010000
00000000
00100000
00000000
,  // measure 42
10000000
01000000
10000000
00100000
00010000
00001000
01000000
00010000
,  // measure 43
00200000
00000000
00000000
00000000
00000000
00000000
00301000
00010000
00000200
00000000
00000000
00001300
00000000
00000000
00000010
00000000
,  // measure 44
00000100
00000000
00000000
00000001
00000000
00000000
00000010
00000000
00001000
00000000
01000000
00100000
10000000
00000000
01000000
00000000
,  // measure 45
00100000
00000000
00010000
01000000
00010000
00000000
00100000
00000000
00001000
00010000
00001000
00000000
00000100
00000000
00000010
00001000
,  // measure 46
00000010
00000000
00000100
00000000
00000001
00001000
00000001
00000000
00000100
00000000
00001000
00010000
00001000
00000000
00010000
00000000
,  // measure 47
01000000
00000000
00100000
00010000
00100000
00000000
00001000
00000000
00010000
00001000
00010000
00000000
00000100
00000000
00000010
00000001
,  // measure 48
00000010
00000000
00000100
00000000
00010000
00001000
00010000
00000000
01000000
00000000
00100000
00001000
00100000
00000000
01000000
00000000
,  // measure 49
10000000
00000000
00100000
01000000
00100000
00000000
01000000
00000000
00001000
00010000
00001000
00000000
00010000
00000000
00000010
00000100
,  // measure 50
00000010
00000000
00001000
00000000
00000100
00000010
00000100
00000000
00000010
00000000
00000001
00000100
00000001
00000000
00001000
00000000
,  // measure 51
00000010
00000000
00010000
00000100
00010000
00000000
00001000
00000000
01000000
00010000
01000000
00000000
00100000
00000000
10000000
01000000
,  // measure 52
10000000
00000000
01000000
00000000
00100000
00001000
00100000
00000000
00001000
00000000
00010000
00000100
00010000
00000000
00001000
00000000
,  // measure 53
00000010
00000000
00000001
00000100
00000010
00000000
00001000
00000000
00000100
00010000
00001000
00000000
01000000
00000000
00010000
00100000
,  // measure 54
10000000
00000000
00100000
00000000
00010000
10000000
01000000
00000000
11000000
00000000
00010000
00000000
01010000
00000000
10000000
00000000
,  // measure 55
11000000
00000000
01000000
00100000
00001000
00000000
00010000
00000000
00000100
00001000
00000010
00000000
00000100
00000000
00000001
00000010
,  // measure 56
00001000
00000000
00000010
00000000
00000001
00000100
00000001
00000000
00000101
00000000
00001000
00000000
00001100
00000000
00000001
00000000
,  // measure 57
00000101
00000000
00000100
00000010
00001000
00000000
00000100
00000000
00010000
00001000
01000000
00000000
00010000
00000000
01000000
10000000
,  // measure 58
01000000
00000000
00100000
00000000
10000000
01000000
10000000
00000000
11000000
00000000
00010000
00000000
01010000
00000000
10000000
00000000
,  // measure 59
01000000
00100000
00001000
00010000
01000000
00100000
00001000
00010000
00000100
00010000
00000010
00001000
00000100
00010000
00000010
00001000
,  // measure 60
00000100
00000000
00000010
00000001
00000000
00000100
00000000
00000010
00001000
00000000
00000100
00000000
00010000
00001000
00000000
00001000
,  // measure 61
02000000
00000000
00000000
00000000
,  // measure 62
00000000
00000000
00000000
00000000
,  // measure 63
00000000
00000000
00000000
00000000
,  // measure 64
00000000
00000000
00000000
00000000
,  // measure 65
03100000
00000000
10000000
00000000
01000000
00010000
00001000
00000100
,  // measure 66
00000000
00000010
00000000
00010000
00000000
00100000
00000000
00010000
,  // measure 67
00000000
00000000
00000100
00000000
00000200
00000000
00000000
00000000
00000000
00000000
00000000
00000000
00000000
00000000
00000310
00000001
,  // measure 68
00001000
00000010
00010000
00100000
00010000
00000100
00001000
00000010
,  // measure 69
00001000
00000000
00000001
00000010
00001000
00000000
00010000
00000000
00100000
00000000
01000000
00000000
00010000
00000000
11000000
00000000
,  // measure 70
00000000
00000000
00110000
00000000
00000000
00000000
00011000
00000000
00001010
00000000
00000010
00001000
00000100
00000000
00010000
00000000
,  // measure 71
02000000
00000000
13000000
00200000
00000000
01300000
00000000
01010000
,  // measure 72
00000000
00110000
00000000
00001010
00000000
00001100
00000000
00000100
,  // measure 73
00000010
00000000
00000100
00010000
00001000
00000000
00100000
00000000
00010000
00000000
01000000
00000000
10000000
00000000
11000000
00000000
,  // measure 74
00000000
00000000
01000000
00000000
00100000
00000000
01000000
00000000
00100000
00000000
10000000
01000000
10000000
00000000
10100000
00000000
,  // measure 75
00000000
00010000
00200000
00000000
00000000
00010000
00310000
00100000
,  // measure 76
00001000
00000000
00000010
00000000
00000100
00000000
00010000
00000000
01000000
00000000
10000000
00100000
00010000
00000000
00001000
00000000
,  // measure 77
00010000
00000000
00100000
01000000
00010000
00000000
00100000
00000000
10000000
00000000
00100000
00000000
00010000
00000000
01010000
00000000
,  // measure 78
00000000
01000000
00010000
00100000
00101000
00001000
00010000
00010010
,  // measure 79
00000020
00000000
00000030
00002002
00000000
00000000
00003000
00000013
,  // measure 80
00000100
00000000
00010000
00001000
00100000
00000000
01000000
00000000
00010000
00001000
00000010
00000000
00000100
00000000
00010000
00000000
,  // measure 81
00210000
00010000
00010000
10300000
00000000
11000000
00000000
00120000
,  // measure 82
10030000
00100000
00010000
00000000
00001000
00000000
00000010
00000001
00000000
00000100
00001000
00000000
00010000
00000000
00001000
00000000
,  // measure 83
00001200
00001000
00001000
00000301
00000000
00000011
00000000
00001010
,  // measure 84
00001000
00000000
00000000
00000100
00000000
00000000
00010000
00000000
00100000
00000000
00000000
01000000
00000000
00000000
00001000
00000000
,  // measure 85
00000010
00000000
00000001
00000100
00001000
00000000
00000100
00000000
00000001
00000010
00001000
00000000
00010000
00000000
00100000
00000000
,  // measure 86
10000000
01000000
10000000
00100000
00010000
00001000
01000000
00010000
,  // measure 87
00100000
00001000
00000010
00001000
00100000
00000000
00001000
00010000
00000000
00000200
00000000
00000000
00001300
00000000
00000010
00000000
,  // measure 88
00000100
00000000
00000001
00000010
00001000
00000000
00010000
00000000
01000000
00000000
10000000
00100000
00010000
00000000
00001000
00000000
,  // measure 89
00001200
00001000
00001000
00000301
00000000
00000011
00000000
00002100
,  // measure 90
00003001
00000100
00001000
00000000
00010000
00000000
01000000
10000000
00000000
00100000
00010000
00000000
00001000
00000000
00010000
00000000
,  // measure 91
00210000
00010000
00010000
10300000
00000000
11000000
00000000
01010000
,  // measure 92
00010000
00000000
00000000
00100000
00000000
00000000
00001000
00000000
00000100
00000000
00000000
00000010
00000000
00000000
00010000
00000000
,  // measure 93
01000000
00000000
10000000
00100000
00010000
00000000
00100000
00000000
10000000
01000000
00010000
00000000
00001000
00000000
00000100
00000000
,  // measure 94
00000001
00000010
00000001
00000100
00001000
00010000
00000010
00001000
,  // measure 95
00000200
00000000
00000000
00000000
00000000
00000000
00010300
00001000
00200000
00000000
00000000
00310000
00000000
00000000
01000000
00000000
,  // measure 96
00100000
00000000
00000000
10000000
00000000
00000000
01000000
00000000
00010000
00000000
00000010
00000100
00000001
00000000
00000010
00000000
,  // measure 97
00000200
00020300
02030000
03200000
,  // measure 98
00302000
00000000
00000000
00003020
00000000
00000000
00000031
00000000
;
