#TITLE:Twelfth Style;
#SUBTITLE:;
#ARTIST:Tatsh & DAYBREAKERS NEXT;
#TITLETRANSLIT:;
#SUBTITLETRANSLIT:;
#ARTISTTRANSLIT:;
#GENRE:;
#CREDIT:;
#MENUCOLOR:;
#METERTYPE:DDR;
#BANNER:Twelfth Style.png;
#BACKGROUND:Twelfth Style-bg.png;
#LYRICSPATH:;
#CDTITLE:cdtitle.png;
#MUSIC:Twelfth Style.mp3;
#OFFSET:-0.026;
#SAMPLESTART:79.500;
#SAMPLELENGTH:15.000;
#SELECTABLE:YES;
#LISTSORT:;
#BPMS:0.000=80.000,20.000=90.000,20.500=105.000,21.000=120.000,21.500=130.000,22.000=145.000,22.500=155.000,23.000=160.000,263.000=80.000;
#STOPS:;
#BGCHANGES:1.500=Twelfth Style.avi=1.000=1=0=0,
99999=-nosongbg-=1.000=0=0=0 // don't automatically add -songbackground-
;
#ATTACKS:;

//---------------dance-single - ----------------
#NOTES:
     dance-single:
     :
     Challenge:
     14:
     0.675,0.793,0.214,0.135,0.658:
0000
0000
0000
0000
,
0000
0000
0000
0000
,
0000
0000
0000
0000
,
0000
0000
0000
0000
,
0020
0230
2300
0002
0000
0000
0000
0000
,
0000
0000
0000
0000
3003
0000
0000
0000
0000
0000
0000
0000
1000
0010
0000
0100
,
0000
0000
0001
0000
1000
0000
0001
0000
0101
0000
0000
0000
0001
0010
0000
0100
,
0000
0000
1000
0000
0001
0000
1000
0000
1001
0000
0000
0000
1000
0010
0000
0100
,
0000
0000
0010
0000
0100
0000
0000
0100
0000
0000
0100
0000
0001
0000
1000
0000
,
0100
0000
0010
0000
0100
1000
0000
0001
0000
0000
1000
0000
0100
0010
0000
0100
,
0000
0000
1000
0000
1000
0000
1000
0000
1100
0000
0000
0000
0010
0100
0000
0010
,
0000
0000
0001
0000
0001
0000
0001
0000
0001
0100
0000
0100
0001
0100
0000
0010
,
0000
0000
1000
0000
0100
0000
0100
0000
0100
0000
0010
0000
0100
0000
0000
1000
,
0000
0000
0001
0000
0000
1000
0000
0000
0010
0000
0010
0000
0100
0001
0000
1000
,
0100
0000
0001
0000
0100
0000
1000
0000
1001
0000
0000
0000
0100
1000
0000
0001
,
0100
0000
1000
0000
0100
0000
0001
0000
1001
0000
0000
0000
1000
0100
0000
0010
,
0100
0000
1000
0000
0010
0000
0100
0001
0000
0001
0100
0000
0010
0000
0010
0000
,
1000
0000
0100
0000
0010
0100
0000
1000
0100
0000
0010
0000
0100
1000
0000
0001
,
0100
0000
1000
0000
0100
0000
0001
0000
1001
0000
0000
0000
0100
0001
0000
1000
,
0100
0000
0001
0000
0100
0000
1000
0000
0001
0100
0000
0001
0100
0001
0000
1000
,
0000
0000
0100
0000
0010
0000
0010
0000
0010
0000
0010
0000
0001
0000
0000
1000
,
0000
0000
1100
0000
0000
0101
0000
0000
1001
0000
1001
0000
0100
0000
0001
0000
,
0100
0000
1000
0000
0100
0000
0000
0010
0000
0000
0100
0000
0001
0000
0010
0000
,
1000
0000
0010
0000
0001
0000
0000
1000
0000
0000
0010
0000
0100
0000
0001
0000
,
1000
0000
0100
0000
0001
0000
0000
0100
0000
0000
1000
0000
0001
0100
0001
0100
,
0002
0000
0003
1000
0100
1100
0000
0001
,
0100
0101
0000
1000
0010
1000
0001
0010
,
0000
0100
0000
0000
1000
0000
0000
0001
0000
0000
1001
0000
0100
0000
0000
0100
,
0000
0000
0100
0000
0001
0000
1000
0000
0100
0000
0010
0000
0001
0000
0000
0001
,
0000
0000
0001
0000
1000
0000
0010
0000
0100
0000
1000
0000
0100
0000
0000
0100
,
0000
0000
0100
0000
0001
1000
0000
0000
0100
0000
0010
0000
0100
0000
1000
0000
,
0001
0000
0100
0000
0010
1000
0000
0010
0000
0000
0100
0000
0001
0000
1000
0000
,
0100
0000
0010
0000
0100
1000
0100
2000
0000
0000
3000
0000
0001
0000
0100
0000
,
0010
0000
1000
0000
0001
0010
0001
0020
0000
0000
0130
0000
1000
0000
0001
0000
,
0100
0000
0001
0000
1000
0100
0000
0010
0000
0000
0100
0000
1000
0000
0000
0001
,
0000
1001
0000
0100
0010
0100
0002
0000
,
0000
0000
1003
0000
0001
0100
0020
0000
,
0000
0000
0000
0000
0030
0000
1000
0001
,
0100
0010
0010
0010
0010
0010
0100
0001
,
1001
0000
0100
1000
1001
0000
0010
0001
,
1000
0100
0100
0100
0100
0100
1000
0001
,
0101
0000
0000
0000
0001
0000
1000
0000
1100
0000
0000
0000
1000
0000
0001
0100
,
0001
0000
1000
0000
0100
0000
0010
0000
0100
0000
1000
0001
1000
0000
0001
0000
,
0100
0000
0010
0000
0100
0000
0001
1000
0001
0000
0010
0000
0001
0000
1000
0100
,
1000
0000
0001
0000
0100
0000
0010
0000
0100
0000
0001
1000
0001
0000
1000
0000
,
0100
0000
0010
0000
0100
0000
1000
0001
1000
0000
0010
0000
0100
0000
0001
0000
,
0101
0000
0100
1000
1100
0000
0000
0000
,
0101
0000
0000
0000
1100
0000
0001
0010
,
0001
0100
0000
0100
0010
0000
0010
1000
0000
1000
0100
0000
0010
0000
0100
0000
,
1000
0001
0000
0001
0100
0000
0100
0010
0000
0010
1000
0000
0001
0000
1000
0000
,
0001
0100
0000
0100
0010
0000
0010
1000
0000
1000
0100
0000
0010
0100
0010
0100
,
0010
0100
0010
0100
0010
0000
0010
0001
0000
0001
1000
0000
0010
0000
1000
0000
,
0010
0100
0000
0100
0001
0000
0001
1000
0000
1000
0100
0000
0010
0000
0010
0000
,
0100
1000
0000
0001
0100
0000
0010
0100
0000
0001
1000
0000
0100
0000
0010
0000
,
0100
1000
0000
1000
0001
0000
0001
0100
0000
0100
0010
0000
1000
0100
1000
0100
,
1000
0100
1000
0100
1000
0001
1000
0001
0000
0100
0001
0100
0001
1000
0001
1000
,
0001
1000
0001
1000
0001
0010
0001
0010
0001
0010
0001
0010
0100
0000
1000
0000
,
0100
0010
0000
0100
0001
0000
0100
0010
0000
0100
1000
0000
0001
0000
0001
0000
,
0100
0010
0000
0100
1000
0000
0100
0010
0000
0100
0001
0000
1000
0000
0001
0000
,
1000
0100
0000
0001
0100
0000
1000
0010
0000
0001
0010
0000
1000
0100
1000
0100
,
1000
0001
1000
0001
0100
0000
0010
0100
0000
0010
1000
0000
0010
0000
1000
0000
,
0010
0100
0000
0010
0001
0000
0010
0100
0000
0010
1000
0000
0001
0000
0001
0000
,
0010
0100
0000
0010
1000
0000
0010
0100
0000
0010
0001
0000
1000
0000
0001
0000
,
1000
0010
0000
0001
0010
0000
1000
0100
0000
0001
0100
0000
1000
0010
1000
0010
,
1000
0001
1000
0001
0010
0001
0010
0001
0000
1000
0100
1000
0001
0100
0001
0100
,
0010
1000
0010
1000
0001
0010
0001
0010
0100
1000
0100
2000
0002
0000
0000
0000
,
0000
0000
3003
1001
,
0010
0100
0001
0000
0101
0000
0000
0000
1000
0100
0010
0000
0110
0000
0000
0000
,
0100
1000
0001
0100
0010
0001
0010
0100
0010
1000
0010
0100
0010
0000
0000
0000
,
1000
0100
0010
0000
0110
0000
0000
0000
0100
0000
1000
0000
2002
0000
0000
0000
,
0000
3003
0020
0230
2300
0002
0000
0000
,
0000
0000
0000
3003
0000
0000
0000
0000
;

//---------------dance-single - ----------------
#NOTES:
     dance-single:
     :
     Hard:
     12:
     0.542,0.566,0.198,0.111,0.278:
0000
0000
0000
0000
,
0000
0000
0000
0000
,
0000
0000
0000
0000
,
0000
0000
0000
0000
,
1000
0001
0100
0020
0000
0000
0000
0000
,
0000
0000
0000
0000
0030
0000
0000
0000
0000
0000
0000
0000
0100
0000
0000
0100
,
0000
0000
0100
0000
0001
0000
1000
0000
1001
0000
0000
0000
0100
0000
0000
0100
,
0000
0000
0100
0000
1000
0000
0001
0000
1001
0000
0000
0000
0010
0000
0000
0010
,
0000
0000
0010
0000
0001
0000
0000
0100
0000
0000
0001
0000
1000
0000
1000
0000
,
0100
0000
0010
0000
0100
0000
0000
0100
0000
0000
0100
0000
1000
0000
0000
0001
,
0000
0000
1000
0000
0100
0000
0010
0000
0110
0000
0000
0000
0001
0000
0000
1000
,
0000
0000
0001
0000
0100
0000
0010
0000
0110
0000
0100
0000
0001
0000
0000
1000
,
0000
0000
0001
0000
0010
0000
0100
0000
1000
0000
0001
0000
0100
0000
0000
1000
,
0000
0000
0100
0000
0000
0001
0000
0000
0010
0000
0010
0000
0100
0000
0000
1000
,
0100
0000
0010
0000
0100
0000
1000
0000
0002
0000
0000
0000
0103
0000
0000
0001
,
0100
0000
0010
0000
0100
0000
0001
0000
2000
0000
0000
0000
3100
0000
0000
0100
,
0000
0000
0100
0000
0010
0000
0000
0010
0000
0000
0010
0000
0001
0000
1000
0000
,
0001
0000
1000
0000
0010
0000
0000
0010
0000
0000
0010
0000
0100
0000
0000
0001
,
0100
0000
0010
0000
1000
0000
0100
0000
0020
0000
0000
0000
0130
0000
0000
1000
,
0010
0000
0100
0000
0001
0000
0010
0000
0100
0000
0000
0100
1000
0000
0001
0000
,
1000
0000
0001
0000
0100
0000
0010
0000
0100
0000
0010
0000
1000
0000
0000
0001
,
0000
0000
1100
0000
0000
0101
0000
0000
1001
0000
0000
0000
0100
0000
0001
0000
,
0100
0000
1000
0000
0100
0000
0000
0010
0000
0000
1000
0000
0100
0000
0001
0000
,
0100
0000
1000
0000
0100
0000
0000
0010
0000
0000
0001
0000
0010
0000
1000
0000
,
0010
0000
0001
0000
0010
0000
0000
0100
0000
0000
1000
0000
0010
0000
0010
0000
,
0220
0000
0330
0001
0100
1000
0000
0001
,
0010
1000
0000
0001
0010
0100
1000
0001
,
0000
1000
0000
0000
0100
0000
0000
0010
0000
0000
1001
0000
1000
0000
0000
0100
,
0000
0000
1000
0000
0001
0000
0100
0000
1000
0000
0100
0000
0010
0000
0000
1000
,
0000
0000
0010
0000
0100
0000
0001
0000
0010
0000
0100
0000
1000
0000
0000
0001
,
0000
1000
1100
0000
0100
0010
0001
0010
,
0100
0000
1000
0000
0001
0000
0000
0100
0000
0000
0010
0000
0100
0000
0001
0000
,
1000
0000
0100
0000
1000
0000
0000
2000
0000
0000
3000
0000
0001
0000
0100
0000
,
0010
0000
0100
0000
0001
0000
0100
0002
0000
0000
1003
0000
0100
0000
0010
0000
,
0100
0000
1000
0000
0001
0000
0000
0001
0000
0000
0001
0000
0100
0000
0000
0010
,
0000
0110
0000
1000
0100
0010
0002
0000
,
0000
0000
1003
0000
0001
1000
0020
0000
,
0000
0000
0030
0100
,
0001
0100
0010
0100
0010
0100
0010
1000
,
1001
0000
0010
0001
1001
0000
0100
0000
,
1000
0100
0010
0100
0010
0100
0010
0001
,
1001
0000
0010
1000
1001
0000
1000
0100
,
1000
0100
0010
0001
0010
0001
0100
1000
,
0100
1000
0001
0010
0001
0010
1000
0100
,
0001
1000
0010
0001
0100
0010
1000
0100
,
0001
0100
1000
0010
0001
1000
0100
0001
,
0011
0000
0100
1000
1010
0000
0000
0000
,
1001
0000
0000
0000
0110
0000
0001
0010
,
0001
0100
0000
0000
0001
0000
0000
1000
0000
0000
0100
0000
0010
0000
0010
0000
,
0100
1000
0000
0000
0100
0000
0000
0010
0000
0000
0001
0000
1000
0000
0010
0000
,
0100
0001
0000
0000
0100
0000
0000
0010
0000
0000
1000
0000
0001
0000
0100
0000
,
1000
0000
0100
0000
0001
0000
0000
1000
0000
0000
0100
0000
0010
0000
0100
0000
,
1000
0100
0000
0000
0010
0000
0000
0001
0000
0000
0100
0000
0010
0000
0010
0000
,
1000
0010
0000
0000
0100
0000
0000
0001
0000
0000
0100
0000
0010
0000
1000
0000
,
0001
0010
0000
0000
0001
0000
0000
1000
0000
0000
0100
0000
0010
0000
0100
0000
,
0010
0100
0010
0001
0000
1000
0010
0100
,
1000
0100
0010
0100
0001
0100
0010
1000
,
0001
0100
0000
0001
0100
0000
0000
0010
0000
0000
0100
0000
0001
0000
1000
0000
,
0100
1000
0000
0100
1000
0000
0000
0010
0000
0000
1000
0000
0001
0000
0010
0000
,
0100
1000
0000
0100
1000
0000
0000
0001
0000
0000
0100
0000
0010
0000
0100
0000
,
0010
0000
0100
0000
0001
0000
1000
0001
0000
1000
0001
0000
0010
0000
0100
0000
,
1000
0100
0000
1000
0100
0000
0000
0001
0000
0000
0100
0000
1000
0000
0001
0000
,
0100
0010
0000
0100
0010
0000
0000
0100
0000
0000
1000
0000
0100
0000
0001
0000
,
1000
0010
0000
1000
0010
0000
0000
0001
0000
0000
0010
0000
1000
0000
0001
0000
,
1000
0001
1000
0100
0000
0010
0001
0100
,
1000
0100
0001
0010
1000
0010
0002
0000
,
0000
0000
0003
1001
,
1000
0010
0100
0000
0110
0000
0000
0000
0100
0001
1000
0000
1001
0000
0000
0000
,
0001
0010
0100
0000
1000
0000
0100
0000
0010
0000
0001
0000
1001
0000
0000
0000
,
1000
0100
0010
0000
0110
0000
0000
0000
0100
0000
1000
0000
2002
0000
0000
0000
,
3003
0000
1000
0001
0100
0020
0000
0000
,
0000
0000
0000
0030
0000
0000
0000
0000
;

//---------------dance-single - ----------------
#NOTES:
     dance-single:
     :
     Medium:
     9:
     0.486,0.481,0.119,0.095,0.012:
0000
0000
0000
0000
,
0000
0000
0000
0000
,
0000
0000
0000
0000
,
0000
0000
0000
0000
,
1000
0100
0010
0002
0000
0000
0000
0000
,
0000
0000
0000
0003
0000
0000
1000
0000
,
0001
0100
0010
0000
0200
0000
0301
0000
,
0010
0100
1000
0000
0002
0000
0103
0000
,
0001
0100
0001
0000
1000
0000
0100
0100
,
0010
0010
0100
0000
1000
0000
0001
0000
,
1000
0100
0010
0000
0200
0000
1300
0000
,
0001
0100
1000
0000
0200
0000
0310
0000
,
0010
0000
0010
0100
0010
0100
0010
1000
,
0010
1000
0001
0010
0100
1000
0001
0000
,
1100
0000
0001
1000
0200
0000
1300
0000
,
0101
0000
1000
0001
0200
0000
0301
1000
,
0100
0000
0010
0000
0100
1000
0001
0100
,
0010
0100
0110
0010
,
1000
0001
0010
0000
0110
0000
0100
0000
,
1000
0001
0010
0000
0110
0000
0100
1000
,
0001
1000
0100
0010
0001
0010
0100
1000
,
0001
0100
0010
1000
0001
0000
0001
0100
,
1000
0000
0100
0000
0001
0000
1000
0100
,
0001
0000
0100
0000
1000
0000
0001
0010
,
1000
0000
0010
0000
0001
0000
1000
0010
,
1000
0000
0001
0010
0100
0010
0000
0100
,
1000
0100
0000
1000
0010
1000
0010
0100
,
0000
0100
0000
0000
0100
0000
0000
0100
0000
0000
0100
0000
0001
0000
0000
0000
,
1000
0000
0001
0010
0100
0000
1000
0000
,
0001
0000
1000
0010
0100
0000
0001
0000
,
0100
0000
1000
0100
0001
0000
0010
0100
,
1000
0100
0010
0001
0100
0000
0010
0010
,
0100
0100
0001
0100
1000
0000
0010
0010
,
0100
0100
1000
0100
0001
0000
0010
0010
,
0100
0000
0100
0000
1000
0000
0100
0000
0010
0000
0100
0000
1000
0000
0000
0001
,
0000
0100
0000
0010
0100
0010
2000
0000
,
3002
0023
0230
1300
,
0000
0000
0000
1000
,
0001
0100
0010
0000
0110
0000
0100
0001
,
1000
0000
0100
0001
1000
0000
0001
0000
,
0010
0000
0110
0000
0100
0000
1000
0010
,
0100
0000
1000
0010
0100
0000
0001
0100
,
0010
0100
0001
0100
0010
0000
1000
0100
,
0010
0000
0010
0100
1000
0000
0001
0100
,
0010
0100
0010
0001
0010
0000
1000
0100
,
0001
0000
0100
1000
0010
0000
0100
0001
,
0010
0100
1000
0001
0100
0010
0100
0000
,
0101
0000
0000
0000
1100
0000
0001
0100
,
0001
0100
0001
0100
0010
0100
0001
0010
,
0100
1000
0001
0001
0001
0000
1000
0100
,
1000
0100
0010
0100
1000
0100
0010
0001
,
0010
0001
0010
0100
1000
0000
0001
0100
,
0001
0100
1000
0100
0001
0100
0010
1000
,
0100
0010
0001
0100
0010
0000
1000
0100
,
1000
0100
0001
0100
1000
0010
0100
0100
,
0010
0010
0100
0001
0000
1000
0100
0100
,
0010
0010
0100
1000
0001
0010
0100
1000
,
0100
0010
0001
0010
0100
1000
0001
0100
,
1000
0100
0001
0100
1000
0100
0001
0010
,
0100
1000
0001
0010
0100
1000
0010
0001
,
0010
1000
0010
0001
0010
1000
0001
0010
,
0100
1000
0001
0100
0010
0100
0001
0010
,
0100
1000
0100
0001
0100
1000
0010
0100
,
1000
0100
0001
0010
0100
1000
0100
0100
,
0010
0010
0001
0001
1000
1000
0001
0100
,
1000
0001
0010
1000
0001
0010
0100
0000
,
0000
0000
0000
1100
,
0001
0101
0010
1010
,
1000
0100
0010
0000
0011
0000
1100
0000
,
0001
0000
0110
0000
1000
0100
0010
0000
,
0000
0000
1000
0100
0010
0002
0000
0000
,
0000
0000
0000
0003
0000
0000
0000
0000
;

//---------------dance-single - ----------------
#NOTES:
     dance-single:
     :
     Easy:
     5:
     0.249,0.283,0.056,0.016,0.000:
0000
0000
0000
0000
,
0000
0000
0000
0000
,
0000
0000
0000
0000
,
0000
0000
0000
0000
,
0000
0000
0000
0000
,
0000
0000
0000
1000
,
0000
0001
0000
0100
,
0000
0010
0000
0100
,
0001
1000
0100
0010
,
0100
1000
0001
0100
,
0000
0100
0010
0100
,
0000
0100
0010
0100
,
0000
0100
0000
0001
,
0100
1000
0100
0001
,
0000
1000
0100
0010
,
0000
0001
0100
0010
,
0000
0001
0000
0010
,
1000
0001
0010
0100
,
0000
1000
0100
0010
,
0000
1000
0010
0001
,
0000
0100
0000
0010
,
0010
0010
0010
0010
,
0000
0100
0000
0001
,
0100
1000
0100
0001
,
0000
1000
0000
0100
,
0010
0000
0100
0000
,
1000
0000
0001
0100
,
0010
0110
1001
0100
,
0100
0010
0100
0010
,
0010
0100
0001
1000
,
1000
0100
0010
0001
,
0010
0100
1000
0001
,
0100
0100
0001
1000
,
0100
0100
1000
0001
,
0010
0010
0001
1000
,
0010
0100
0001
0020
,
0000
0130
0010
1001
,
0000
0000
0000
0000
,
1000
0000
0001
0000
,
0100
0000
0010
0000
,
0100
0000
0001
0000
,
1000
0000
0100
0000
,
0010
0000
0100
1000
,
0001
0100
0110
0001
,
0000
1000
0000
0100
,
0010
0001
0100
0010
,
1001
0000
0110
0000
,
1000
0000
0001
0100
,
0001
0010
0001
0100
,
1000
0010
0001
0100
,
0010
1000
0010
0100
,
0100
0100
0100
0010
,
1000
0100
1000
0010
,
0001
0100
1000
0010
,
0100
0001
0100
0010
,
0010
0100
0100
0001
,
0001
1000
1000
0100
,
0010
0100
1000
0100
,
0010
0100
1000
0001
,
0100
1000
0100
0001
,
0100
1000
0100
0001
,
0010
0100
0010
0001
,
0010
0100
0010
0001
,
0010
1000
0010
0001
,
1000
0001
1000
0010
,
0010
0010
0010
0010
,
0000
0000
0000
0100
,
0000
1001
0000
0010
,
0000
0100
0000
0001
,
0000
1000
0100
0010
,
0000
0000
0001
1000
0001
2000
0000
0000
,
0000
0000
0000
3000
0000
0000
0000
0000
;

//---------------dance-double - ----------------
#NOTES:
     dance-double:
     :
     Hard:
     12:
     0.508,0.510,0.095,0.079,0.282:
00000000
00000000
00000000
00000000
,
00000000
00000000
00000000
00000000
,
00000000
00000000
00000000
00000000
,
00000000
00000000
00000000
00000000
,
10000000
01000000
00010000
00002000
00000000
00000000
00000000
00000000
,
00000000
00000000
00000000
00000000
00000000
00000000
00000000
00000000
00003000
00000000
00000000
00000000
00010000
00000000
00000000
00000100
,
00000000
00000000
00000010
00000000
00000100
00000000
00010000
00000000
00010000
00000000
00000000
00000000
00001000
00000000
00000000
01000000
,
00000000
00000000
00100000
00000000
01000000
00000000
00001000
00000000
00001000
00000000
00000000
00000000
00010000
00000000
00000000
00000100
,
00000000
00000000
00001000
00000000
00000010
00000000
00000000
00010000
00000000
00000000
00001000
00000000
01000000
00000000
00010000
00000000
,
00100000
00000000
00010000
00000000
01000000
00000000
00000000
00100000
00000000
00000000
10000000
00000000
01000000
00000000
00000000
00010000
,
00000000
00000000
00001000
00000000
00000010
00000000
00000001
00000000
00000001
00000000
00000000
00000000
00000100
00000000
00000000
00001000
,
00000000
00000000
00010000
00000000
00100000
00000000
10000000
00000000
10000000
00000000
10000000
00000000
00010000
00000000
00000000
01000000
,
00000000
00000000
00010000
00000000
00100000
00000000
00001000
00000000
00010000
00000000
00000010
00000000
00000100
00000000
00000000
00000001
,
00000000
00000000
00001000
00000000
00000000
00000100
00000000
00000000
00010000
00000000
00010000
00000000
00001000
01000000
00000000
00010000
,
00000000
00000000
00100000
00000000
01000000
00000000
00100000
00000000
00001000
00000000
00000000
00000000
00010000
00000100
00000000
00001000
,
00000000
00000000
00000010
00000000
00000100
00000000
00000010
00000000
00010000
00000000
00000000
00000000
00001000
00000000
00000000
01000000
,
00000000
00000000
00010000
00000000
00100000
00000000
00000000
00001000
00000000
00000000
00010000
00000000
00000100
00000000
00000010
00000000
,
00000100
00000000
00010000
00000000
00001000
01000000
00000000
00100000
00000000
00000000
01000000
00000000
00100000
10000000
00000000
01000000
,
00000000
00000000
00010000
00000000
00001000
00000000
00000010
00000000
00000001
00000000
00000000
00000000
00000010
00000001
00000000
00000100
,
00000000
00000000
00001000
00000000
00010000
00000000
00100000
00000000
10000000
00000000
00000000
10000000
01000000
00000000
01000000
00000000
,
00010000
00000000
00010000
00000000
00001000
00000000
00001000
00000000
00000100
00000000
00000100
00000000
00000001
00000000
00000000
00000010
,
00000000
00000000
00001000
00000000
00000000
00010000
00000000
00000000
01000000
00000000
01000000
00000000
10000000
00000000
01000000
00000000
,
00100000
00000000
00001000
00000000
00010000
00000000
00000000
00000100
00000000
00000000
00000010
00000000
00000001
00000000
00000100
00000000
,
00000010
00000000
00010000
00000000
00001000
00000000
00000000
01000000
00000000
00000000
00100000
00000000
10000000
00000000
01000000
00000000
,
00010000
00000000
00001000
00000000
00000010
00000000
00000000
00000001
00000000
00000000
00001000
00000000
00000100
00000000
00000100
00000000
,
00020000
00000000
00030000
00001000
01000000
00100000
00000000
00010000
,
00001000
00000100
00000000
00000010
00010000
00001000
00000100
00000001
,
00000000
00000010
00000000
00000000
00001000
00000000
00000000
00100000
00000000
00000000
00010000
00000000
10000000
00000000
00000000
10000000
,
00000000
00000000
10000000
00000000
01000000
00000000
00010000
00000000
00001000
00000000
00000010
00000000
00000001
00000000
00000000
00000001
,
00000000
00000000
00000001
00000000
00000100
00000000
00001000
00000000
00010000
00000000
00100000
00000000
10000000
00000000
00000000
10000000
,
00000000
00000000
10000000
00000000
00100000
00010000
00000000
00000000
00001000
00000000
00000100
00000000
00000010
00000000
00001000
00000000
,
00000100
00000000
00000010
00000000
00000001
00000100
00000000
00000001
00000000
00000000
00001000
00000000
00000100
00000000
00010000
00000000
,
00001000
00000000
01000000
00000000
00100000
00000000
00000000
00200000
00000000
00000000
00300000
00000000
10000000
00000000
01000000
00000000
,
00010000
00000000
00001000
00000000
01000000
00000000
00000000
01000000
00000000
00000000
01000000
00000000
00100000
00000000
10000000
00000000
,
00010000
00000000
00100000
00000000
00001000
00000000
00000000
00001000
00000000
00000000
00000100
00000000
00000001
00000000
00000000
00000001
,
00000000
00002000
00000000
00003100
00001000
00000100
00020000
00000000
,
00030000
00000000
00002000
00000000
00013000
01000000
20000000
00000000
,
00000000
00000000
00000000
00000000
30000000
00000000
00000000
11000000
,
00000000
01010000
00000000
00011000
00000000
00001100
00000100
00000010
,
00000001
00000000
00000100
00000010
00000001
00000000
00000000
00000101
,
00000000
00001100
00000000
00011000
00000000
01010000
01000000
00100000
,
10000000
00000000
01000000
00100000
10000000
00000000
00010000
01000000
,
10000000
01000000
00010000
00010000
00100000
00001000
00010000
00000100
,
00001000
00001000
00000010
00000100
00000001
00000010
00000010
00000100
,
00001000
00000100
00010000
00001000
00100000
01000000
00010000
01000000
,
10000000
10000000
00010000
01000000
00001000
00001000
00010000
00000100
,
00010100
00000000
00001000
01000000
01001000
00000000
00000000
00000000
,
00110000
00000000
00000000
00000000
00001100
00000000
00000100
00000010
,
00000000
00000001
00000000
00000000
00001000
00000000
00000000
00000100
00000000
00000000
00010000
00000000
01000000
00000000
01000000
00000000
,
10000000
01000000
01000000
00010000
00001000
00001000
01000000
00100000
,
00000000
10000000
00000000
00000000
00010000
00000000
00000000
00100000
00000000
00000000
00001000
00000000
00010000
00000000
00001000
00000000
,
00010000
00000000
00001000
00000000
00000100
00000000
00000000
00000001
00000000
00000000
00000010
00000000
00000100
00000000
00010000
00000000
,
00000000
00001000
00000000
00000000
01000000
00000000
00000000
00100000
00000000
00000000
10000000
00000000
01000000
00000000
01000000
00000000
,
00010000
00001000
00001000
00000100
00000001
00000001
00000010
00000001
,
00000000
00001000
00000000
00000000
00000100
00000000
00000000
00010000
00000000
00000000
01000000
00000000
10000000
00000000
00010000
00000000
,
10000000
00010000
00100000
00001000
00000000
00010000
00000010
00000100
,
00001000
00000100
00000010
00000100
00001000
00000100
00000001
00000010
,
00000000
00001000
00000000
00000000
00010000
00000000
00000000
01000000
00000000
00000000
10000000
00000000
00010000
00000000
00010000
00000000
,
01000000
00001000
00000000
01000000
00001000
00000000
00000000
00010000
00000000
00000000
00000100
00000000
00001000
00000000
00000010
00000000
,
00000000
00000001
00000000
00000000
00000010
00000000
00000000
00010000
00000000
00000000
00001000
00000000
01000000
00100000
01000000
00000000
,
00010000
10000000
00010000
00000000
00100000
00000000
00000000
01000000
00000000
00000000
10000000
00000000
00100000
00000000
00010000
00000000
,
00000000
00001000
00000000
00000000
00000100
00000000
00000000
00000010
00000000
00000000
00010000
00000000
00000100
00000000
00000100
00000000
,
00010000
00001000
00000000
00010000
00001000
00000000
00000000
01000000
00000000
00000000
00100000
00000000
10000000
00000000
01000000
00000000
,
00000000
00010000
00000000
00000000
00001000
00000000
00000000
00000010
00000000
00000000
00000001
00000000
00001000
00000100
00001000
00000000
,
00000010
00001000
00000010
00000000
00010000
00000000
00000000
00001000
00000000
00000000
00100000
00000000
00010000
01000000
00010000
00000000
,
10000000
01000000
10000000
00000000
01000000
00000000
00010000
00000000
00001000
00000000
00000010
00000000
00000002
00000000
00000000
00000000
,
00000000
00000003
00000000
00001000
,
00010000
00100000
01000000
00000000
00100000
00010000
00001000
00000000
,
00000100
00000010
00001000
00010000
01000000
00100000
00001000
00000000
,
00000010
00000100
00010000
00000000
00001000
01000000
00200000
00000000
,
00300000
00000000
10000000
01000000
00010000
00002000
00000000
00000000
,
00000000
00000000
00000000
00003000
00000000
00000000
00000000
00000000
;

//---------------dance-double - ----------------
#NOTES:
     dance-double:
     :
     Challenge:
     15:
     0.670,0.793,0.127,0.040,0.710:
00000000
00000000
00000000
00000000
,
00000000
00000000
00000000
00000000
,
00000000
00000000
00000000
00000000
,
00000000
00000000
00000000
00000000
,
01000000
00100000
00002000
00020000
00000000
00000000
00000000
00000000
,
00000000
00000000
00000000
00000000
00000000
00000000
00000000
00000000
00033000
00000000
00000000
00000000
00001000
01000000
00000000
00100000
,
00000000
00000000
10000000
00000000
01000000
00000000
00010000
00000000
00011000
00000000
00000000
00000000
00010000
00000100
00000000
00000010
,
00000000
00000000
00000001
00000000
00000100
00000000
00001000
00000000
00011000
00000000
00000000
00000000
00001000
00100000
00000000
01000000
,
00000000
00000000
10000000
00000000
01000000
00000000
00000000
00010000
00000000
00000000
00001000
00000000
00000100
00000000
00000100
00000000
,
00000001
00000000
00001000
00000000
00000100
00010000
00000000
00001000
00000000
00000000
01000000
00000000
00100000
10000000
00000000
10000000
,
01000000
00000000
00100000
00000000
00010000
00000000
00001000
00000000
00000100
00000000
00000000
00000000
00000010
00000001
00000000
00000001
,
00000100
00000000
00000010
00000000
00001000
00000000
00010000
00000000
01000000
00100000
00000000
00100000
10000000
00100000
00000000
01000000
,
00000000
00000000
00010000
00000000
10000000
00000000
01000000
00000000
00010000
00000000
00001000
00000000
00000010
00000000
00000000
00000001
,
00000000
00000000
00001000
00000000
00000000
00000100
00000000
00000000
00010000
00000000
00010000
00000000
00001000
01000000
00000000
01000000
,
00100000
00000000
10000000
00000000
01000000
00000000
00010000
00000000
00001000
00000000
00000000
00000000
00010000
00000100
00000000
00000100
,
00000010
00000000
00000001
00000000
00000100
00000000
00001000
00000000
00010000
00000000
00000000
00000000
00001000
00100000
00000000
00100000
,
01000000
00000000
10000000
00000000
01000000
00000000
00100000
00001000
00000000
00001000
00010000
00000000
00001000
00000000
00000100
00000000
,
00000001
00000000
00000010
00000000
00000100
00010000
00000000
00010000
00001000
00000000
00100000
00000000
00010000
01000000
00000000
01000000
,
10000000
00000000
01000000
00000000
00100000
00000000
00010000
00000000
00001000
00000000
00000000
00000000
00010000
00000100
00000000
00000100
,
00000001
00000000
00000100
00000000
00000010
00000000
00001000
00000000
00010000
00001000
00000000
00001000
01000000
00001000
00000000
01000000
,
00000000
00000000
00100000
00000000
01000000
00000000
01000000
00000000
01000000
00000000
01000000
00000000
00100000
00000000
00000000
10100000
,
00000000
00000000
10000000
00000000
00000000
10010000
00000000
00000000
00010000
00000000
00010000
00000000
00100000
01000000
00100000
01000000
,
00100000
00000000
00001000
00000000
00010000
00000000
00000000
00000100
00000000
00000000
00001000
00000000
00000010
00000100
00000010
00000100
,
00000010
00000000
00001000
00000000
00000100
00000000
00000000
00010000
00000000
00000000
00001000
00000000
01000000
00100000
01000000
00100000
,
01000000
00000000
00010000
00000000
00100000
00000000
00000000
00001000
00000000
00000000
00010000
00000000
00000100
00000010
00000100
00000010
,
00000100
00000000
00000000
00000000
00000000
00000000
00000010
00000001
00000100
00000000
00001000
00000000
00000000
00000000
00010000
01000000
,
10000000
00000000
00100000
00000000
00000000
00000000
00010000
00001000
00000010
00000000
00000001
00000000
00000100
00000000
00000010
00000000
,
00000000
00001010
00000000
00000000
00001100
00000000
00000000
00010100
00000000
00000000
00011000
00000000
00001000
00000000
01000000
00100000
,
00000000
00100000
01000000
00000000
00001000
00000000
00010000
00000000
00000100
00000000
00000010
00000000
00000001
00000000
00000100
00000010
,
00000000
00000010
00000100
00000000
00000001
00000000
00000010
00000000
00001000
00000000
00010000
00000000
01000000
00000000
10000000
00100000
,
00000000
00100000
10000000
00000000
01000000
00100000
00000000
00000000
00001000
00000000
00000010
00000000
00000001
00000000
00000100
00000000
,
00000010
00000000
00001000
00000000
00000100
00010000
00000000
00001000
00000000
00000000
01000000
00000000
00100000
00000000
10000000
00000000
,
01000000
00000000
00010000
00000000
00001000
01000000
00001000
01000000
00000000
00000000
00000000
00000000
00001000
00000000
00010000
00000000
,
00000100
00000000
00000010
00000000
00000001
00000100
00000010
00000100
00000000
00000000
00000001
00000000
00001000
00000000
00000100
00000000
,
00010000
00000000
00001000
00000000
01000000
00100000
00000000
00010000
00000000
00000000
00100000
00000000
10000000
00000000
00000000
00010000
,
00000000
00100000
00000000
00001000
00010000
00000100
00000020
00000000
,
00000000
00000000
00000031
00000000
00000100
00001000
00020000
00000000
,
00000000
00000000
00000000
00000000
00030000
00000000
00001000
01000000
,
00100000
01000000
01000000
01000000
01000000
01000000
00100000
10000000
,
11000000
00000000
00100000
00010000
01010000
00000000
00010000
01000000
,
00001000
00000100
00000100
00000100
00000100
00000100
00000001
00000010
,
00000110
00000000
00000000
00000000
00001000
00000000
00000010
00000000
00000110
00000000
00000000
00000000
00000010
00000000
00001000
00000100
,
00001000
00000000
00000100
00000000
00010000
00000000
00001000
00000000
01000000
00000000
00010000
00100000
00010000
00000000
01000000
00000000
,
00100000
00000000
10000000
00000000
01000000
00000000
00100000
00001000
00100000
00000000
00001000
00000000
00010000
00000000
00000100
00000000
,
00000010
00000000
00000001
00000100
00000001
00000000
00000010
00000000
00000100
00000000
00010000
00000000
00001000
00000000
01000000
00100000
,
01000000
00000000
00010000
00000000
00100000
00000000
01000000
00000000
10000000
00000000
00010000
01000000
00010000
00000000
00100000
00000000
,
00101000
00000000
00010000
00000010
00010010
00000000
00000000
00000000
,
10010000
00000000
00000000
00000000
00001001
00000000
00000001
00000100
,
00000010
00010000
00000000
00001000
00100000
00000000
00010000
01000000
00000000
00100000
10000000
00000000
01000000
00000000
01000000
00000000
,
00100000
00001000
00000000
00010000
00000100
00000000
00001000
00000010
00000000
00000100
00000001
00000000
00000010
00000000
00000100
00000000
,
00000010
00000001
00000000
00001000
00000100
00000000
00010000
00001000
00000000
00100000
00010000
00000000
00100000
01000000
00100000
01000000
,
10000000
01000000
10000000
01000000
00100000
00000000
00010000
01000000
00000000
00001000
00100000
00000000
01000000
00000000
10000000
00000000
,
01000000
00100000
00000000
00010000
01000000
00000000
00001000
00100000
00000000
00000010
00010000
00000000
00000010
00000000
00000010
00000000
,
00000100
00000001
00000000
00001000
00000100
00000000
00010000
00001000
00000000
01000000
00010000
00000000
10000000
00000000
01000000
00000000
,
00100000
00001000
00000000
00010000
00000010
00000000
00001000
00000100
00000000
00010000
00001000
00000000
01000000
00010000
01000000
00010000
,
10000000
00010000
10000000
00010000
01000000
00010000
01000000
00010000
00000000
10000000
01000000
10000000
00100000
01000000
00100000
01000000
,
00010000
01000000
00010000
01000000
00100000
01000000
00100000
01000000
00010000
01000000
00010000
01000000
00100000
00000000
10000000
00000000
,
00010000
01000000
00000000
00001000
01000000
00000000
00010000
00000100
00000000
00001000
00000100
00000000
00000001
00000000
00000001
00000000
,
00000010
00001000
00000000
00010000
00001000
00000000
00100000
00001000
00000000
01000000
00001000
00000000
00100000
00000000
01000000
00000000
,
10000000
01000000
00000000
00010000
00001000
00000000
00000010
00000001
00000000
00001000
00000010
00000000
00001000
00000100
00010000
00000100
,
00001000
00000100
00010000
00000100
00001000
00000000
00000100
00010000
00000000
00001000
01000000
00000000
00100000
00000000
10000000
00000000
,
01000000
00010000
00000000
00001000
00000010
00000000
00000001
00000100
00000000
00001000
00010000
00000000
00100000
00000000
00100000
00000000
,
10000000
01000000
00000000
00010000
01000000
00000000
00001000
00000100
00000000
00000001
00000100
00000000
00000010
00000000
00000001
00000000
,
00000100
00000010
00000000
00001000
00000100
00000000
00010000
00001000
00000000
00100000
00010000
00000000
10000000
01000000
00100000
01000000
,
10000000
01000000
00100000
01000000
10000000
01000000
00100000
01000000
00000000
00100000
00010000
00100000
00001000
00010000
00001000
00010000
,
00000100
00001000
00000100
00001000
00000010
00000100
00000010
00000100
00000001
00000010
00000001
00000010
00001000
00000000
00000000
00000000
,
00000000
00000000
00000000
00010000
,
01000000
10000000
00010000
01000000
00001000
00000000
00000000
00000000
00010000
00000100
00001000
00000000
00000100
00000000
00000000
00000000
,
00000010
00000001
00000100
00001000
01000000
00001000
00000100
00001000
01000000
00001000
00100000
00010000
10000000
00000000
00000000
00000000
,
01000000
00100000
00001000
00000000
00010000
00000000
00000000
00000000
00000100
00000000
00001000
00000000
00000010
00000000
00000000
00000000
,
00000000
00000000
00000001
00000010
00100000
20000000
00000000
00000000
,
00000000
00000000
00000000
30000000
00000000
00000000
00000000
00000000
;

//---------------dance-single - ----------------
#NOTES:
     dance-single:
     :
     Beginner:
     2:
     0.104,0.167,0.000,0.000,0.000:
0000
0000
0000
0000
,
0000
0000
0000
0000
,
0000
0000
0000
0000
,
0000
0000
0000
0000
,
0000
0000
0000
0000
,
0000
0000
0000
0001
,
0000
0000
0000
1000
,
0000
0000
0000
0001
,
0000
0000
0000
1000
,
0000
1000
0000
1000
,
0000
0000
0000
0010
,
0000
0000
0000
0100
,
0000
0000
0000
0001
,
0000
0001
0000
0001
,
0000
0000
0000
0010
,
0000
0000
0000
0100
,
0000
0000
0000
1000
,
0000
1000
0000
1000
,
0000
0000
0000
0001
,
0000
0000
0000
0100
,
0000
0100
0000
0100
,
0000
0000
0000
0010
,
0000
0000
0000
1000
,
0000
1000
0000
1000
,
0000
0000
0000
0001
,
0000
0001
0000
0001
,
0000
0000
0000
0010
,
0000
0000
0000
0100
,
0000
0100
0000
0100
,
0000
0000
0000
1000
,
0000
1000
0000
1000
,
0000
0000
0000
0001
,
0000
0001
0000
0001
,
0000
0000
0000
0010
,
0000
0010
0000
0010
,
0000
0000
0000
0100
,
0000
0000
0000
0010
,
0000
0000
0000
0000
,
0001
0000
0001
0000
,
0001
0000
0000
0000
,
1000
0000
1000
0000
,
1000
0000
0000
0000
,
0010
0000
0000
0000
,
0100
0000
0000
0000
,
0001
0000
0000
0000
,
0010
0000
0000
0000
,
0100
0000
0100
0000
,
0100
0000
0100
0100
,
0000
0000
0000
0010
,
0000
0000
0000
0001
,
0000
0000
0000
0100
,
0000
0100
0000
0100
,
0000
0000
0000
0010
,
0000
0000
0000
1000
,
0000
0000
0000
0001
,
0000
0001
0000
0001
,
0001
0001
0001
0001
,
0000
0000
0000
0010
,
0000
0000
0000
0100
,
0000
0000
0000
1000
,
0000
0000
0000
0010
,
0000
0000
0000
0100
,
0000
0000
0000
0001
,
0000
0000
0000
1000
,
0000
1000
0000
1000
,
1000
1000
1000
1000
,
0000
0000
0000
0100
,
0000
0100
0000
0010
,
0000
0010
0000
1000
,
0000
1000
0000
0001
,
0000
0001
0000
0000
;

//---------------dance-double - ----------------
#NOTES:
     dance-double:
     :
     Medium:
     8:
     0.369,0.368,0.024,0.040,0.008: // measure 1
00000000
00000000
00000000
00000000
,  // measure 2
00000000
00000000
00000000
00000000
,  // measure 3
00000000
00000000
00000000
00000000
,  // measure 4
00000000
00000000
00000000
00000000
,  // measure 5
10000000
01000000
00100000
02000000
00000000
00000000
00000000
00000000
,  // measure 6
00000000
00000000
03000000
10000000
,  // measure 7
00010000
01000000
00100000
00000000
01000000
00000000
00010000
00000000
,  // measure 8
00100000
00001000
00010000
00000000
00000100
00000000
00001000
00000000
,  // measure 9
00000010
00000100
00000001
00000000
00000010
00000000
00000100
00001000
,  // measure 10
00000100
00010000
00001000
01000000
,  // measure 11
00010000
00100000
01000000
00000000
10000000
00000000
00010000
00000000
,  // measure 12
01000000
00001000
00010000
00000000
00000100
00000000
00001000
00000000
,  // measure 13
00000010
00000000
00000100
00000100
00000100
00000000
00000001
00001000
,  // measure 14
00000100
00000000
00000010
00000000
00000100
00000000
00001000
00000100
,  // measure 15
00010000
00000000
00001000
00000000
00100000
00000000
00010000
01000000
,  // measure 16
00100000
01000000
00010000
00100000
,  // measure 17
01000000
00000000
10000000
01000000
00010000
00000000
00001000
00000000
,  // measure 18
00000100
00000000
00000001
00000100
00001000
00000000
00000100
00000000
,  // measure 19
00000010
00000000
00001000
00000100
00010000
00000000
00001000
00000000
,  // measure 20
01000000
00000000
00010000
01000000
10000000
00000000
01000000
00000000
,  // measure 21
00010000
00000000
00000000
00000000
00100000
00000000
00001000
00000000
00100000
00000000
00001000
00000000
00010000
00000000
00000000
00001000
,  // measure 22
00000000
00000000
00010000
00000000
00000000
00001000
00000000
00000000
00010000
00000000
00000000
00000000
00001000
00000000
00000000
00000000
,  // measure 23
01000000
00000000
00010000
00100000
01000000
00000000
10000000
00000000
,  // measure 24
01000000
00000000
00100000
00010000
01000000
00000000
00001000
00000000
,  // measure 25
00010000
00000000
00000100
00000000
00001000
00000000
00000010
00000010
,  // measure 26
00000100
00000000
00000000
00000001
00000100
00000010
00000000
00000010
,  // measure 27
00000100
00000001
00000000
00000001
00001000
00000100
00001000
00000000
,  // measure 28
00000100
00010000
00011000
00001000
,  // measure 29
00001000
00000000
01000000
00100000
01000000
00000000
00010000
00000000
,  // measure 30
10000000
00000000
01000000
00100000
01000000
00000000
00100000
00000000
,  // measure 31
00001000
00010000
00000100
00001000
,  // measure 32
00000010
00000000
00000100
00000001
00001000
00000000
00000100
00000000
,  // measure 33
00000100
00000000
00001000
00000100
00010000
00000000
00001000
00000000
,  // measure 34
00001000
00000000
01000000
00010000
00100000
00000000
01000000
00000000
,  // measure 35
01000000
00000000
10000000
01000000
00010000
00000000
00001000
00000000
,  // measure 36
00000100
00000001
00001000
00000200
,  // measure 37
00000000
00000000
00000320
00000000
00000031
00001000
00000002
00000000
,  // measure 38
00000000
00000000
00000000
00000103
,  // measure 39
00000010
00001000
00000100
00000000
00000100
00000000
00010000
00001000
,  // measure 40
01000000
00000000
00001000
00010000
00000100
00000000
00010000
00000000
,  // measure 41
00001000
00000000
01000000
00000000
01000000
00000000
00100000
10000000
,  // measure 42
01000000
00000000
00100000
00010000
01000000
00000000
00010000
00000000
,  // measure 43
00100000
00001000
00010000
00000000
00000010
00000000
00001000
00000100
,  // measure 44
00001000
00000010
00010000
00001000
,  // measure 45
00100000
00010000
00100000
00000000
01000000
00000000
10000000
00000000
,  // measure 46
10000000
00010000
00010000
01000000
,  // measure 47
01100000
00100000
01100000
00000000
,  // measure 48
01000000
00000000
01000000
00100000
,  // measure 49
00100000
00000000
10000000
01000000
00010000
00000000
00001000
00000000
,  // measure 50
00001000
00000010
00000001
00000100
,  // measure 51
00000100
00000000
00000001
00000100
00001000
00000000
00010000
00000000
,  // measure 52
00001000
00000000
00010000
00001000
00010000
00000000
00001000
00000000
,  // measure 53
01000000
00000000
00010000
10000000
01000000
00000000
00010000
00000000
,  // measure 54
00001000
00000000
00010000
00000100
00001000
00000000
00000010
00000000
,  // measure 55
00000100
00000001
00001000
00000100
,  // measure 56
00000100
00010000
00010000
00001000
,  // measure 57
00001000
00000000
01000000
00010000
01000000
00010000
10000000
00000000
,  // measure 58
01000000
00000000
00100000
00010000
01000000
00000000
00001000
00000000
,  // measure 59
00010000
00000000
00000100
00001000
00000010
00000000
00000100
00000000
,  // measure 60
00000001
00000000
00000010
00000100
00001000
00000000
00000100
00000000
,  // measure 61
00010000
00000000
00001000
00100000
00010000
00000000
01000000
00000000
,  // measure 62
00100000
00000000
10000000
01000000
00010000
00000000
00001000
00000000
,  // measure 63
00000100
00000000
00000001
00000100
00001000
00000000
00010000
00000000
,  // measure 64
01000000
00000000
10000000
01000000
00010000
00000000
00001000
00010000
,  // measure 65
00001000
00010000
00001000
00000000
00010000
00000000
00000100
00001000
,  // measure 66
00000100
00001000
00000010
00000100
00000001
00000010
00000100
00000000
,  // measure 67
00000000
00000000
00000000
00001000
,  // measure 68
00000100
00010000
00001000
00000000
01000000
00010000
00100000
00000000
,  // measure 69
01000000
10000000
00010000
00000000
01000000
00000000
00001000
00000000
,  // measure 70
00010000
00000100
00001000
00000000
00000010
00000000
00000100
00000000
,  // measure 71
00000000
00000000
00000001
00000010
00000100
00002000
00000000
00000000
,  // measure 72
00000000
00000000
00000000
00003000
00000000
00000000
00000000
00000000
;

//---------------dance-double - ----------------
#NOTES:
     dance-double:
     :
     Easy:
     6:
     0.221,0.226,0.000,0.008,0.000: // measure 1
00000000
00000000
00000000
00000000
,  // measure 2
00000000
00000000
00000000
00000000
,  // measure 3
00000000
00000000
00000000
00000000
,  // measure 4
00000000
00000000
00000000
00000000
,  // measure 5
00000000
00000000
00000000
00000000
,  // measure 6
00000000
00000000
00000000
10000000
,  // measure 7
00000000
00010000
01000000
00001000
,  // measure 8
00000000
00010000
00000100
00001000
,  // measure 9
00000000
00000010
00000100
00000001
,  // measure 10
00000000
00000010
00000100
00001000
,  // measure 11
00000000
00000100
00010000
00001000
,  // measure 12
00000000
01000000
00010000
10000000
,  // measure 13
00000000
00100000
00000000
01000000
,  // measure 14
01000000
00100000
00100000
10000000
,  // measure 15
00000000
01000000
00010000
00001000
,  // measure 16
00000000
00000100
00000001
00000010
,  // measure 17
00000000
00000001
00000100
00001000
,  // measure 18
00000000
00010000
01000000
10000000
,  // measure 19
01000000
10000000
01000000
00100000
,  // measure 20
00010000
00100000
00010000
01000000
,  // measure 21
00000000
00001000
00000000
00010000
,  // measure 22
00010000
00001000
00001000
00010000
,  // measure 23
00000000
00000100
00000000
00000010
,  // measure 24
00000001
00000100
00000000
00000010
,  // measure 25
00001000
00000100
00010000
00000100
,  // measure 26
00001000
00000000
00000010
00000000
,  // measure 27
00000100
00000000
00000001
00000000
,  // measure 28
00000010
00000100
00001000
00000001
,  // measure 29
00000000
00000001
00000100
00001000
,  // measure 30
00000000
00010000
01000000
10000000
,  // measure 31
00000000
10000000
01000000
00010000
,  // measure 32
00000000
00001000
00000100
00000001
,  // measure 33
00000000
00000001
00000100
00001000
,  // measure 34
00000000
00010000
01000000
10000000
,  // measure 35
00000000
10000000
01000000
00010000
,  // measure 36
00000000
00001000
00000100
00000001
,  // measure 37
00000000
00001000
00000000
00000100
,  // measure 38
00000100
00010000
00010000
00001000
,  // measure 39
00000000
01000000
00000000
00001000
,  // measure 40
01000000
00010000
00000000
01000000
,  // measure 41
00000000
00010000
00000000
01000000
,  // measure 42
00010000
10000000
00000000
00010000
,  // measure 43
00000000
10000000
00000000
00010000
,  // measure 44
10000000
01000000
00000000
10000000
,  // measure 45
00000000
01000000
00000000
10000000
,  // measure 46
01000000
00100000
00000000
01000000
,  // measure 47
00000000
00100000
00000000
01000000
,  // measure 48
00100000
00000000
00100000
00010000
,  // measure 49
01000000
00010000
00000000
01000000
,  // measure 50
00000000
00001000
00000000
00010000
,  // measure 51
00001000
00010000
00000000
00001000
,  // measure 52
00000000
00010000
00000000
00000100
,  // measure 53
00001000
00000100
00000000
00001000
,  // measure 54
00000000
00000100
00000000
00000010
,  // measure 55
00000001
00000010
00000000
00000001
,  // measure 56
00000100
00000001
00000000
00000001
,  // measure 57
00000100
00001000
00010000
01000000
,  // measure 58
10000000
01000000
00000000
00100000
,  // measure 59
00010000
00100000
00000000
01000000
,  // measure 60
10000000
00010000
00000000
01000000
,  // measure 61
00010000
01000000
00000000
00001000
,  // measure 62
00010000
00001000
00000000
00100000
,  // measure 63
00010000
00100000
00000000
00010000
,  // measure 64
01000000
00010000
00000000
10000000
,  // measure 65
01000000
00010000
00001000
00000100
,  // measure 66
00000001
00000100
00001000
00010000
,  // measure 67
00000000
00000000
00000000
00001000
,  // measure 68
01000000
00010000
10000000
01000000
,  // measure 69
00100000
00010000
01000000
00001000
,  // measure 70
00010000
00000100
00001000
00000010
,  // measure 71
00000000
00000000
00000100
00000100
00000010
00000020
00000000
00000000
,  // measure 72
00000000
00000000
00000000
00000030
00000000
00000000
00000000
00000000
;
