#TITLE:Try 2 Luv. U -SF Electro House Mix-;
#SUBTITLE:;
#ARTIST:Sota Fujimori;
#TITLETRANSLIT:;
#SUBTITLETRANSLIT:;
#ARTISTTRANSLIT:;
#GENRE:;
#CREDIT:;
#MENUCOLOR:;
#METERTYPE:DDR;
#BANNER:Try 2 Luv. U -SF Electro House Mix-.png;
#BACKGROUND:Try 2 Luv. U -SF Electro House Mix--bg.png;
#LYRICSPATH:;
#CDTITLE:cdtitle.png;
#MUSIC:Try 2 Luv. U -SF Electro House Mix-.mp3;
#OFFSET:-0.024;
#SAMPLESTART:65.235;
#SAMPLELENGTH:15.000;
#SELECTABLE:YES;
#LISTSORT:;
#BPMS:0.000=132.000;
#STOPS:;
#BGCHANGES:;
#ATTACKS:;

//---------------dance-single - ----------------
#NOTES:
     dance-single:
     :
     Hard:
     11:
     0.533,0.533,0.310,0.106,0.226:
0000
0000
0000
0000
,
0000
0000
0000
0000
,
0000
0000
0000
0000
,
0000
0000
0000
0000
,
1100
0000
0101
0000
1000
0100
0001
0100
,
0000
1000
0010
0000
0100
0001
0010
0000
,
0011
0000
1010
0000
0001
0100
1000
0100
,
0000
0001
0010
0000
0100
1000
0010
0000
,
0110
0000
1001
0000
0001
0100
1000
0100
,
0001
0010
0100
0000
0001
0100
1000
0000
,
0110
0000
1001
0000
1000
0100
0001
0100
,
1000
0010
0100
0000
0001
0000
1001
0000
,
1000
0000
0000
0000
0001
0000
0100
0000
0010
0000
0000
0000
0010
0000
0000
0010
,
0000
0000
1000
0000
0100
0000
0010
0000
0001
0000
0000
0001
0000
0000
0001
0000
,
1000
0000
0010
0000
0000
0100
0000
0001
0000
0000
0010
0000
0000
0000
1000
0000
,
0010
0001
0000
0101
0000
1100
0000
1001
,
1000
0000
0010
0000
0100
0001
0100
0000
0001
0000
1000
0000
0100
0010
0100
0000
,
1000
0001
0100
0010
0110
0000
0001
0100
,
1000
0100
0001
0010
0100
0001
0100
1000
,
0010
0000
0100
0000
0001
0000
0010
0000
0100
0000
0000
0000
1000
0100
1000
0000
,
0000
0000
0001
0000
0100
0000
0001
0000
1000
0000
0100
0000
0010
0100
0010
0000
,
0000
0000
0100
0000
1000
0000
0001
0000
0100
0000
0010
0000
0100
0001
0100
0000
,
0000
0001
0100
1000
0100
0010
0100
0010
,
1000
0000
0000
0100
0000
0000
1000
0000
0000
0000
0000
0000
0001
0000
0000
0100
0000
0000
0001
0000
0000
0000
0000
0000
1000
0000
0000
0000
0001
0000
0000
0000
1000
0000
0000
0000
0001
0000
0000
0000
0000
0000
0000
0000
0000
0000
0000
0000
,
1000
0000
1100
0000
0000
0000
0010
0000
0001
0000
1000
0001
0000
0000
0000
0000
,
0100
0000
1000
0000
0100
0000
0000
0000
0101
0000
0000
1100
0000
0000
0000
0000
,
0001
0000
0101
0000
0000
0000
1000
0000
0001
0000
1000
0100
0000
0000
0000
0000
,
1000
0000
0000
0000
0010
0000
0000
0000
1000
0000
0000
0000
0001
0000
0000
0000
0100
0000
0000
0000
0001
0000
0000
0000
1000
0000
0000
0000
0000
0000
0000
0000
0000
1001
0000
0000
0000
0000
0000
0000
0000
0000
0000
0000
0000
0000
0000
0000
,
1000
0000
1010
0000
0000
0000
0100
0000
0001
0000
1000
0001
0000
0000
0000
0000
,
0010
0000
1000
0000
0010
0000
0000
0000
0011
0000
0000
1010
0000
0000
0000
0000
,
0001
0000
0011
0000
0000
0000
1000
0000
0001
0000
1000
0010
0000
0000
0000
0000
,
1000
0000
0000
0000
0100
0000
0000
0000
1000
0000
0000
0000
0001
0000
0000
0000
0010
0000
0000
0000
0001
0000
0000
0000
1000
0000
0000
0000
0000
0000
0000
0000
0000
1001
0000
0000
0000
0000
0000
0000
0000
0000
0000
0000
0000
0000
0000
0000
,
0001
0100
0001
0000
1000
0100
1000
0000
,
0001
0000
0000
0100
0000
0000
1000
0000
0000
0100
0000
0000
0001
0000
0010
0000
0100
0000
1000
0000
0000
0000
0000
0000
,
0001
0100
0001
0000
1000
0000
0001
0100
0001
0000
0010
0000
0100
0000
0000
0000
,
1000
0100
1000
0000
0001
0000
1000
0100
1000
0000
0010
0000
0100
0000
0102
0000
,
0000
1003
0100
1000
0001
0100
0000
0010
,
1000
0010
0100
0010
0001
0000
1010
0000
,
1000
0100
0001
1000
0010
0001
1000
0100
,
0001
1000
0010
0001
0000
0100
0001
1000
,
0010
0010
0100
0001
1000
0000
1100
0000
,
0100
0001
0100
1000
0100
0000
1001
0000
,
0001
0100
1000
0001
0010
1000
0001
0100
,
1000
0001
0010
1000
0000
0001
0010
0012
,
0000
1003
0010
1000
0001
0010
0000
0100
,
1000
0100
0010
0100
0001
0000
1100
0000
,
1000
0010
0001
1000
0100
0001
1000
0010
,
0001
1000
0100
0001
0000
0010
0001
1000
,
0100
0100
0010
0001
1000
0000
1010
0000
,
0010
0001
0010
1000
0010
0000
1001
0000
,
0001
0010
1000
0001
0100
1000
0001
0010
,
1000
0000
0001
0000
0100
0000
1000
0000
0001
0000
0001
0000
1000
0000
1000
0100
,
1000
0000
0002
0000
0000
0000
0003
0000
0100
0001
0000
1000
0000
0000
0000
0000
,
0010
0000
0000
0000
0100
0000
0000
0000
2002
3003
0000
0000
0000
0000
0000
0000
,
0001
0000
0200
0000
0000
0000
0310
0000
1000
0000
0001
0010
0000
0000
0000
0000
,
0001
0000
0000
0000
0100
0000
0000
0000
0001
0000
0000
0000
1000
0000
0000
0000
0100
0000
0000
0000
1000
0000
0000
0000
0001
0000
0000
0000
0000
0000
1000
0000
0000
0100
0000
0000
0000
0000
0000
0000
0000
0000
0000
0000
0000
0000
0000
0000
,
0001
0000
0200
0000
0000
0000
0300
0000
1000
0001
0000
0100
0000
0000
0000
0000
,
0010
0000
0000
0000
1000
0000
0000
0000
2002
3003
0000
0000
0000
0000
0000
0000
,
0001
0000
0020
0000
0000
0000
1030
0000
0010
0000
0001
1000
0000
0000
0000
0000
,
0001
0000
0100
0000
0001
0000
1000
0000
0100
0000
1000
0000
0001
0000
0000
0100
0000
0000
0110
0000
0000
0000
0000
0000
,
2002
3003
0000
0000
0000
0000
0000
0000
0000
0000
0000
0000
0000
0000
0000
0000
;

//---------------dance-single - ----------------
#NOTES:
     dance-single:
     :
     Medium:
     8:
     0.422,0.426,0.160,0.133,0.000:
0000
0000
0000
0000
,
0000
0000
0000
0000
,
0000
0000
0000
0000
,
0000
0000
0000
0000
,
1000
0000
0001
0000
0100
0000
0010
1000
,
0000
0001
0010
0000
0001
0100
1000
0000
,
0100
0000
0001
0000
1000
0000
0100
0010
,
0000
0001
0100
0000
1000
0100
0001
0000
,
0010
0000
0100
0000
1000
0000
0100
0001
,
0000
0100
1000
0000
0010
0001
0010
0000
,
1000
0000
0001
0000
0010
0000
0100
1000
,
0000
0001
0100
0000
0020
0000
0130
0000
,
0001
0100
1000
0100
,
0001
0010
1000
0010
,
0001
0100
0001
0100
1000
0100
1000
0100
,
0001
0100
1000
0100
0001
0100
1000
0000
,
0100
0100
0100
0000
0001
0010
0100
0000
,
1000
0010
0100
0000
0001
0000
1100
0000
,
0001
0100
0001
1000
0100
1000
0001
0000
,
0010
0100
1000
0001
0100
1000
0100
0000
,
0001
0100
0001
1000
0100
0010
0001
0000
,
1000
0100
0001
0100
1000
0010
0100
0000
,
0001
0010
0100
0000
0001
0100
1000
0000
,
0010
0100
0001
1000
0100
0100
0100
0000
,
0010
0000
0001
0100
0020
0000
1030
0100
,
0010
0100
2000
0000
3001
0000
1000
0000
,
0001
0000
1000
0100
0001
0000
0100
1000
,
0010
1000
0200
0000
0310
0001
0200
0000
,
0310
0000
0001
0010
2000
0000
3100
0010
,
0001
0010
0100
0000
2000
0000
3010
0000
,
0200
0000
0301
0010
0100
0000
0001
0100
,
1000
0100
0002
0000
0103
1000
0010
0100
,
0002
0000
2003
0000
,
3200
0000
0320
0000
,
1030
0000
0010
0000
0001
0100
1000
0000
,
1000
0000
0100
0000
0001
0010
1000
0000
,
0010
0001
0100
0001
0000
1000
0100
1000
,
0000
0001
0100
0000
0101
0000
1100
0000
,
0010
1000
0100
1000
0000
0001
0100
0001
,
0000
1000
0100
0000
1100
0000
0101
0000
,
0100
0001
0010
0001
0000
1000
0010
1000
,
0000
0001
0010
0000
0011
0000
1010
0000
,
0100
1000
0010
1000
0000
0001
0010
0001
,
0000
1000
0010
0000
1010
0000
0011
0000
,
0100
1000
0010
1000
0000
0001
0010
0001
,
0000
1000
0010
0000
1010
0000
0011
0000
,
0100
0001
0010
0001
0000
1000
0010
1000
,
0000
0001
0010
0000
0011
0000
1010
0000
,
0010
1000
0100
1000
0000
0001
0100
0001
,
0000
1000
0100
0000
1100
0000
0101
0000
,
0010
0001
0100
0001
0000
1000
0100
1000
,
0000
0001
0100
0000
0101
0000
1100
0000
,
0001
0010
0100
1000
0100
0010
0000
0001
,
0000
0010
0000
0100
0000
0000
0000
0000
,
1000
0010
0100
0001
0100
0010
0000
1000
,
0000
0010
0000
0100
0000
0000
0000
0000
,
0001
0100
0010
1000
0010
0100
0000
0001
,
0000
0100
0000
0010
0000
0000
0000
0000
,
1000
0100
0010
0001
0010
0100
0000
1000
,
0000
0100
0000
0010
0000
0000
0000
0000
,
2002
3003
0000
0000
0000
0000
0000
0000
0000
0000
0000
0000
0000
0000
0000
0000
;

//---------------dance-single - ----------------
#NOTES:
     dance-single:
     :
     Easy:
     5:
     0.228,0.239,0.009,0.177,0.000:
0000
0000
0000
0000
,
0000
0000
0000
0000
,
0000
0000
0000
0000
,
0000
0000
0000
0000
,
0010
0100
0001
0100
,
0010
1000
0001
0000
,
1000
0100
0010
0001
,
0100
0010
1000
0000
,
0001
0100
0010
0100
,
0001
0010
0100
0000
,
1000
0100
0001
0100
,
1000
0010
0200
0300
,
0100
0000
0100
0000
,
0001
0000
0001
0000
,
0010
0000
0010
0000
,
0100
0000
0100
0000
,
1000
0100
1000
0100
,
0010
0100
1000
0000
,
0001
0100
0001
0100
,
0010
0100
0001
0000
,
1000
0100
0001
0100
,
1000
0010
0100
0000
,
0001
0100
1000
0100
,
0001
0010
0200
0300
,
1000
0000
1000
0000
,
0001
0100
0010
0000
,
0001
0000
0001
0000
,
2000
3200
0310
0000
,
0001
0000
1000
0000
,
0001
0010
0100
0000
,
1000
0000
0001
0000
,
2000
3020
0130
0000
,
0000
0001
0000
0001
,
0000
1000
0000
1000
,
0010
0010
0020
0030
,
0100
0100
0200
0300
,
1000
0100
1000
0000
,
0001
0100
0001
0000
,
1000
0100
0001
1000
,
0010
0001
0100
0000
,
0001
0100
0001
0000
,
1000
0100
1000
0000
,
0001
0100
1000
0001
,
0010
1000
0001
0000
,
1000
0010
1000
0000
,
0001
0010
0001
0000
,
1000
0010
0001
1000
,
0100
0001
1000
0000
,
0001
0010
0001
0000
,
1000
0010
1000
0000
,
0001
0010
1000
0001
,
0100
1000
0001
0000
,
2000
0000
3002
0000
,
0203
0000
0300
0000
,
0020
0000
2030
0000
,
3002
0000
0003
0000
,
0020
0000
0230
0000
,
2300
0000
3000
0000
,
0020
0000
0230
0000
,
0302
0000
0003
0000
,
1001
0000
0000
0000
;

//---------------dance-single - ----------------
#NOTES:
     dance-single:
     :
     Beginner:
     3:
     0.136,0.239,0.018,0.044,0.000:
0000
0000
0000
0000
,
0000
0000
0000
0000
,
0000
0000
0000
0000
,
0000
0000
0000
0000
,
1000
0000
0000
0000
,
0001
0000
0000
0000
,
1000
0000
0000
0000
,
0001
0000
0000
0000
,
1000
0000
0000
0000
,
0001
0000
0000
0000
,
1000
0000
0000
0000
,
0001
0000
1000
0000
,
0100
0000
0100
0000
,
0100
0000
0000
0000
,
0010
0000
0010
0000
,
0010
0000
0000
0000
,
1000
0000
1000
0000
,
1000
1000
1000
0000
,
0001
0000
0001
0000
,
0001
0001
0001
0000
,
0100
0000
0100
0000
,
0100
0100
0100
0000
,
0010
0000
0010
0000
,
0010
0010
0010
0000
,
0000
1000
0000
1000
,
0000
0001
0000
0001
,
0000
1000
0000
1000
,
0000
0100
0000
0100
,
0000
1000
0000
1000
,
0000
0001
0000
0001
,
0000
0100
0000
0100
,
0000
0001
0000
0001
,
0001
0000
0000
0000
,
0000
0000
0000
0000
,
0220
0330
0000
0000
,
0220
0330
0000
0000
,
0001
0000
0001
0000
,
0001
0000
0100
0000
,
1000
0000
1000
0000
,
1000
0000
0100
0000
,
0001
0000
0001
0000
,
0001
0000
0100
0000
,
1000
0000
1000
0000
,
1000
0000
0100
0000
,
0010
0000
0010
0000
,
0010
0000
1000
0000
,
0100
0000
0100
0000
,
0100
0000
1000
0000
,
0010
0000
0010
0000
,
0010
0000
0001
0000
,
0100
0000
0100
0000
,
0100
0000
1000
0000
,
0000
0001
0000
0001
,
0000
0001
0000
0000
,
0000
1000
0000
1000
,
0000
1000
0000
0000
,
0000
0001
0000
0001
,
0000
1000
0000
1000
,
0000
0100
0000
0100
,
0200
0000
0300
0000
,
0100
0000
0000
0000
;

//---------------dance-double - ----------------
#NOTES:
     dance-double:
     :
     Hard:
     11:
     0.550,0.533,0.222,0.231,0.248:
00000000
00000000
00000000
00000000
,
00000000
00000000
00000000
00000000
,
00000000
00000000
00000000
00000000
,
00000000
00000000
00000000
00000000
,
11000000
00000000
01010000
00000000
00010000
01000000
00001000
00020000
,
00000000
00030100
00001000
00000000
00000010
00000100
00000001
00000000
,
00000101
00000000
00001100
00000000
00001000
00000010
00010000
00002000
,
00000000
01003000
00010000
00000000
00100000
01000000
10000000
00000000
,
10100000
00000000
00110000
00000000
00010000
00100000
00001000
00020000
,
00000000
00030010
00001000
00000000
00000100
00000010
00000001
00000000
,
00000011
00000000
00001010
00000000
00001000
00000100
00010000
00002000
,
00000000
00103000
00010000
00000000
01000000
00100000
10000000
00000000
,
00010000
00000000
00000000
00000000
01000000
00000000
00001000
00000000
00010000
00000000
00000000
00000010
00000000
00000000
00001000
00000000
,
00000001
00000000
00000010
00000000
00000100
00000000
00001000
00000000
00000000
00000100
00000000
00000000
00010000
00000000
00001000
00000000
,
01000000
00000000
00100000
00000000
00000000
01000000
00000000
01000000
00000000
00000000
00010000
00000000
00000000
00100000
00000000
00100000
,
00000000
00000000
00001000
00000000
00000000
00010000
00000000
00010000
00000000
00000000
00000100
00000000
00000000
00000000
00001000
00000000
,
00000001
00000100
00000001
00000000
00001000
00000000
00000100
00000000
00010000
00001000
00010000
00000000
00001000
00000000
01000000
00000000
,
00100000
10000000
01000000
00010000
00011000
00000000
00001000
00010000
,
00001000
00000100
00001000
00000100
00000001
00000010
00000100
00001000
,
00000100
00000000
00010000
00000000
00001000
00000000
01000000
00000000
01100000
00000000
00000000
00000000
10000000
00100000
10000000
00000000
,
00000000
00010000
01000000
00000000
00001000
00000000
00010000
00000000
00000100
00000000
00000010
00000000
00000001
00000000
00000001
00000000
,
00000000
00001000
00000100
00000000
00010000
00000000
00001000
00000000
01000000
00000000
00100000
00000000
10000000
00000000
10000000
00000000
,
00000000
00010000
10000000
00000000
01000000
00000000
00010000
00000000
00001000
00000000
00000010
00000000
00000001
00000000
00000100
00000000
,
00000001
00000000
00000000
00001000
00000000
00000000
00000100
00000000
00000000
00010000
00000000
00000000
00000010
00000000
00000100
00000000
00001000
00000000
00010000
00000000
00000000
00000000
00000000
00000000
,
00011000
00000000
00002000
00000000
01000000
00000000
01003000
00000000
00100000
00000000
10000000
00010000
00000000
00000000
00000000
00000000
,
00100000
00000000
01000000
00000000
10000000
00000000
00010000
00000000
01000000
00001000
00000000
01001000
00000000
00000000
00000000
00000000
,
00011000
00000000
00020000
00000000
00000100
00000000
00030100
00000000
00000010
00000000
00000001
00001000
00000000
00000000
00000000
00000000
,
00000001
00000000
00000000
00000000
00000100
00000000
00000000
00000000
00001000
00000000
00000000
00000000
00010000
00000000
00000000
00000000
00100000
00000000
00000000
00000000
10000000
00000000
00000000
00000000
00010000
00000000
00000000
00000000
00000000
00000000
00000000
00000000
00000000
10010000
00000000
00000000
00000000
00000000
00000000
00000000
00000000
00000000
00000000
00000000
00000000
00000000
00000000
00000000
,
11000000
00000000
02000000
00000000
00100000
00000000
03100000
00000000
00001000
00000000
01000000
00010000
00000000
00000000
00000000
00000000
,
00100000
00000000
00001000
00000000
00010000
00000000
00000100
00000000
00000010
00000001
00000000
00000011
00000000
00000000
00000000
00000000
,
00000101
00000000
00000200
00000000
00000010
00000000
00000310
00000000
00010000
00000000
00000100
00001000
00000000
00000000
00000000
00000000
,
00000001
00000000
00000000
00000000
00000010
00000000
00000000
00000000
00001000
00000000
00000000
00000000
00010000
00000000
00000000
00000000
01000000
00000000
00000000
00000000
10000000
00000000
00000000
00000000
00010000
00000000
00000000
00000000
00000000
00000000
00000000
00000000
00000000
10010000
00000000
00000000
00000000
00000000
00000000
00000000
00000000
00000000
00000000
00000000
00000000
00000000
00000000
00000000
,
10000000
01000000
00010000
00010000
00001000
00000010
00000001
00000001
,
00000100
00000000
00000000
00001000
00000000
00000000
00000100
00000000
00000000
00000010
00000000
00000000
00010000
00000000
00001000
00000000
00100000
00000000
01000000
00000000
00000000
00000000
00000000
00000000
,
10000000
01000000
00100000
00000000
00010000
00000000
00002000
00000000
00003100
00000000
00000010
00000000
00000001
00000000
00000000
00000000
,
00000001
00000100
00000010
00000000
00001000
00000000
00020000
00000000
01030000
00000000
00100000
00000000
10000000
00000000
00020000
00000000
,
00000000
10030000
01000000
00100000
00010000
01000000
00000000
01000000
,
00001000
00010000
00000100
00000010
00000100
00000000
00001000
00000000
,
00000001
00000100
00001000
00000001
00000010
00001000
00010000
01000000
,
10000000
00010000
00100000
10000000
00000000
00010000
01000000
00010000
,
00100000
01000000
10000000
01000000
00100000
00000000
00100000
00000000
,
00001000
00010000
00000100
00000010
00000100
00000000
00001000
00000000
,
00000001
00000010
00001000
00000001
00000100
00001000
00010000
00100000
,
10000000
00010000
01000000
10000000
00000000
01000000
00010000
00002000
,
00000000
00003010
00000001
00000100
00000001
00000010
00000000
00000100
,
00010000
00001000
01000000
00010000
00100000
00000000
01000000
00000000
,
10000000
01000000
00010000
10000000
00100000
00010000
00001000
00000100
,
00000001
00001000
00000010
00000001
00000000
00000100
00000001
00000100
,
00000010
00001000
00000100
00010000
00001000
00000000
00001000
00000000
,
01000000
00010000
00100000
01000000
10000000
00000000
00010000
00000000
,
10000000
00100000
00010000
10000000
01000000
00010000
00001000
00000010
,
00000001
00000000
00001000
00000000
00000100
00000000
00000001
00000000
00000000
00000000
00000010
00000000
00000100
00000000
00001000
00000001
,
00001000
00000000
00002002
00000000
00000000
00000000
00003003
00000000
00001000
00000100
00000000
00010000
00000000
00000000
00001000
00000000
,
00000000
00000000
01000000
00000000
00000000
00000000
00100000
00000000
00000000
02200000
03300000
00000000
00000000
00000000
00000000
00000000
,
10000000
00000000
20020000
00000000
00000000
00000000
30030000
00000000
00010000
00000000
01000000
00001000
00000000
00000000
00010000
00000000
,
00001000
00000000
00000000
00000000
00000100
00000000
00000000
00000000
00000001
00000000
00000000
00000000
00001000
00000000
00000000
00000000
00000010
00000000
00000000
00000000
00000001
00000000
00000000
00000000
00000010
00000000
00000000
00000000
00000000
00000000
00010000
00000000
00000000
00100000
00000000
00000000
00000000
00000000
00000000
00000000
00000000
00000000
00000000
00000000
00000000
00000000
00000000
00000000
,
10000000
00000000
20020000
00000000
00000000
00000000
30030000
00000000
00010000
01000000
00000000
00001000
00000000
00000000
00010000
00000000
,
00000000
00000000
00000100
00000000
00000000
00000000
00000010
00000000
00000000
00000220
00000330
00000000
00000000
00000000
00000000
00000000
,
00000001
00000000
00002002
00000000
00000000
00000000
00003003
00000000
00001000
00000000
00000100
00010000
00000000
00000000
00001000
00000000
,
00010000
00000000
01000000
00000000
10000000
00000000
00010000
00000000
00100000
00000000
10000000
00000000
00010000
00000000
00000000
01000000
00000000
00000000
10000000
00000000
00000000
00000000
00000000
00000000
,
20020000
30030000
00000000
00000000
00000000
00000000
00000000
00000000
00000000
00000000
00000000
00000000
00000000
00000000
00000000
00000000
;

//---------------dance-double - ----------------
#NOTES:
     dance-double:
     :
     Medium:
     8:
     0.388,0.399,0.062,0.035,0.018:
00000000
00000000
00000000
00000000
,
00000000
00000000
00000000
00000000
,
00000000
00000000
00000000
00000000
,
00000000
00000000
00000000
00000000
,
00000001
00000000
00001000
00000000
00000010
00001000
00000100
00000000
,
00010000
00000000
00001000
00000000
00100000
00010000
01000000
00100000
,
10000000
00000000
00010000
00000000
00100000
00010000
01000000
00000000
,
00001000
00000000
00010000
00000000
00001000
00010000
01000000
00000000
,
10000000
00000000
00010000
00000000
01000000
00010000
00100000
00000000
,
00001000
00000000
00010000
00000000
00000100
00001000
00000010
00000100
,
00000001
00000000
00001000
00000000
00000100
00001000
00000010
00000000
,
00010000
00000000
00001000
00000000
00010000
00001000
00000010
00000000
,
00000001
00000000
00000100
00000000
00000010
00001000
00000100
00000000
,
00010000
00000000
00001000
00000000
00100000
00001000
00010000
00000000
,
00001000
00010000
01000000
10000000
,
00100000
00010000
00001000
00000100
,
00000001
00000010
00000001
00000000
00000100
00000000
00001000
00000000
,
01000000
00000000
00010000
00000000
00100000
00000000
01000000
10000000
,
01000000
00100000
00010000
01000000
,
00001000
00000000
00000100
00000000
00000010
00000000
00001000
00000001
,
00001000
00000000
00000010
00000000
00001000
00000100
00001000
00000000
,
00000100
00000000
00010000
00000000
00001000
01000000
00001000
00000000
,
00010000
01000000
10000000
00100000
,
01000000
00010000
00100000
01000000
10000000
00000000
10010000
00000000
,
00010000
00200000
01000000
00000000
00310000
00000000
01010000
00000000
,
00100000
00000000
00001000
00000000
00010000
00000000
00000010
00000000
00001000
00000000
00000000
00000100
00000000
00000000
00000000
00000000
,
00001000
00000020
00000100
00000000
00001030
00000000
00001100
00000000
,
00000010
00000000
00010000
00000000
00001000
00000000
00100000
00000000
00010000
00000000
00000000
01000000
00000000
00000000
00000000
00000000
,
00100000
20000000
01000000
00000000
30100000
00000000
01100000
00000000
,
01000000
00000000
00010000
00000000
00100000
00000000
00001000
00000000
00010000
00000000
00000000
00000100
00000000
00000000
00000000
00000000
,
00000010
00000002
00000100
00000000
00000013
00000000
00000110
00000000
,
00000100
00000000
00001000
00000000
00000010
00000000
00010000
00000000
00001000
00000000
00000000
01000000
00000000
00000000
00000000
00000000
,
00010000
00010000
10000000
00000000
10000000
10000000
01000000
00000000
,
00100000
00010000
01000000
00000000
00001000
00000000
00011000
00000000
,
00010000
00001000
00000100
00000001
00000100
00001000
00010000
00000000
,
00001000
00010000
01000000
10000000
01000000
00010000
00001000
00000000
,
00010000
00000000
01000000
00000000
10000000
01000000
00010000
01000000
,
00000000
00100000
00010000
00000000
01000000
00000000
00010000
00000000
,
00100000
00000000
00001000
00000000
00010000
00000100
00001000
00000010
,
00000000
00000100
00001000
00000000
00010000
00001000
00010000
00000000
,
00001000
00000000
00000100
00000000
00000001
00000100
00001000
00000100
,
00000000
00000010
00001000
00000000
00000100
00000000
00001000
00000000
,
00000010
00000000
00010000
00000000
00001000
01000000
00010000
00100000
,
00000000
01000000
00010000
00000000
00001000
00010000
00001000
00000000
,
00010000
01000000
10000000
01000000
00010000
00001000
00000000
00010000
,
00000000
00001000
00000000
00000100
00000000
00000010
00001000
00000000
,
00000100
00010000
00001000
00010000
00000100
00001000
00000000
00000010
,
00000000
00000100
00000000
00001000
00000000
00010000
00001000
00010000
,
00001000
00000100
00000001
00000100
00001000
00010000
00000000
00001000
,
00000000
00010000
00000000
01000000
00000000
00100000
00010000
00000000
,
01000000
00001000
00010000
00001000
01000000
00010000
00000000
00100000
,
00000000
01000000
00000000
00010000
00000000
00001000
00010000
00001000
,
00010000
00001000
01000000
00010000
,
00100000
00000000
01000000
10000000
01000000
00000000
00100000
00000000
,
00010000
01000000
00001000
00010000
,
00000100
00000000
00001000
00000010
00001000
00000000
00000001
00000000
,
00000100
00000010
00001000
00000100
,
00010000
00000000
00001000
00100000
00001000
00000000
01000000
00000000
,
00010000
00100000
01000000
10000000
,
01000000
00100000
01000000
00010000
01000000
00001000
01000000
00000000
,
10010000
00000000
00000000
00000000
;

//---------------dance-double - ----------------
#NOTES:
     dance-double:
     :
     Easy:
     5:
     0.217,0.239,0.000,0.000,0.000: // measure 1
00000000
00000000
00000000
00000000
,  // measure 2
00000000
00000000
00000000
00000000
,  // measure 3
00000000
00000000
00000000
00000000
,  // measure 4
00000000
00000000
00000000
00000000
,  // measure 5
00010000
00001000
01000000
00001000
,  // measure 6
00010000
00001000
01000000
00000000
,  // measure 7
00010000
10000000
01000000
10000000
,  // measure 8
00010000
10000000
01000000
00000000
,  // measure 9
00100000
00001000
00010000
00001000
,  // measure 10
00100000
00001000
00010000
00000000
,  // measure 11
00000100
00001000
00000010
00001000
,  // measure 12
00000100
00001000
00000010
00000000
,  // measure 13
00000100
00000001
00000010
00000000
,  // measure 14
00000001
00000100
00001000
00000000
,  // measure 15
00010000
00000000
01000000
00000000
,  // measure 16
10000000
00010000
10000000
00000000
,  // measure 17
00100000
01000000
00010000
00000000
,  // measure 18
10000000
01000000
00010000
00000000
,  // measure 19
00001000
00000100
00000001
00000000
,  // measure 20
00000010
00000010
00000100
00000000
,  // measure 21
00000100
00001000
00000001
00000100
,  // measure 22
00000000
00001000
00010000
01000000
,  // measure 23
00000000
10000000
00010000
10000000
,  // measure 24
01000000
01000000
00100000
00100000
,  // measure 25
00010000
00000000
10000000
01000000
,  // measure 26
00010000
00000000
00001000
00000000
,  // measure 27
00000100
00000000
00000001
00000010
,  // measure 28
00001000
00000000
00010000
00000000
,  // measure 29
00100000
00000000
10000000
01000000
,  // measure 30
00010000
00000000
00001000
00000000
,  // measure 31
00000100
00000000
00000001
00000010
,  // measure 32
00001000
00000000
00010000
00000000
,  // measure 33
00100000
10000000
00100000
00000000
,  // measure 34
01000000
00010000
01000000
00000000
,  // measure 35
00010000
00100000
00010000
00000000
,  // measure 36
00100000
00001000
00100000
00000000
,  // measure 37
00001000
00010000
00001000
00000000
,  // measure 38
00010000
00001000
01000000
00000000
,  // measure 39
00010000
01000000
00100000
00000000
,  // measure 40
10000000
01000000
00100000
00000000
,  // measure 41
00010000
01000000
00001000
00000000
,  // measure 42
00010000
00000100
00001000
00000000
,  // measure 43
00000010
00000100
00000001
00000000
,  // measure 44
00001000
00000100
00010000
00000000
,  // measure 45
00001000
01000000
00001000
01000000
,  // measure 46
00010000
01000000
00001000
00000000
,  // measure 47
00100000
00010000
00100000
00010000
,  // measure 48
00100000
01000000
00100000
00000000
,  // measure 49
00010000
10000000
00010000
10000000
,  // measure 50
01000000
00100000
00010000
00000000
,  // measure 51
01000000
00001000
01000000
00001000
,  // measure 52
00010000
00000100
00001000
00000010
,  // measure 53
00000100
00000000
00000001
00000000
,  // measure 54
00000010
00000100
00001000
00000000
,  // measure 55
00000100
00000000
00010000
00000000
,  // measure 56
00001000
01000000
00010000
00000000
,  // measure 57
10000000
00000000
01000000
00000000
,  // measure 58
00100000
00010000
01000000
00000000
,  // measure 59
00001000
00000000
00010000
00000000
,  // measure 60
00000100
00001000
00000010
00000000
,  // measure 61
00000100
00000000
00000000
00000000
;
