#TITLE:怒れる大きな白い馬 ~S.S.D.の役~;
#SUBTITLE:;
#ARTIST:M.B.D Rmx by S.S.D.;
#TITLETRANSLIT:Tino's White Horse (S.S.D.'s Work);
#SUBTITLETRANSLIT:;
#ARTISTTRANSLIT:;
#GENRE:;
#CREDIT:;
#MENUCOLOR:;
#METERTYPE:DDR;
#BANNER:Tino's White Horse (S.S.D.'s Work).png;
#BACKGROUND:Tino's White Horse (S.S.D.'s Work)-bg.png;
#LYRICSPATH:;
#CDTITLE:cdtitle.png;
#MUSIC:Tino's White Horse (S.S.D.'s Work).mp3;
#OFFSET:-0.669;
#SAMPLESTART:73.634;
#SAMPLELENGTH:15.000;
#SELECTABLE:YES;
#LISTSORT:;
#DISPLAYBPM:110.000:152.000;
#BPMS:0.000=148.000,52.000=150.000,56.000=148.000,128.000=110.000,132.000=109.000,136.000=116.000,144.000=118.000,146.000=119.000,148.000=118.000,150.000=119.000,151.000=125.000,152.000=123.000,153.000=126.000,154.000=129.000,155.000=132.000,156.000=140.000,158.000=141.000,160.000=142.000,162.000=143.000,164.000=144.000,165.000=145.000,166.000=146.000,167.000=149.000,168.000=147.000,172.000=148.000;
#STOPS:;
#BGCHANGES:;
#ATTACKS:;

//---------------dance-single - ----------------
#NOTES:
     dance-single:
     :
     Hard:
     13:
     0.577,0.576,0.055,0.146,0.361:
0000
0000
0000
0000
,
0000
0000
0000
0000
,
0000
0000
0000
0000
,
0000
0000
0000
0000
,
0001
0100
0000
0100
0010
0000
0010
1000
0000
1000
0100
0000
0010
0000
0100
0000
,
1000
0010
0000
0010
0100
0000
0100
0001
0000
0001
0010
0000
0100
0000
0010
0000
,
0001
0010
0000
0010
0100
0000
0100
1000
0000
1000
0010
0000
0100
0000
0010
0000
,
1000
0100
0000
0100
0010
0000
0010
0001
0000
0001
0100
0000
0010
0000
0100
0000
,
0001
0000
0000
0000
1000
0000
0001
0100
0001
0000
0000
0000
0000
0000
1000
0100
,
1000
0000
0001
0100
0001
0000
0000
0000
1000
0000
0000
0000
0010
0000
0100
0001
,
0100
0000
0000
0000
1000
0000
0100
0000
0001
0000
0000
0000
0100
0000
0000
0001
,
0020
0000
0000
0000
,
0200
0000
0000
0000
,
0330
0000
0000
0000
0000
0000
0000
0000
1100
0000
0000
1001
0000
0000
0101
0000
,
1000
0000
0100
0010
0100
0000
1000
0000
0001
0100
0001
0000
1000
0000
0010
0000
,
0100
0000
0001
0010
0001
0000
1000
0000
0100
0010
0100
0000
2000
0000
0000
0000
,
3001
0000
0100
0010
0100
0000
0001
0000
1000
0100
1000
0000
0001
0000
0010
0000
,
0100
0000
1000
0010
1000
0000
0001
0000
0100
0010
0100
0000
0002
0000
0000
0000
,
0013
0000
0100
1000
0001
0000
0100
0000
0010
0100
0001
0000
1000
0000
0100
0000
,
0010
0000
0100
1000
0001
0000
0010
0000
0001
0100
0010
0000
2000
0000
0000
0000
,
3010
0000
0100
0001
1000
0000
0100
0000
0010
0100
1000
0000
0001
0000
0100
0000
,
0010
0000
0100
0001
1000
0000
0010
0000
1000
0100
0010
0000
0002
0000
0000
0000
,
1003
0000
0000
0001
0100
0000
0000
0000
0001
0000
0000
0000
1100
0000
0000
0000
,
0001
0000
0000
1000
0100
0000
0000
0000
1000
0000
0000
0000
0101
0000
0000
0000
,
0001
0010
0001
0000
1000
0000
0100
0000
0010
0000
0001
0000
1000
0000
0010
0000
,
1000
0010
1000
0000
0001
0000
0100
0000
0010
0000
1000
0000
0002
0000
0000
0000
,
1003
0100
1000
0000
0001
0000
0010
0000
0100
0000
1000
0000
0001
0000
0100
0000
,
0001
0100
0001
0000
1000
0000
0010
0000
0100
0000
0001
0000
2000
0000
0000
0000
,
3100
0010
0100
0000
1000
0000
0001
0000
0100
0010
0100
0000
0002
0000
0000
0000
,
0103
0010
0100
0000
0001
0000
1000
0000
0100
0010
0100
0000
2000
0000
0000
0000
,
3010
0100
0010
0000
1000
0000
0001
0000
0010
0100
0010
0000
2000
0000
0000
0000
,
3010
0000
0000
0010
0001
0000
0000
0001
1000
0000
0000
1000
0010
0000
0001
0000
,
0020
0000
0000
0000
,
0030
0000
0000
0000
,
0100
0000
0000
0000
0001
0000
0010
0100
2000
0000
0000
0000
3000
0000
0001
0100
,
0010
0000
1000
0100
0020
0000
0000
0000
0000
0000
0000
0000
0030
0000
0001
1000
,
0200
0000
0000
0000
0000
0000
0310
0000
0001
0000
0000
0000
1000
0000
0000
0001
,
0200
0000
0000
0000
,
0310
0000
1000
0000
0100
0000
0001
0000
0100
0000
1000
0000
0010
0000
0100
0001
,
0100
0000
0001
0000
0010
0000
0100
0000
0000
0000
1000
0000
0000
0000
0001
0100
,
0001
1000
0100
0001
0000
0100
1000
0001
,
0100
1000
0001
0000
0010
1000
0001
0000
,
0010
0000
0100
0000
1000
0000
0100
0000
0010
0001
0000
0001
0010
0000
0001
0000
,
0100
0000
1000
0000
0100
0000
0010
0000
1000
0000
0000
0100
0010
0000
1000
0000
,
0010
0001
1000
0100
1000
0001
0100
0000
,
0010
0000
1000
0000
0001
0000
1000
0000
0100
0000
0000
0010
0001
0000
0100
0000
,
0010
0000
0000
0010
1000
0000
0000
1000
0001
0000
0000
0001
0010
0000
0100
0000
,
0010
0000
0001
0000
1000
0000
0010
0000
0100
0000
0000
0010
1000
0000
0001
0000
,
0010
1000
0010
0001
0010
0100
0001
0100
,
1000
0000
0010
0100
0010
0000
0100
0000
0001
0000
0010
0100
0010
0000
1000
0000
,
0010
0000
0001
1000
0001
0000
0100
0010
0100
0000
0001
1000
0001
0000
0010
0000
,
0100
0001
0100
1000
0100
0001
0100
1000
,
0100
0000
0010
0000
0001
0000
0010
0000
0100
0000
0010
0001
0010
0000
0000
0000
,
0010
0001
1000
0001
0010
1000
0010
0001
,
1000
0000
0010
0000
0001
0000
0010
0000
1000
0000
0010
1000
0010
0000
0000
0000
,
0010
1000
0100
1000
0010
1000
0100
1000
,
0001
0000
0100
0000
1000
0000
0100
0000
0001
0000
0100
1000
0100
0000
0000
0000
,
0100
0001
0010
0001
0100
0001
0010
0001
,
0100
0000
1000
0000
0001
0000
0010
0000
1000
0000
0100
0010
0100
0000
0001
0000
,
0100
0000
0000
0100
0010
0000
0000
0010
0001
0000
1000
0000
0001
0000
0000
0000
,
1001
0000
0000
0000
;

//---------------dance-single - ----------------
#NOTES:
     dance-single:
     :
     Medium:
     9:
     0.461,0.439,0.064,0.037,0.005:
0000
0000
0000
0000
,
0000
0000
0000
0000
,
0000
0000
0000
0000
,
0000
0000
0000
0000
,
0001
1000
0100
0000
1000
0001
0100
0000
,
0010
1000
0100
0000
0010
0001
0100
0000
,
0100
0001
0010
0000
0100
1000
0010
0000
,
0001
0010
1000
0000
0001
0010
1000
0000
,
0010
0000
0001
0100
0020
0000
1030
0100
,
1000
0001
0200
0000
0300
0000
0001
1000
,
0010
0000
0100
0001
1000
0000
0100
0000
,
0001
0100
1000
0010
,
0200
0010
0010
0010
,
0310
0000
0000
0000
0000
0000
0000
0000
0100
0000
0000
0100
0000
0000
0100
0000
,
0001
1000
0100
0001
0100
0000
1000
0001
,
0100
0000
1000
0000
0100
0001
1000
0000
,
0010
0001
0100
1000
0100
0000
0001
0010
,
0100
0000
1000
0100
0001
0000
0100
0000
,
1000
0010
0100
0001
0010
0000
1000
0010
,
0001
0000
0100
0010
1000
0100
0010
0000
,
0001
0100
1000
0100
0001
0000
0010
0100
,
1000
0000
0001
0100
1000
0100
0010
0000
,
1000
1100
0001
0101
,
1000
0000
1010
0000
0001
0010
0011
0000
,
0010
0100
1000
0100
0010
0100
1000
0000
,
0001
0100
0010
0100
0001
0100
0010
0000
,
1000
0001
0100
0001
1000
0001
0100
0000
,
0001
1000
0010
1000
0001
1000
0010
0000
,
0100
0010
1000
0010
0100
0010
1000
0000
,
0001
0010
0100
0010
0001
0010
0100
0000
,
1000
0100
0001
0100
1000
0100
0001
0000
,
0100
1000
0001
0100
1000
0100
0001
0000
,
0200
0000
0000
0000
,
0300
0000
0000
0000
,
0010
0000
1000
0100
0010
0000
0001
0100
,
0010
0000
1000
0100
0010
0000
0001
0100
,
0010
0000
1000
0001
0100
0000
0001
1000
,
0100
0000
0010
0001
0100
0000
0010
1000
,
0100
0010
0100
1000
0001
0100
0010
1000
,
0100
0000
0010
0100
1000
0000
0001
0100
,
1000
0000
0100
0010
0001
0000
0010
1000
,
0100
0000
0010
0001
1000
0000
0100
0001
,
0100
1000
0010
0100
0001
1000
0100
0000
,
0010
0000
0100
1000
0001
0000
0100
0001
,
1000
0000
0010
0100
0001
0100
0010
0000
,
1000
0000
0100
0010
0001
0000
0010
0100
,
1000
0000
0001
0100
1000
0100
0001
0010
,
0011
0000
0010
0100
1000
0000
0001
0100
,
1000
0000
0100
0001
0010
0100
1000
0001
,
1000
0000
0001
0100
1000
0000
0100
0001
,
1000
0100
0001
0100
1000
0100
0010
0000
,
0001
1000
0001
1000
0001
1000
0001
1000
,
0010
0100
0010
0100
0010
0100
0010
0000
,
1000
0001
1000
0001
1000
0001
1000
0001
,
0010
0100
0010
0100
0010
0100
0010
0000
,
0001
0100
0001
0100
0001
0100
0001
0100
,
0010
1000
0010
1000
0010
1000
0010
0000
,
1000
0100
1000
0100
1000
0100
1000
0100
,
0010
0001
0010
0001
0010
0001
0010
0000
,
0001
0000
0101
0000
1000
0100
0001
0000
,
1001
0000
0000
0000
;

//---------------dance-single - ----------------
#NOTES:
     dance-single:
     :
     Easy:
     6:
     0.256,0.384,0.018,0.018,0.000:
0000
0000
0000
0000
,
0000
0000
0000
0000
,
0000
0000
0000
0000
,
0000
0000
0000
0000
,
0001
0001
0001
1000
,
0100
0100
0100
0010
,
0001
0100
1000
0100
,
0001
1000
0100
0010
,
0001
0100
0100
0000
,
0010
0000
0000
1000
,
1000
0000
0100
0010
,
0001
0000
0100
0000
,
0010
1000
0001
1000
,
0001
0000
0100
0100
,
0100
0010
1000
0010
,
0100
0001
0010
0100
,
1000
0001
0100
0010
,
1000
0100
0001
0010
,
0100
0001
0010
0100
,
1000
0001
0100
0010
,
1000
0100
0001
0010
,
0100
0001
0100
1000
,
0000
1000
0000
0001
,
0000
1000
0000
0001
,
0100
0001
0100
0010
,
0100
0001
1000
0000
,
0010
0100
1000
0100
,
0001
0100
1000
0000
,
0010
0100
0001
0100
,
1000
0100
0001
0000
,
1000
0100
0010
0001
,
1000
0010
0100
0000
,
0002
0000
0000
0000
,
0003
0000
0000
0000
,
1000
0100
0010
0000
,
0001
0010
0100
0000
,
1000
0001
0100
0000
,
0020
0000
0030
0000
,
0100
0100
0100
0100
,
0100
0001
1000
0000
,
0100
1000
0001
0000
,
0100
0010
1000
0000
,
1000
0100
0001
0010
,
1000
0100
1000
0000
,
0001
0100
0001
0000
,
1000
0010
0100
0001
,
0010
0100
1000
0000
,
0001
0100
0001
0000
,
1000
0100
1000
0000
,
0001
0010
0100
1000
,
0001
0010
0100
1000
,
0001
0100
1000
0100
,
0001
0010
1000
0010
,
0001
0100
1000
0100
,
0001
0010
1000
0010
,
0001
1000
0100
0001
,
0100
1000
0010
0001
,
0010
1000
0100
0010
,
0001
0000
0100
0000
0010
0100
0010
0100
,
0010
0000
0110
0000
0100
0010
0100
0000
,
1001
0000
0000
0000
;

//---------------dance-single - ----------------
#NOTES:
     dance-single:
     :
     Beginner:
     3:
     0.120,0.165,0.000,0.000,0.000:
0000
0000
0000
0000
,
0000
0000
0000
0000
,
0000
0000
0000
0000
,
0000
0000
0000
0000
,
0000
0001
0000
0001
,
0000
1000
0000
1000
,
0000
0001
0000
0001
,
0001
0001
0001
0000
,
0100
0000
0000
0000
,
0000
0000
0000
0000
,
0010
0000
0000
0000
,
0000
0000
0000
0000
,
1000
0000
0000
0000
,
0000
0000
0000
0000
,
0000
0001
0000
0001
,
0000
1000
0000
1000
,
0000
0010
0000
0010
,
0000
1000
0000
1000
,
0000
0100
0000
0100
,
0000
0010
0000
0010
,
0000
0001
0000
0001
,
0000
1000
0000
1000
,
0000
0010
0000
0010
,
0000
0010
0000
0010
,
0010
0000
0010
0000
,
0100
0000
0100
0000
,
0001
0000
0001
0000
,
1000
0000
1000
0000
,
0100
0000
0100
0000
,
0010
0000
0010
0000
,
0001
0000
0001
0000
,
1000
0000
1000
0000
,
0001
0000
0000
0000
,
0000
0000
0000
0000
,
0100
0000
0000
0000
,
0000
0000
0000
0000
,
0010
0000
0000
0000
,
0000
0000
0000
0000
,
1000
0000
0000
0000
,
1000
0000
0000
0000
,
0100
0000
0000
0000
,
0010
0000
0010
0000
,
0010
0010
0010
0000
,
0010
0000
0000
0000
,
0001
0000
0000
0000
,
0100
0000
0100
0000
,
0100
0100
0100
0000
,
0010
0000
0000
0000
,
1000
0000
0000
0000
,
0100
0000
0100
0000
,
0100
0100
0100
0000
,
0000
0010
0000
0010
,
0000
0001
0000
0001
,
0000
0100
0000
0100
,
0000
1000
0000
1000
,
0000
0010
0000
0010
,
0000
1000
0000
1000
,
0000
0100
0000
0100
,
0000
0001
0000
0001
,
0001
0000
1000
0000
,
0001
0000
0000
0000
;

//---------------dance-double - ----------------
#NOTES:
     dance-double:
     :
     Hard:
     14:
     0.622,0.631,0.110,0.311,0.361:
00000000
00000000
00000000
00000000
,
00000000
00000000
00000000
00000000
,
00000000
00000000
00000000
00000000
,
00000000
00000000
00000000
00000000
,
00001000
01000000
00000000
00010000
10000000
00000000
01000000
10000000
00000000
01000000
00100000
00000000
00010000
00000000
01000000
00000000
,
00001000
00010000
00000000
00000100
00001000
00000000
00000010
00000100
00000000
00000001
00000010
00000000
00000100
00000000
00001000
00000000
,
00000010
00001000
00000000
00000100
00010000
00000000
00001000
01000000
00000000
00010000
00100000
00000000
01000000
00000000
10000000
00000000
,
01000000
00000000
01000000
00000000
00010000
00000000
00010000
00000000
00001000
00000000
00001000
00000000
00000010
00000001
00000010
00000001
,
00000010
00000000
00000000
00000000
00000001
00000000
00001000
00000100
00010000
00000000
00000000
00000000
00000000
00000000
00001000
01000000
,
00100000
00000000
01000000
00001000
00100000
00000000
00000000
00000000
00000000
00000000
00000000
00000000
00000000
00000000
01000000
10000000
,
00010000
00000000
00000000
00000000
00000000
00000000
00100000
00000000
00001000
00000000
00000000
00000000
00010000
00000000
00000000
00000010
,
00000100
00000000
00000000
00000000
,
00000001
00000010
00000001
00000010
00000100
00000010
00000100
00010000
00000100
00010000
00001000
00010000
,
00000000
00000000
00000000
00000000
00000000
00000000
00000000
00000000
00001000
00000000
00000000
01000000
00000000
00000000
00100000
00000000
,
10000000
00000000
01000000
00100000
01000000
00000000
10000000
00000000
00010000
01000000
00010000
00000000
00110000
00000000
00100000
00000000
,
00001000
00000000
00010000
00000100
00010000
00000000
00001000
00000000
00000010
00000100
00000010
00000000
00000110
00000000
00000000
00000000
,
00000100
00000000
00001000
00000001
00001000
00000000
00000010
00000000
00000100
00000001
00000100
00000000
00000110
00000000
00000010
00000000
,
00010000
00000000
00000100
00001000
00000100
00000000
00010000
00000000
00001000
01000000
00001000
00000000
00101000
00000000
00000000
00000000
,
00100000
00000000
01000000
10000000
01000000
00000000
00100000
00000000
00001000
00010000
00001000
00000000
00101000
00000000
00100000
00000000
,
00001000
00000000
00010000
00000010
00010000
00000000
00000100
00000000
00000010
00000001
00000010
00000000
00000011
00000000
00000000
00000000
,
00000001
00000000
00001000
00000100
00001000
00000000
00000100
00000000
00010000
00001000
00010000
00000000
01010000
00000000
01000000
00000000
,
10000000
00000000
00100000
01000000
00100000
00000000
10000000
00000000
00010000
00100000
00010000
00000000
00110000
00000000
00000000
00000000
,
00100000
00000000
00000000
00001000
00010000
00000000
00000000
00000000
00000100
00000000
00000000
00000000
00001100
00000000
00000000
00000000
,
00000001
00000000
00000000
00000100
00000010
00000000
00000000
00000000
00001000
00000000
00000000
00000000
00001010
00000000
00000000
00000000
,
00000010
00001000
00000100
00000000
00010000
00000000
00001000
00000000
01000000
00010000
00100000
00000000
00020000
00000000
00000000
00000000
,
01030000
00010000
00100000
00000000
00001000
00000000
00010000
00000000
00000100
00001000
00000010
00000000
00002000
00000000
00000000
00000000
,
00003010
00001000
00000100
00000000
00010000
00000000
00001000
00000000
00100000
00010000
01000000
00000000
00020000
00000000
00000000
00000000
,
00130000
00010000
01000000
00000000
00001000
00000000
00010000
00000000
00000010
00001000
00000100
00000000
00002000
00000000
00000000
00000000
,
00003010
00010000
00000100
00000000
00010000
00001000
00010000
00000000
00000100
00010000
00000010
00000000
00010000
00000000
00001000
00000000
,
01000000
00001000
00100000
00000000
00001000
00010000
00001000
00000000
00100000
00001000
01000000
00000000
00001000
00000000
00010000
00000000
,
00001000
01000000
00100000
00000000
01000000
00001000
00100000
00000000
00001000
00010000
00001000
00000000
00010000
00000000
00000100
00000000
,
00000010
00000001
00000000
00000010
00000000
00001000
00000000
00010000
00000000
01000000
00000000
10000000
00000000
00010000
01000000
00000000
,
02200000
00000000
00000000
00000000
,
03300000
00000000
00000000
00000000
,
01000000
00000000
00000000
00000000
00100000
00000000
10000000
01000000
00010000
00000000
00000000
00000000
00000000
00000000
00001000
00000010
,
00000001
00000000
00000100
00000001
00001000
00000000
00000000
00000000
00000000
00000000
00000000
00000000
00000000
00000000
00000010
00010000
,
00001000
00000000
00000000
00000000
00000000
00000000
01000000
00000000
00010000
00000000
00000000
00000000
00100000
00000000
00000000
01000000
,
20000000
00000000
01000000
31000000
,
10000000
01000000
00100000
00010000
00001000
00000100
00000010
00000001
,
00001000
00000010
00000100
00000002
00000000
00000010
00000013
00000100
,
00010000
00001000
01000000
00200000
00000000
00310000
00001000
00000100
,
00000010
00001000
00000100
00000000
00010000
00001000
00000100
00000000
,
00001000
00000000
00010000
00000000
01000000
00000000
00100000
00000000
00010000
01000000
00000000
01000000
00001000
00000000
00010000
00000000
,
00000100
00000001
00000100
00001000
00000010
00000100
00000001
00000100
,
00010000
01000000
00100000
01000000
10000000
01000000
01000000
00010000
,
00100000
00001000
00010000
00001000
00000100
00001000
00010000
00001000
,
00000010
00000001
00000100
00001000
00010000
00100000
10000000
01000000
,
00010000
01000000
10000000
00100000
01000000
00010000
00100000
01000000
,
10000000
01000000
00100000
00010000
01000000
00100000
00010000
00001000
,
00100000
00010000
00001000
00000100
00010000
00001000
00000100
00000010
,
00001000
00000100
00000010
00000001
00000010
00001000
00010000
01000000
,
00100000
02000000
13000000
02000000
03010000
02000000
13000000
02000000
,
03001000
00000200
00000301
00000200
00001300
00000200
00000310
00000000
,
00000001
00000200
00001300
00000200
00000310
00000200
00000301
00000200
,
00010300
02000000
13000000
02000000
03100000
02000000
03010000
00000000
,
10000000
00200000
00310000
00200000
01300000
00200000
10300000
00200000
,
00301000
00000020
00000031
00000020
00000130
00000020
00001030
00000000
,
00000001
00000020
00001030
00000020
00000130
00000020
00000031
00000020
,
00010030
00100000
10000000
00010000
01000000
10000000
00010000
01000000
,
00001000
00000000
00000000
00001000
00100000
00000000
00000000
00100000
00010000
00000000
00001000
00000000
00000100
00000000
00000000
00000000
,
00000110
00000000
00000000
00000000
;

//---------------dance-double - ----------------
#NOTES:
     dance-double:
     :
     Medium:
     11:
     0.397,0.439,0.018,0.018,0.005: // measure 1
00000000
00000000
00000000
00000000
,  // measure 2
00000000
00000000
00000000
00000000
,  // measure 3
00000000
00000000
00000000
00000000
,  // measure 4
00000000
00000000
00000000
00000000
,  // measure 5
00001000
00010000
01000000
10000000
01000000
00010000
00001000
00000000
,  // measure 6
00010000
00001000
00000100
00000001
00000100
00001000
00010000
00000000
,  // measure 7
00001000
00010000
00100000
10000000
00100000
00010000
00001000
00000000
,  // measure 8
00010000
00001000
00000010
00000001
00000010
00001000
00010000
00000000
,  // measure 9
00001000
00000000
01000000
00010000
00100000
00000000
01000000
00000000
,  // measure 10
10000000
00000000
00010000
00000000
01000000
00000000
00001000
00010000
,  // measure 11
00000100
00001000
00000010
00000100
,  // measure 12
00000001
00000010
00000100
00001000
,  // measure 13
00000002
00000000
00000000
00000000
,  // measure 14
00000003
00000000
00000000
00000000
00000000
00000000
00000000
00000000
00000100
00000000
00000000
00000100
00000000
00000000
00000100
00000000
,  // measure 15
00000001
00000010
00001000
00000000
00010000
00000000
01000000
10000000
,  // measure 16
00100000
10000000
01000000
00000000
00010000
00000000
00001000
00000000
,  // measure 17
00000100
00000001
00000010
00000000
00000001
00000000
00000100
00001000
,  // measure 18
00010000
00100000
10000000
00000000
00010000
00000000
10000000
00000000
,  // measure 19
01000000
00010000
00001000
00000000
00000010
00000000
00000001
00000100
,  // measure 20
00001000
00010000
01000000
00000000
10000000
00000000
00010000
00000000
,  // measure 21
10000000
00100000
00010000
00000000
00001000
00000000
00000100
00000001
,  // measure 22
00000010
00000001
00000100
00000000
00000010
00000000
00001000
00000000
,  // measure 23
00000100
00000100
00010000
00010000
,  // measure 24
00001000
00001000
01000000
01000000
,  // measure 25
00010000
00100000
01000000
00000000
10000000
00000000
01000000
00000000
,  // measure 26
00100000
00010000
01000000
00000000
00001000
00000000
00010000
00000000
,  // measure 27
00001000
00010000
01000000
00000000
10000000
00000000
00100000
00000000
,  // measure 28
00010000
00100000
10000000
00000000
01000000
00000000
00010000
00001000
,  // measure 29
00010000
00001000
00000100
00000000
00000001
00000000
00000010
00000000
,  // measure 30
00000001
00000100
00001000
00000000
00010000
00000000
00001000
00000000
,  // measure 31
00010000
00001000
00000010
00000000
00000001
00000000
00000100
00000000
,  // measure 32
00000001
00000010
00001000
00000000
00010000
00000000
00001000
01000000
,  // measure 33
00020000
00000000
00000000
00000000
,  // measure 34
00030000
00000000
00000000
00000000
,  // measure 35
10000000
00000000
00010000
00100000
00001000
00000000
00100000
00000000
,  // measure 36
00001000
00000000
00010000
00000000
00000100
00000000
00001000
00000010
,  // measure 37
00000100
00000001
00000010
00000100
,  // measure 38
00001000
00000100
00010000
00001000
,  // measure 39
00100000
00010000
01000000
10000000
01000000
00010000
00100000
00001000
,  // measure 40
00010000
00000010
00001000
00000000
00000100
00000000
00001000
00000000
,  // measure 41
00000010
00010000
00001000
00000000
00100000
00000000
00010000
00000000
,  // measure 42
01000000
00100000
10000000
00000000
01000000
00100000
00010000
00000000
,  // measure 43
01000000
00001000
00010000
00000000
00000100
00000000
00001100
00000000
,  // measure 44
00001000
00000000
00000001
00000000
00000100
00000000
00000010
00001000
,  // measure 45
00000100
00000000
00010000
00000000
00001000
01000000
00010000
00000000
,  // measure 46
01000000
00100000
10000000
01000000
,  // measure 47
00010000
00001000
00000100
00000001
00000100
00001000
00010000
01000000
,  // measure 48
10000000
01000000
00100000
00010000
,  // measure 49
01000000
00000000
00100000
00000000
10000000
00100000
00010000
00000000
,  // measure 50
00001000
00000000
00000100
00000000
00000001
00000010
00001000
00000000
,  // measure 51
00010000
00000000
01000000
00000000
10000000
00100000
00010000
00100000
,  // measure 52
10000000
01000000
00010000
00001000
00010000
01000000
10000000
00100000
,  // measure 53
10000000
01000000
00010000
00001000
00010000
00000000
00001000
00000000
,  // measure 54
00010000
00001000
00000100
00000001
00000010
00000001
00000100
00001000
,  // measure 55
00010000
00001000
00000100
00000001
00000010
00000001
00000100
00000000
,  // measure 56
00000010
00001000
00000100
00010000
00001000
00010000
00000100
00001000
,  // measure 57
00000010
00001000
00000100
00010000
00001000
00010000
00000100
00000000
,  // measure 58
00010000
01000000
10000000
00100000
10000000
01000000
00010000
00001000
,  // measure 59
00010000
01000000
10000000
00100000
10000000
01000000
00010000
00001000
,  // measure 60
00000100
00000000
00000001
00000000
00001000
00000100
00000010
00000000
,  // measure 61
00001001
00000000
00000000
00000000
;

//---------------dance-double - ----------------
#NOTES:
     dance-double:
     :
     Easy:
     7:
     0.266,0.274,0.009,0.018,0.000: // measure 1
00000000
00000000
00000000
00000000
,  // measure 2
00000000
00000000
00000000
00000000
,  // measure 3
00000000
00000000
00000000
00000000
,  // measure 4
00000000
00000000
00000000
00000000
,  // measure 5
00010000
01000000
10000000
00100000
,  // measure 6
00010000
00100000
10000000
01000000
,  // measure 7
00010000
00001000
00000100
00000001
,  // measure 8
00000010
00000001
00000100
00001000
,  // measure 9
00010000
00001000
00001000
01000000
,  // measure 10
00100000
00100000
10000000
00000000
,  // measure 11
01000000
00010000
00010000
00001000
,  // measure 12
00000100
00000100
00000001
00000000
,  // measure 13
00000020
00000000
00000000
00000000
,  // measure 14
00000030
00000000
00000000
00000000
00000100
00000000
00000000
00000100
,  // measure 15
00000100
00001000
00000010
00001000
,  // measure 16
00000100
00010000
00001000
01000000
,  // measure 17
00010000
00100000
01000000
00100000
,  // measure 18
00010000
01000000
00001000
00010000
,  // measure 19
00000100
00001000
00000010
00001000
,  // measure 20
00000100
00010000
00001000
01000000
,  // measure 21
00010000
00100000
00010000
01000000
,  // measure 22
00001000
00010000
00000100
00001000
,  // measure 23
00000010
00000010
00001000
00001000
,  // measure 24
00000100
00000100
00010000
00010000
,  // measure 25
00001000
01000000
00001000
01000000
,  // measure 26
00010000
01000000
00100000
00000000
,  // measure 27
10000000
01000000
10000000
01000000
,  // measure 28
00010000
01000000
00100000
00000000
,  // measure 29
00001000
00010000
00001000
00010000
,  // measure 30
00000100
00001000
00000100
00000000
,  // measure 31
00001000
00000010
00001000
00000010
,  // measure 32
00000100
00000001
00000010
00000000
,  // measure 33
00000200
00000000
00000000
00000000
,  // measure 34
00000300
00000000
00000000
00000000
,  // measure 35
00000100
00001000
00000100
00010000
,  // measure 36
00001000
01000000
00000000
00010000
,  // measure 37
10000000
00000000
01000000
00000000
,  // measure 38
00100000
00010000
01000000
00000000
,  // measure 39
00100000
10000000
01000000
00010000
,  // measure 40
00001000
00000100
00000001
00000000
,  // measure 41
00000010
00001000
00010000
00000000
,  // measure 42
01000000
10000000
00100000
00010000
,  // measure 43
00001000
00000100
00000001
00000010
,  // measure 44
00000100
00001000
00000100
00010000
,  // measure 45
00001000
01000000
00010000
01000000
,  // measure 46
00001000
00010000
00000100
00001000
,  // measure 47
00000010
00001000
00000100
00010000
,  // measure 48
00001000
01000000
00100000
10000000
,  // measure 49
01000000
00010000
00001000
00000100
,  // measure 50
00000001
00000010
00001000
00010000
,  // measure 51
01000000
10000000
00100000
00010000
,  // measure 52
00001000
00010000
01000000
00010000
,  // measure 53
00001000
00010000
00100000
00010000
,  // measure 54
00001000
00000100
00001000
00010000
,  // measure 55
00001000
00000010
00001000
00010000
,  // measure 56
00001000
00000100
00000001
00000100
,  // measure 57
00001000
00010000
01000000
10000000
,  // measure 58
01000000
00010000
00001000
00000100
,  // measure 59
00000001
00000100
00001000
00010000
,  // measure 60
01000000
10000000
00010000
10000000
,  // measure 61
10010000
00000000
00000000
00000000
;
