#TITLE:天空の夜明け;
#SUBTITLE:;
#ARTIST:Cuvelia;
#TITLETRANSLIT:Tenkuu no Yoake;
#SUBTITLETRANSLIT:;
#ARTISTTRANSLIT:;
#GENRE:;
#CREDIT:;
#MENUCOLOR:;
#METERTYPE:DDR;
#BANNER:Tenkuu no Yoake.png;
#BACKGROUND:Tenkuu no Yoake-bg.png;
#LYRICSPATH:;
#CDTITLE:cdtitle.png;
#MUSIC:Tenkuu no Yoake.mp3;
#OFFSET:-0.021;
#SAMPLESTART:38.405;
#SAMPLELENGTH:15.000;
#SELECTABLE:YES;
#LISTSORT:;
#BPMS:0.000=150.000;
#STOPS:;
#BGCHANGES:;
#ATTACKS:;

//---------------dance-single - ----------------
#NOTES:
     dance-single:
     :
     Hard:
     15:
     0.708,0.792,0.190,0.055,0.593:
0000
0000
0000
0000
,
0000
0000
0000
0000
,
0000
0000
0000
0000
,
0000
0000
0000
0000
,
0000
0000
0000
0000
,
0000
0000
0000
0000
,
0000
0000
0000
0000
,
0000
0000
0000
0000
,
0001
0000
0010
0000
0000
0100
0000
0000
1000
0000
0000
0010
0000
0000
0100
0000
,
0001
0000
1000
0000
0000
0100
0000
0000
0010
0000
0000
0001
0000
0000
0100
0000
,
0010
0000
1000
0000
0000
0010
0000
0000
0001
0000
0000
0010
0000
0000
0100
0000
,
0001
0000
0010
0000
0000
1000
0000
0000
0010
0000
0000
0001
0000
0000
1000
0000
,
0100
0000
0001
0000
0000
0100
0000
0000
1000
0000
0000
0100
0000
0000
0010
0000
,
0001
0000
0100
0000
0000
1000
0000
0000
0100
0000
0000
0001
0000
0000
0100
0000
,
0010
0000
1000
0000
0000
0001
0000
0000
0100
0000
0000
1000
0000
0000
0001
0000
,
0010
0000
1000
0000
0000
0001
0000
0000
0010
0000
0200
0000
1300
0000
0001
0000
,
1001
0000
0000
0001
0000
0000
0001
0000
0100
0000
0010
0000
0100
0000
0010
0000
,
1000
0000
0000
1000
0000
0000
1000
0000
0100
0010
0100
0010
0000
0010
0001
0000
,
1000
0000
0000
1000
0000
0000
1000
0000
0010
0000
0100
0000
0010
0000
0100
0000
,
0001
0000
0000
0001
0000
0000
0001
0000
0010
0100
0010
0100
0000
0100
1000
0000
,
0001
0000
0000
0100
0000
0000
1000
0000
0100
0000
0001
0000
0100
0000
0010
0000
,
1000
0000
0000
0100
0000
0000
0001
0000
0100
0010
0100
0010
0000
0010
0001
0000
,
1000
0000
0000
0100
0000
0000
0010
0000
1000
0000
0010
0000
0001
0000
1000
0000
,
2002
0000
0000
0000
0000
0000
0000
0000
3003
0000
0000
0001
1000
0000
0000
0000
,
0010
0100
0010
0000
1000
0000
0001
0000
0010
0100
0010
0000
0001
0000
1000
0000
,
0001
0100
0001
0100
1000
0100
1000
0100
,
0001
0010
0001
0000
1000
0000
0001
0000
1000
0010
1000
0000
0100
0000
0010
0000
,
0001
0010
0001
0010
1000
0010
1000
0010
,
0001
0100
0001
0000
1000
0000
0001
0000
1000
0100
1000
0000
0001
0000
0100
0000
,
0010
0000
1000
0100
1000
0000
0001
0100
0001
0000
1000
0010
1000
0000
0001
0000
,
0010
0100
0010
0000
0001
0000
1000
0000
0010
0100
0010
0000
1000
0000
0001
0000
,
0010
0000
0100
1000
0100
0000
1000
0001
1000
0000
0001
0100
0001
0000
0100
0000
,
0010
0000
1000
0001
0010
0000
0100
0000
0010
0000
0001
1000
0010
0000
0100
0000
,
0001
0000
1000
0100
1000
0100
0010
0001
0010
0001
1000
0010
0100
0001
0100
0010
,
1000
0000
0010
1000
0001
0000
1000
0000
0001
0000
0010
0001
1000
0000
0001
0000
,
0100
0000
0010
1000
0010
0000
1000
0100
1000
0000
0100
0010
0100
0000
0010
0000
,
0001
0000
0100
0001
0100
0000
0010
0000
1000
0000
0001
0010
0001
0000
1000
0000
,
0100
0000
0010
0100
1000
0000
0100
0000
0010
0000
0001
0100
0010
0000
0100
0000
,
0001
0000
0010
0100
1000
0000
1000
0100
0010
0000
0001
0100
0010
0000
0010
0100
,
0001
0000
1000
0100
0001
0000
0001
0100
1000
0000
0001
0000
0100
0010
0100
0010
,
0000
0000
0000
0000
0000
0000
0000
0000
0000
0000
0000
0001
0100
0000
0010
0000
,
0100
0000
0001
0010
0001
0000
1000
0000
0100
0000
0010
0100
0010
0000
0100
0000
,
1000
0000
0001
0100
0001
0000
1000
0000
0010
0000
0100
0001
0100
0000
0010
0000
,
1000
0000
0100
0010
0100
0000
1000
0000
0001
0000
0100
0010
0100
0000
0001
0000
,
0010
0000
0100
1000
0100
0000
0010
0000
0001
0000
1000
0010
1000
0000
0001
0000
,
1000
0000
0100
0001
0100
0000
1000
0000
0010
0000
0100
1000
0100
0000
0001
0000
,
0100
0000
0010
0001
0010
0000
0100
0000
0001
0000
0010
1000
0010
0000
0001
0000
,
0100
0000
0010
1000
0001
0000
0100
0000
0001
0000
0010
0100
1000
0000
0001
0000
,
0200
0000
0000
0000
0300
0000
0000
0000
0010
0000
0100
0000
0001
1000
0001
1000
,
0001
0000
0010
0100
0010
0000
0001
0000
1000
0000
0100
0010
0100
0000
1000
0000
,
0001
0000
0100
0010
0100
0000
0001
0000
1000
0000
0010
0100
0010
0000
1000
0000
,
0001
0010
0000
0010
0100
0000
0100
1000
0000
1000
0001
0000
0001
0100
0000
0100
,
1000
0000
1000
0100
0000
0100
0001
0000
0001
1000
0000
1000
0100
0000
0100
0010
,
0100
0000
1000
0000
0001
0000
0100
0000
0010
0000
0100
0000
0001
1000
0001
0100
,
0001
0000
1000
0000
0010
0000
0100
0000
0001
0000
0010
0000
0100
1000
0100
0010
,
0100
0000
0010
0000
0001
0000
1000
0100
0001
0000
0100
0000
1000
0000
0001
0100
,
1000
0000
0000
0100
0001
0000
0000
1000
0100
0000
0010
0000
0001
0010
0100
1000
,
0001
0000
0000
0001
0100
0000
0010
0000
1000
0000
0000
1000
0100
0000
0010
0000
,
0001
0000
0000
0001
0010
0000
0100
0000
1000
0000
0000
1000
0010
0000
0100
0000
,
0001
0000
0000
0001
0100
0000
1000
0000
0100
0000
0000
0100
0010
0000
1000
0000
,
0100
0000
0000
0100
0010
0000
0001
0000
0100
0000
0000
0100
0001
0000
1000
0000
,
1001
1100
0101
0011
,
0110
0000
0000
0000
0100
1000
0100
0000
1000
0001
1000
0000
0001
0100
0001
0000
,
0010
0000
0000
0000
0001
0000
0000
1000
0100
0000
0000
0000
0010
0000
0001
0000
,
0100
0000
0000
0000
0010
0000
0000
0100
0001
0000
2000
0000
3100
0000
0000
0000
,
0110
0000
0010
0001
1000
0000
0010
0000
0110
0000
0100
0001
1000
0000
0100
0000
,
0110
0000
0010
0100
1000
0000
0001
0000
0101
0000
0100
0010
1000
0000
0001
0000
,
0011
0000
0010
0100
1000
0000
0010
0000
0110
0000
0100
0001
0010
0000
0001
0000
,
0101
0000
0100
0010
1000
0000
0100
0000
0110
0000
0010
0001
0100
0000
0010
0000
,
1010
0101
0011
1100
,
1001
0000
0000
0000
0001
0010
0001
0010
0100
1000
0100
1000
0001
0100
0001
0100
,
0010
0000
0000
0000
0100
0000
0000
0001
0100
0000
0000
0000
0010
0000
1000
0000
,
1001
0000
0110
0000
1001
0002
0103
0010
,
0110
0000
0000
0000
0100
0001
0100
0000
0010
0000
1000
0000
0001
0010
0001
0000
,
1000
0000
0100
0000
0010
0100
0010
0000
0100
0000
1000
0000
0001
1000
0001
0000
,
1000
0000
0010
1000
0100
0000
0010
0001
0100
0000
1000
0100
0001
0000
1000
0010
,
0002
0000
0000
0000
,
0003
0000
0000
0000
;

//---------------dance-single - ----------------
#NOTES:
     dance-single:
     :
     Medium:
     12:
     0.541,0.670,0.214,0.150,0.103:
0000
0000
0000
0000
,
0000
0000
0000
0000
,
0000
0000
0000
0000
,
0000
0000
0000
0000
,
0000
0000
0000
0000
,
0000
0000
0000
0000
,
0000
0000
0000
0000
,
0000
0000
0000
0000
,
2000
0000
3002
0000
,
0203
0000
0320
0000
,
2030
0000
3200
0000
,
0302
0000
0203
0000
,
2300
0000
3020
0000
,
0230
0000
0302
0000
,
0023
0000
2030
0000
,
3020
0000
0032
0000
,
1003
0000
0000
1000
0000
0000
1000
0000
0001
0000
0100
0000
0001
0000
0100
0000
,
0001
0000
0000
0001
0000
0000
0001
0000
1000
0000
0100
0000
1000
0000
0100
0000
,
1000
0000
0000
1000
0000
0000
1000
0000
0010
0000
1000
0000
0010
0000
1000
0000
,
0001
0000
0000
0001
0000
0000
0001
0000
0010
0000
0001
0000
0010
0000
0001
0000
,
1000
0100
0010
0000
0010
0100
1000
0000
,
0001
0100
0010
0000
0010
0100
0001
0000
,
1000
0100
0001
1000
0010
0001
0100
0010
,
2002
0000
3003
0010
,
0100
0001
0100
0001
1000
0100
0010
0001
,
1000
0010
1000
0010
0100
0001
0010
0100
,
1000
0001
1000
0001
0010
0100
1000
0100
,
0010
0001
0010
0001
0100
0010
1000
0010
,
0100
1000
0100
1000
0100
0001
0010
0100
,
1000
0010
1000
0010
0001
0010
0100
1000
,
0100
0001
0100
0001
0010
0100
1000
0100
,
0001
1000
0001
1000
0010
0001
0100
0010
,
1000
0100
0010
0010
0001
0100
0010
0010
,
1000
0100
0001
0100
1000
0100
0001
0100
,
1000
0010
0100
0100
0001
0010
0100
0100
,
1000
0100
0010
0001
1000
0100
0010
0001
,
0100
0001
0100
0001
1000
0100
1000
0100
,
1000
0010
1000
0010
0100
0001
0100
0001
,
1000
0100
0010
0001
0100
0010
1000
0100
,
0001
0000
0100
0000
0010
0000
0001
0000
0100
0000
1000
0000
0100
0010
0100
0010
,
0000
0000
0000
0000
0000
0000
0000
0000
0000
0000
0000
0100
0010
0000
0000
0000
,
1000
0000
0010
0100
0001
0000
0010
0100
,
1000
0000
0100
0001
0100
0000
0010
1000
,
0010
0000
0001
0100
0010
0000
0001
0010
,
1000
0000
0100
1000
0001
0000
0100
1000
,
0100
0000
0010
0001
0010
0000
1000
0100
,
0001
0000
1000
0010
0001
0000
0100
0001
,
0010
0100
1000
0100
0010
0001
0100
0010
,
1000
0000
1000
0000
0001
0000
0001
0000
0100
0000
0010
0000
0100
0010
0100
0000
,
0001
0010
0001
1000
0010
0100
0001
0010
,
0100
1000
0100
0010
0001
0100
0010
1000
,
0001
0000
0000
1000
0000
0000
0010
0000
0000
0100
0000
0000
0001
0000
0000
1000
,
0000
0000
0100
0000
0000
0001
0000
0000
0100
0000
0000
0010
0000
0000
0001
0000
,
0100
0100
0010
0010
1000
0100
0010
0001
,
0100
0100
0010
0010
1000
0010
0100
0001
,
0010
0100
0010
0100
1000
0001
1000
0001
,
0101
0000
0000
0000
1010
0000
0000
0000
1000
0000
0100
0000
0010
0001
0010
0000
,
0001
0000
0000
0001
0100
0000
0000
0000
0100
0000
0000
0100
0010
0000
0000
0000
,
0010
0000
0000
0010
1000
0000
0000
0000
1000
0000
0000
1000
0100
0000
0000
0000
,
0100
0000
0000
0100
0010
0000
0000
0000
0010
0000
0000
0010
0001
0000
0000
0000
,
0001
0000
0000
0001
0100
0000
0000
0000
0100
0000
0000
0100
0010
0000
0000
0000
,
0010
1100
0010
0101
,
1001
0000
1000
0100
0010
0001
0010
0100
,
1000
0000
0001
0000
0110
0000
0001
1000
,
0110
0000
1100
0000
0101
0001
1000
0000
,
0101
0001
1000
0100
1100
1000
0001
0010
,
0011
0001
1000
0010
1010
1000
0100
0010
,
0110
0100
1000
0001
1001
1000
0010
0100
,
0110
0010
1000
0001
1001
1000
0010
0100
,
1001
1100
0101
1001
,
0110
0000
0010
1000
0100
0001
0100
1000
,
0010
0000
0100
0000
1001
0000
0001
0100
,
1001
0000
0101
0000
1010
0100
0001
0010
,
0100
0000
1000
0100
0001
0100
1000
0010
,
0001
0010
1000
0100
0001
1000
0010
0001
,
0100
0000
0000
0100
0010
0000
0000
0010
1000
0000
0000
1000
0001
0000
0010
0100
,
2000
0000
0000
0000
,
3000
0000
0000
0000
;

//---------------dance-double - ----------------
#NOTES:
     dance-double:
     :
     Hard:
     15:
     0.667,0.853,0.016,0.008,0.490: // measure 1
00000000
00000000
00000000
00000000
,  // measure 2
00000000
00000000
00000000
00000000
,  // measure 3
00000000
00000000
00000000
00000000
,  // measure 4
00000000
00000000
00000000
00000000
,  // measure 5
00000000
00000000
00000000
00000000
,  // measure 6
00000000
00000000
00000000
00000000
,  // measure 7
00000000
00000000
00000000
00000000
,  // measure 8
00000000
00000000
00000000
00000000
,  // measure 9
00000001
00000000
00000010
00000000
00000000
00000100
00000000
00000000
00001000
00000000
00000000
00000100
00010000
00000000
00001000
00000000
,  // measure 10
01000000
00000000
00010000
00000000
00000000
00100000
00000000
00000000
01000000
00000000
00000000
10000000
01000000
00000000
00100000
00000000
,  // measure 11
00010000
00000000
01000000
00000000
00000000
00001000
00000000
00000000
00010000
00000000
00000000
00000100
00001000
00000000
00000010
00000000
,  // measure 12
00000100
00000000
00000001
00000000
00000000
00001000
00000000
00000000
00000100
00000000
00000000
00010000
00001000
00000000
01000000
00000000
,  // measure 13
00100000
00000000
10000000
00000000
00000000
01000000
00000000
00000000
00010000
00000000
00000000
00001000
00000010
00000000
00000001
00000000
,  // measure 14
00000100
00000000
00000010
00000000
00000000
00001000
00000000
00000000
00010000
00000000
00000000
01000000
00100000
00000000
10000000
00000000
,  // measure 15
01000000
00000000
00100000
00000000
00000000
00001000
00000000
00000000
00010000
00000000
00000000
00000100
00001000
00000000
00000010
00000000
,  // measure 16
00000100
00000000
00001000
00000000
00000000
00010000
00000000
00000000
00100000
00000000
10000000
00000000
00010000
00000000
00100000
00000000
,  // measure 17
00001000
00000000
00000000
00010000
00000000
00000000
00001000
00000000
01000000
00001000
00100000
00000000
01000000
00100000
00001000
00000000
,  // measure 18
00010000
00000000
00000000
00001000
00000000
00000000
00010000
00000000
00000100
00010000
00000010
00000000
00000100
00000010
00010000
00000000
,  // measure 19
00001000
00000000
00000000
01000000
00000000
00000000
00100000
00000000
10000000
01000000
00010000
00000000
01000000
10000000
00100000
00000000
,  // measure 20
00010000
00000000
00000000
00000100
00000000
00000000
00000010
00000000
00000001
00000100
00001000
00000000
00000100
00000001
00000010
00000000
,  // measure 21
00000001
00000010
00000001
00000100
00000010
00001000
00000010
00000100
,  // measure 22
00001000
00010000
00100000
00010000
00001000
00010000
01000000
10000000
,  // measure 23
00100000
01000000
00001000
00010000
00000010
00000100
00000001
00000010
,  // measure 24
00000110
00000000
00000000
00000000
00000000
00000000
00000000
00000000
00011000
00000000
00000000
00001000
00100000
00000000
00000000
00000000
,  // measure 25
00010000
01000000
00010000
00000000
10000000
00000000
01000000
00000000
00100000
00000000
00010000
00000000
00001000
00000000
00000100
00000000
,  // measure 26
00000010
00000000
00000001
00001000
00000100
00000000
00001000
00000100
00010000
00000000
00000100
00010000
00001000
00000000
01000000
00000000
,  // measure 27
00100000
10000000
01000000
00000000
00010000
00000000
00001000
00000000
00000010
00000001
00000100
00000000
00001000
00000000
00010000
00000000
,  // measure 28
00100000
00000000
10000000
00010000
01000000
00000000
00010000
01000000
00001000
00000000
01000000
00001000
00010000
00000000
00000100
00000000
,  // measure 29
00000010
00000001
00001000
00000000
00000100
00000000
00010000
00000000
00001000
01000000
00010000
00000000
00100000
00000000
01000000
00000000
,  // measure 30
10000000
00000000
01000000
00100000
00010000
00000000
00100000
00010000
00001000
00000000
00010000
00001000
00000100
00000000
00000010
00000000
,  // measure 31
00000001
00000100
00001000
00000000
00000100
00000000
00000010
00000000
00010000
00001000
00000010
00000000
00001000
00000000
00010000
00000000
,  // measure 32
01000000
00000000
10000000
00010000
01000000
00000000
00010000
01000000
00001000
00000000
01000000
00001000
00100000
00000000
01000000
00000000
,  // measure 33
10000000
01000000
00100000
01000000
10000000
00000000
00010000
00000000
01000000
00001000
00010000
00001000
01000000
00000000
00001000
00000000
,  // measure 34
00010000
00000000
00000100
00001000
00000100
00001000
00000010
00000100
00000010
00000100
00000001
00000010
00000001
00000010
00000100
00001000
,  // measure 35
00000100
00000000
00010000
00001000
01000000
00000000
00001000
00000000
00010000
00000000
00001000
00010000
00000100
00000000
00010000
00000000
,  // measure 36
00001000
01000000
10000000
01000000
00010000
00000100
00000001
00000100
,  // measure 37
00000010
00001000
00000010
00001000
00000100
00001000
00000100
00001000
,  // measure 38
01000000
00010000
01000000
00010000
00001000
00010000
00001000
00010000
,  // measure 39
00100000
10000000
01000000
00010000
00001000
00000010
00000001
00000100
,  // measure 40
00000010
00000000
00010000
00000000
00001000
00000000
01000000
00000000
00100000
00000000
10000000
00000000
01000000
00100000
01000000
00100000
,  // measure 41
00000000
00000000
00000000
00000000
00000000
00000000
00000000
00000000
00000000
00000000
00000000
01000000
10000000
00000000
00010000
00000000
,  // measure 42
10000000
01000000
00100000
00010000
01000000
00100000
00010000
00001000
,  // measure 43
00010000
00000010
00001000
00000010
00000100
00000010
00001000
00001000
,  // measure 44
00000001
00000010
00000100
00001000
00000010
00000100
00001000
00010000
,  // measure 45
00001000
00100000
00010000
00100000
01000000
00100000
00010000
00010000
,  // measure 46
10000000
01000000
00010000
00000100
00001000
00000001
00000100
00000010
,  // measure 47
00001000
00000001
00000010
00000100
00001000
00000010
00000100
00000100
,  // measure 48
00000001
00000100
00001000
01000000
00010000
10000000
00100000
01000000
,  // measure 49
00010000
00000000
00000000
00000000
10000000
00000000
00000000
00000000
00010000
00000000
00100000
00000000
01000000
10000000
01000000
10000000
,  // measure 50
01000000
00100000
00010000
01000000
00010000
00100000
00001000
00010000
,  // measure 51
00001000
00000100
00000001
00000010
00001000
00010000
01000000
10000000
,  // measure 52
01000000
00100000
00000000
00001000
00010000
00000000
00000010
00000100
00000000
00000001
00000010
00000000
00000100
00010000
00000000
00001000
,  // measure 53
01000000
00000000
00100000
10000000
00000000
00010000
01000000
00000000
00001000
00010000
00001000
00000010
00000001
00000100
00000010
00001000
,  // measure 54
00000100
00000000
00010000
00000000
00001000
00000000
01000000
00000000
00100000
00000000
10000000
00000000
00100000
01000000
00010000
01000000
,  // measure 55
00100000
00000000
01000000
00000000
00001000
00000000
00010000
00000000
00000100
00000000
00001000
00000000
00000010
00000100
00000001
00000100
,  // measure 56
00000010
00000000
00001000
00000100
00001000
00000000
00000000
00000000
00000100
00000000
00010000
00001000
00010000
00000000
00000000
00000000
,  // measure 57
00001000
00000000
00000000
00001000
01000000
00000000
00000000
01000000
00100000
00000000
10000000
00000000
00010000
00100000
01000000
10000000
,  // measure 58
00010000
00000000
00000000
10000000
01000000
00000000
00010000
00000000
00001000
00000000
00000000
00000010
00000001
00000000
00000100
00000000
,  // measure 59
00001000
00000000
00000000
00010000
00100000
00000000
10000000
00000000
01000000
00000000
00000000
00010000
00001000
00000000
00000010
00000000
,  // measure 60
00000001
00000000
00000000
00000100
00001000
00000000
00010000
00000000
01000000
00000000
00000000
10000000
00100000
00000000
00010000
00000000
,  // measure 61
00001000
00000000
00000000
00000010
00000001
00000000
00000100
00000000
00001000
00000000
00000000
00010000
01000000
00000000
10000000
00000000
,  // measure 62
00010000
01000000
00000100
00010000
,  // measure 63
00000010
00000000
00100000
00010000
00001000
00000100
00001000
00010000
,  // measure 64
00100000
00000000
00000000
00000000
00010000
00000000
00000000
01000000
00001000
00000000
00000000
00000000
00010000
00000000
00000010
00000000
,  // measure 65
00000100
00000000
00000000
00000000
00010000
00000000
00000000
01000000
00100000
00000000
10000000
00000000
01000000
00000000
00100000
00000000
,  // measure 66
00001000
00000000
01000000
00010000
00100000
00000000
01000000
00000000
00010000
00000000
00001000
00000010
00000100
00000000
00001000
00000000
,  // measure 67
00000001
00000000
00000100
00001000
00010000
00000000
00100000
00000000
01000000
00000000
00001000
00010000
01000000
00000000
00100000
00000000
,  // measure 68
00001000
00000000
00010000
00000100
00000010
00000000
00000001
00000000
00001000
00000000
00000010
00010000
00001000
00000000
01000000
00000000
,  // measure 69
00010000
00000000
00100000
01000000
10000000
00000000
01000000
00000000
00010000
00000000
00001000
01000000
00100000
00000000
00010000
00000000
,  // measure 70
00000100
00010000
00001000
01000000
,  // measure 71
00100000
00000000
00000000
00000000
10000000
01000000
00100000
01000000
10000000
01000000
00100000
01000000
10000000
01000000
00100000
01000000
,  // measure 72
10000000
00000000
00000000
00000000
00010000
00000000
00000000
01000000
00001000
00000000
00000000
00000000
00010000
00000000
00000010
00000000
,  // measure 73
00000100
00000000
00000000
00000000
00001000
00000000
00000000
00010000
00100000
00000000
01000000
00000000
00010000
00000000
00100000
00000000
,  // measure 74
00001000
00000000
00000000
00000000
00010000
00000100
00010000
00000000
00001000
01000000
00001000
00000000
00010000
00000010
00010000
00000000
,  // measure 75
00001000
00100000
00001000
00000000
01000000
00010000
01000000
00000000
00010000
10000000
00010000
00000000
01000000
00100000
01000000
00000000
,  // measure 76
00100000
00000000
10000000
01000000
00010000
00000000
00001000
00000010
00000001
00000000
00000100
00001000
00010000
00000000
00000000
00100000
,  // measure 77
20000000
00000000
00000000
00000000
,  // measure 78
30000000
00000000
00000000
00000000
;

//---------------dance-single - ----------------
#NOTES:
     dance-single:
     :
     Easy:
     8:
     0.336,0.457,0.134,0.158,0.000:
0000
0000
0000
0000
,
0000
0000
0000
0000
,
0000
0000
0000
0000
,
0000
0000
0000
0000
,
0000
0000
0000
0000
,
0000
0000
0000
0000
,
0000
0000
0000
0000
,
0000
0000
0000
0000
,
1000
0000
0010
0000
,
0100
0000
0001
0000
,
0010
0000
0100
0000
,
1000
0000
0100
0000
,
1000
0000
0010
0000
,
0001
0000
0100
0000
,
1000
0000
0100
0000
,
0001
0000
0010
0000
,
1000
0001
0100
0001
,
1000
0100
1000
0010
,
0100
0001
0100
0010
,
1000
0100
0010
0001
,
0100
0001
1000
0010
,
1000
0100
0010
0001
,
1000
0010
0100
0001
,
0020
0000
0000
0030
,
0100
1000
0010
0000
0100
0000
0001
0000
,
0010
0001
1000
0010
,
0100
0001
0010
0000
0100
0000
1000
0000
,
0001
0100
0010
1000
,
0001
1000
0100
0000
0010
0000
0001
0000
,
0100
0010
1000
0001
,
1000
0001
0100
0000
0010
0000
1000
0000
,
0100
0010
0001
0100
,
0010
0010
0100
0100
,
0001
0000
1000
0000
0001
1000
0001
0000
,
1000
1000
0001
0001
,
0100
0000
0010
0000
0100
0010
0100
0000
,
0010
1000
0100
0001
,
0010
0001
0100
1000
,
0010
1000
0001
0010
,
0001
0000
0100
0000
0010
0000
1000
0100
,
0000
0000
0000
0010
,
0001
0100
0001
0100
,
0010
1000
0010
1000
,
0100
0010
0100
0010
,
0001
1000
0001
1000
,
0010
0100
0001
0100
,
0010
1000
0100
1000
,
0010
0100
0001
0010
,
0100
0000
0100
0000
1000
0100
0010
0001
,
0200
0010
0001
0010
,
0301
0020
0230
2300
,
3002
1000
0100
1000
,
0103
0020
2030
3200
,
0320
0001
0100
0031
,
2000
0010
0001
3010
,
0200
0301
0020
1030
,
0200
1300
0020
0031
,
1001
0000
0110
0000
,
1001
0000
0110
0000
,
1001
0000
0110
0000
,
1001
0000
0110
0000
,
1001
0100
0010
0001
,
1000
0000
0010
0000
0010
0100
0010
0000
,
0100
0001
0001
0100
,
0010
0000
0010
0000
1000
0100
1000
0000
,
0001
0110
1000
0110
,
0001
0110
1000
0110
,
0100
1001
0010
1001
,
0100
1001
0010
1001
,
0200
0320
2030
3002
,
0013
0000
0100
0000
1000
0001
1000
0000
,
0010
0100
0001
1000
,
0100
0000
0010
0000
0001
0100
0000
0100
,
0001
1000
0100
0010
,
0001
0010
0100
1000
,
0001
0010
0100
1000
0001
0010
0100
1000
,
0002
0000
0000
0000
,
0003
0000
0000
0000
;

//---------------dance-single - ----------------
#NOTES:
     dance-single:
     :
     Beginner:
     5:
     0.156,0.244,0.000,0.008,0.000:
0000
0000
0000
0000
,
0000
0000
0000
0000
,
0000
0000
0000
0000
,
0000
0000
0000
0000
,
0000
0000
0000
0000
,
0000
0000
0000
0000
,
0000
0000
0000
0000
,
0000
0000
0000
0000
,
0001
0000
0000
0000
,
0010
0000
0000
0000
,
0100
0000
0000
0000
,
1000
0000
0000
0000
,
0010
0000
0010
0000
,
0100
0000
0100
0000
,
0001
0000
0001
0000
,
1000
0000
1000
0000
,
0001
0000
0001
0000
,
0100
0100
0100
0000
,
0010
0000
0010
0000
,
0100
0100
0100
0000
,
0001
0000
0001
0000
,
1000
1000
1000
0000
,
0100
0000
0100
0000
,
0010
0000
0000
0000
,
0001
0000
0001
0000
,
0100
0100
0100
0000
,
0010
0000
1000
0000
,
0100
0100
0100
0000
,
0010
0000
0001
0000
,
0100
0100
0100
0000
,
0001
0000
1000
0000
,
0100
0100
0100
0000
,
0010
0000
0010
0000
,
0001
0000
0001
0000
,
1000
0000
1000
0000
,
0010
0010
0010
0000
,
0100
0000
0100
0000
,
0001
0000
0001
0000
,
0010
0000
0010
0000
,
0100
0100
0100
0100
,
0000
0000
0000
0000
,
0001
0000
0001
0000
,
1000
0000
1000
0000
,
0001
0000
0001
0000
,
1000
0000
1000
0000
,
0010
0000
0010
0000
,
0100
0000
0100
0000
,
0010
0000
0010
0000
,
0100
0000
0100
0000
,
0001
0000
0010
0000
,
0100
0000
1000
0000
,
0001
0000
0001
0000
,
1000
0000
1000
0000
,
0010
0000
1000
0000
,
0100
0000
0010
0000
,
0001
0000
0001
0000
,
0100
0000
0100
0100
,
0100
0000
0000
0000
,
0100
0000
0000
0000
,
0010
0000
0000
0000
,
0010
0000
0000
0000
,
1000
0000
0000
0000
,
0001
0000
0000
0000
,
0010
0000
0000
0000
,
0100
0000
0000
0000
,
1000
0000
1000
0000
,
0001
0000
0001
0000
,
1000
0000
0001
0000
,
1000
0000
1000
0000
,
0001
0000
0001
0000
,
1000
0000
1000
0000
,
0001
0000
1000
0000
,
0001
0001
0001
0000
,
0100
0000
0010
0000
,
1000
1000
1000
0000
,
0100
0100
0100
0100
,
0200
0000
0000
0000
,
0300
0000
0000
0000
;

//---------------dance-double - ----------------
#NOTES:
     dance-double:
     :
     Medium:
     12:
     0.575,0.548,0.071,0.095,0.170: // measure 1
00000000
00000000
00000000
00000000
,  // measure 2
00000000
00000000
00000000
00000000
,  // measure 3
00000000
00000000
00000000
00000000
,  // measure 4
00000000
00000000
00000000
00000000
,  // measure 5
00000000
00000000
00000000
00000000
,  // measure 6
00000000
00000000
00000000
00000000
,  // measure 7
00000000
00000000
00000000
00000000
,  // measure 8
00000000
00000000
00000000
00000000
,  // measure 9
10000000
00000000
01000000
00000000
00000000
00100000
00000000
00000000
01000000
00000000
00000000
10000000
00000000
00000000
00010000
00000000
,  // measure 10
01000000
00000000
00001000
00000000
00000000
00010000
00000000
00000000
00000100
00000000
00000000
00001000
00000000
00000000
00000010
00000000
,  // measure 11
00000100
00000000
00000001
00000000
00000000
00001000
00000000
00000000
00000100
00000000
00000000
00010000
00000000
00000000
00001000
00000000
,  // measure 12
01000000
00000000
00010000
00000000
00000000
10000000
00000000
00000000
01000000
00000000
00000000
00100000
00000000
00000000
00010000
00000000
,  // measure 13
01000000
00100000
10000000
00000000
01000000
00010000
00001000
00000000
,  // measure 14
00000100
00000001
00001000
00000000
00000100
00000010
00000001
00000000
,  // measure 15
00000100
00001000
00010000
00000000
01000000
10000000
00100000
00000000
,  // measure 16
01000000
00010000
10000000
00000000
01000000
00020000
00031000
00000100
,  // measure 17
00000101
00000000
00000000
00000100
00000000
00000000
00000100
00000000
00000010
00000000
00001000
00000000
00000100
00000000
00001000
00000000
,  // measure 18
00000100
00000000
00000000
00000100
00000000
00000000
00000100
00000000
00010000
00000000
00001000
00000000
00010000
00000000
00001000
00000000
,  // measure 19
01000000
00000000
00000000
01000000
00000000
00000000
01000000
00000000
00100000
00000000
10000000
00000000
00100000
00000000
10000000
00000000
,  // measure 20
01000000
00000000
00000000
01000000
00000000
00000000
01000000
00000000
00100000
00000000
00001000
00000000
00100000
00000000
00001000
00000000
,  // measure 21
00010000
00000100
00000010
00000001
00000100
00000010
00001000
00000100
,  // measure 22
00010000
00001000
01000000
00100000
10000000
01000000
00010000
01000000
,  // measure 23
10000000
00100000
01000000
00001000
00010000
00000100
00001000
00000010
,  // measure 24
00000200
00000000
00000000
00000000
00000000
00000000
00000000
00000000
00000310
00000000
00000000
00001000
00000001
00000000
00000000
00000000
,  // measure 25
00000010
00000001
00000100
00001000
00000100
00000001
00000010
00000001
,  // measure 26
00000100
00001000
00010000
01000000
10000000
00010000
10000000
10000000
,  // measure 27
00100000
10000000
01000000
00010000
01000000
10000000
00100000
10000000
,  // measure 28
01000000
00010000
00001000
00000100
00000001
00001000
00000001
00000001
,  // measure 29
00000010
00000001
00000100
00001000
00000100
00000001
00000010
00000001
,  // measure 30
00000100
00001000
00010000
01000000
10000000
00010000
10000000
10000000
,  // measure 31
00100000
10000000
01000000
00010000
00001000
00000100
00000001
00000010
,  // measure 32
00000001
00000100
00001000
00000100
00000001
00002000
00003001
00000001
,  // measure 33
00001000
00000100
00010000
00010000
00001000
01000000
00010000
00010000
,  // measure 34
10000000
00000000
01000000
00100000
01000000
00000000
10000000
00000000
00010000
00000000
01000000
00000000
00002000
00000000
00000000
00000000
,  // measure 35
00013000
00000100
00001000
00000010
00000100
00000001
00000100
00001000
,  // measure 36
00000100
00000100
00000010
00000010
00010000
00010000
00001000
00001000
,  // measure 37
01000000
00010000
01000000
00010000
10000000
01000000
10000000
01000000
,  // measure 38
00010000
00001000
00010000
00001000
00000100
00000001
00000100
00000001
,  // measure 39
00000010
00000100
00001000
00000001
00000100
00001000
00010000
01000000
,  // measure 40
10000000
00000000
00100000
00000000
01000000
00000000
10000000
00000000
01000000
00000000
00010000
00000000
10000000
00000000
00010000
01000000
,  // measure 41
00000000
00000000
00000000
00000000
00000000
00000000
00000000
00000000
00000000
00000000
00000000
00100000
01000000
00000000
00100000
00000000
,  // measure 42
10000000
01000000
00100000
00010000
10000000
01000000
00100000
00010000
,  // measure 43
01000000
00001000
00010000
00000100
00001000
00000010
00010000
00001000
,  // measure 44
00100000
00001000
01000000
00010000
00100000
00001000
01000000
00010000
,  // measure 45
00100000
00001000
00010000
00000100
00001000
00000010
00000100
00000001
,  // measure 46
00001000
00000100
00000010
00000001
00001000
00000100
00000010
00000001
,  // measure 47
00000100
00001000
00010000
00100000
01000000
00001000
00010000
00000010
,  // measure 48
00001000
00000100
00010000
00000010
00001000
00000100
00010000
00000010
,  // measure 49
00000200
00000000
00000000
00000000
00000301
00000001
00000002
00000000
,  // measure 50
00001003
00000100
00001000
00000100
00010000
00001000
00010000
00001000
,  // measure 51
01000000
00010000
01000000
00010000
10000000
01000000
10000000
01000000
,  // measure 52
10000000
00000000
00000000
10000000
01000000
00000000
00000000
01000000
00010000
00000000
00000000
00010000
00001000
00000000
00000000
00001000
,  // measure 53
00000100
00000000
00000000
00000100
00000001
00000000
00000000
00000001
00001000
00000000
00000000
00001000
00000100
00000000
00000010
00000000
,  // measure 54
00000002
00000000
00000103
00001000
00010000
00100000
10000000
00010000
,  // measure 55
00200000
00000000
01300000
10000000
00010000
01000000
00001000
00010000
,  // measure 56
00000100
00000100
00000010
00000010
00000001
00000100
00001000
00000100
,  // measure 57
00000001
00001000
00000001
00001000
00000100
00020000
00031000
01000000
,  // measure 58
00100000
00000000
00000000
00100000
10000000
00000000
00000000
00000000
00010000
00000000
00000000
00010000
01000000
00000000
00000000
00000000
,  // measure 59
00001000
00000000
00000000
00001000
00010000
00000000
00000000
00000000
00000100
00000000
00000000
00000100
00001000
00000000
00000000
00000000
,  // measure 60
00000001
00000000
00000000
00000001
00000100
00000000
00000000
00000000
00000010
00000000
00000000
00000010
00010000
00000000
00000000
00000000
,  // measure 61
00001000
00000000
00000000
00001000
01000000
00000000
00000000
00000000
00010000
00000000
00000000
00010000
10000000
00000000
00000000
00000000
,  // measure 62
01000000
11000000
01010000
00011000
,  // measure 63
00001100
00000000
00000100
00000010
00000001
00001000
00000100
00000010
,  // measure 64
00000001
00000000
00000000
00000000
00000100
00000000
00000000
00000010
00010000
00000000
00000000
00000000
00001000
00000000
01000000
00000000
,  // measure 65
00010000
00000000
10000000
00000000
01000000
00200000
00310000
00100000
,  // measure 66
01000000
00000000
00000000
10000000
01000000
00000000
00100000
00000000
00010000
00000000
00000000
01000000
00001000
00000000
00010000
00000000
,  // measure 67
00000100
00000000
00000000
00001000
00000010
00000000
00000100
00000000
00000001
00000000
00000000
00000010
00000100
00000000
00000010
00000000
,  // measure 68
00000001
00000000
00000000
00000100
00000010
00000000
00010000
00000000
00001000
00000000
00000000
01000000
00010000
00000000
00100000
00000000
,  // measure 69
01000000
00000000
00000000
10000000
01000000
00000000
00010000
00000000
00001000
00000000
00000000
00000100
00000001
00000000
00000010
00000000
,  // measure 70
00000001
00000101
00001100
00011000
,  // measure 71
01010000
00000000
00000000
00000000
01000000
00010000
01000000
00000000
00100000
00000000
10000000
00000000
01000000
00000000
00100000
00000000
,  // measure 72
00010000
00000000
00000000
00000000
10000000
00000000
00000000
01000000
00100000
00000000
00000000
00000000
00001000
00000000
01000000
00000000
,  // measure 73
00100000
00000000
01000000
00001000
00010000
00002000
00013000
00000100
,  // measure 74
00001000
00000000
00000010
00000100
00000001
00000100
00001000
00010000
,  // measure 75
00100000
10000000
00100000
01000000
00010000
00100000
01000000
10000000
,  // measure 76
01000000
00000000
00010000
00000000
00001000
00000000
00000010
00000000
00000001
00000000
00000100
00000000
00000010
00000000
00001000
00000100
,  // measure 77
00000020
00000000
00000000
00000000
,  // measure 78
00000030
00000000
00000000
00000000
;

//---------------dance-double - ----------------
#NOTES:
     dance-double:
     :
     Easy:
     9:
     0.443,0.518,0.032,0.024,0.004: // measure 1
00000000
00000000
00000000
00000000
,  // measure 2
00000000
00000000
00000000
00000000
,  // measure 3
00000000
00000000
00000000
00000000
,  // measure 4
00000000
00000000
00000000
00000000
,  // measure 5
00000000
00000000
00000000
00000000
,  // measure 6
00000000
00000000
00000000
00000000
,  // measure 7
00000000
00000000
00000000
00000000
,  // measure 8
00000000
00000000
00000000
00000000
,  // measure 9
00001000
00000000
00010000
00000000
00001000
00010000
01000000
00000000
,  // measure 10
10000000
00000000
00010000
00000000
10000000
01000000
00010000
00000000
,  // measure 11
00001000
00000000
00010000
00000000
00001000
00010000
00000100
00000000
,  // measure 12
00001000
00000000
00000001
00000000
00001000
00000001
00000100
00000000
,  // measure 13
00001000
00000000
00010000
00000000
00001000
00010000
01000000
00000000
,  // measure 14
10000000
00000000
00010000
00000000
10000000
01000000
00010000
00000000
,  // measure 15
00001000
00000000
00010000
00000000
00001000
00000100
00000001
00000000
,  // measure 16
00001000
00000000
00000001
00000000
00000100
00001000
00010000
00000000
,  // measure 17
00001000
00000000
00001000
00000000
01000000
00010000
01000000
00010000
,  // measure 18
10000000
00000000
10000000
00000000
01000000
00100000
01000000
00000000
,  // measure 19
10000000
00000000
10000000
00000000
01000000
00100000
01000000
00100000
,  // measure 20
00001000
00000000
00001000
00000000
00010000
00000100
00010000
00000000
,  // measure 21
00000100
00001000
00000010
00000000
00000100
00000001
00000010
00000000
,  // measure 22
00000100
00010000
00001000
00000000
01000000
00001000
00010000
00000000
,  // measure 23
00000010
00010000
00001000
00010000
00001000
01000000
00010000
10000000
,  // measure 24
02000000
00000000
00000000
03000000
,  // measure 25
10000000
01000000
00010000
00000000
10000000
01000000
00010000
00000000
,  // measure 26
00001000
00000100
00001000
00000000
00000100
00000001
00000100
00000000
,  // measure 27
00000001
00000100
00001000
00000000
00000001
00000100
00001000
00000000
,  // measure 28
00010000
01000000
00010000
00000000
01000000
10000000
01000000
00000000
,  // measure 29
10000000
00100000
00010000
00100000
10000000
00100000
00010000
00000000
,  // measure 30
00001000
00000100
00001000
00000000
00000100
00000001
00000100
00000000
,  // measure 31
00000001
00000010
00001000
00000010
00000001
00000010
00001000
00000000
,  // measure 32
00010000
01000000
00010000
00000000
01000000
10000000
01000000
00000000
,  // measure 33
10000000
01000000
00100000
01000000
10000000
01000000
00100000
01000000
,  // measure 34
10000000
00010000
01000000
00001000
01000000
00010000
02000000
00000000
,  // measure 35
03001000
00010000
00000100
00010000
00001000
00010000
00000100
00001000
,  // measure 36
00000010
00000010
00000100
00000100
00000001
00001000
00000001
00001000
,  // measure 37
00000001
00000010
00000100
00001000
00000001
00000010
00000100
00001000
,  // measure 38
00000001
00000100
00001000
00000100
00000001
00000100
00001000
00000100
,  // measure 39
00000001
00000100
00001000
00010000
00001000
00010000
00001000
00010000
,  // measure 40
01000000
10000000
00010000
10000000
00010000
01000000
00100000
10000000
,  // measure 41
00000000
00000000
00000000
01000000
,  // measure 42
10000000
01000000
00100000
00000000
00010000
00000000
01000000
00000000
,  // measure 43
00001000
00010000
00000100
00001000
,  // measure 44
00000010
00000100
00000001
00000000
00000010
00000000
00000100
00000000
,  // measure 45
00000010
00000001
00000100
00000010
,  // measure 46
00001000
00000100
00001000
00000000
00000001
00000000
00000100
00000000
,  // measure 47
00001000
00010000
01000000
10000000
,  // measure 48
00010000
01000000
00100000
00000000
10000000
00000000
01000000
00000000
,  // measure 49
00100000
00000000
00000000
00000000
00010000
00010000
00010000
00000000
,  // measure 50
01000000
00001000
01000000
00000000
00001000
00010000
00001000
00000000
,  // measure 51
00010000
00000100
00001000
00000010
,  // measure 52
00000100
00000001
00000010
00000000
00000100
00001000
00000010
00000000
,  // measure 53
00000100
00000001
00000100
00000000
00000010
00001000
00000100
00000000
,  // measure 54
00010000
00001000
00010000
00000000
00001000
01000000
00010000
00000000
,  // measure 55
10000000
01000000
00100000
00000000
00010000
01000000
00100000
00000000
,  // measure 56
10000000
01000000
00010000
00000000
00001000
00000100
00000001
00000000
,  // measure 57
00001000
00000001
00001000
00000001
00000100
00000010
00001000
00000000
,  // measure 58
00000001
00000100
00001000
00010000
,  // measure 59
00100000
10000000
01000000
00010000
,  // measure 60
00001000
00000010
00000001
00000100
,  // measure 61
00001000
00010000
00100000
10000000
,  // measure 62
00010000
10010000
10000000
10010000
,  // measure 63
00010000
10000000
01000000
00010000
,  // measure 64
00001000
00000000
00000100
00000001
00000001
00000000
00000010
00000000
,  // measure 65
00000100
00000000
00010000
00001000
00001000
00000000
01000000
00000000
,  // measure 66
00100000
10000000
01000000
10000000
00100000
10000000
01000000
00000000
,  // measure 67
00100000
00010000
01000000
00010000
00100000
00010000
01000000
00000000
,  // measure 68
00001000
00010000
00000100
00010000
00001000
00010000
00000100
00000000
,  // measure 69
00001000
00000010
00000100
00000010
00001000
00000010
00000100
00000000
,  // measure 70
00000001
00001001
00001000
00001001
,  // measure 71
00000001
00000000
00000100
00000010
00000100
00000010
00001000
00000100
,  // measure 72
00010000
00000000
00001000
01000000
01000000
00000000
00010000
10000000
,  // measure 73
01000000
00000000
00100000
00000000
00010000
01000000
01000000
00000000
,  // measure 74
00001000
00000000
00010000
00000100
00001000
00000000
00000010
00000100
,  // measure 75
00000001
00000000
00000010
00001000
00010000
00000000
01000000
01000000
,  // measure 76
00100000
00000000
00010000
00000000
01000000
00000000
00100000
00000000
10000000
00000000
01000000
00000000
00100000
00000000
00000000
00001000
,  // measure 77
00020000
00000000
00000000
00000000
,  // measure 78
00030000
00000000
00000000
00000000
;
