#TITLE:THANK YOU FOR PLAYING;
#SUBTITLE:;
#ARTIST:SUPER STAR 満-MITSURU-;
#TITLETRANSLIT:;
#SUBTITLETRANSLIT:;
#ARTISTTRANSLIT: SUPER STAR MITSURU;
#GENRE:;
#CREDIT:;
#MENUCOLOR:;
#METERTYPE:DDR;
#BANNER:THANK YOU FOR PLAYING.png;
#BACKGROUND:THANK YOU FOR PLAYING-bg.png;
#LYRICSPATH:;
#CDTITLE:cdtitle.png;
#MUSIC:THANK YOU FOR PLAYING.mp3;
#OFFSET:-1.432;
#SAMPLESTART:15.534;
#SAMPLELENGTH:15.000;
#SELECTABLE:YES;
#LISTSORT:;
#DISPLAYBPM:170.000;
#BPMS:0.000=170.000,264.000=160.000,266.000=145.000,267.000=140.000,268.000=128.000,269.000=117.000,270.000=105.000,271.000=65.000,271.500=31.000,272.000=18.890;
#STOPS:;
#BGCHANGES:;
#ATTACKS:;

//---------------dance-single - ----------------
#NOTES:
     dance-single:
     :
     Hard:
     12:
     0.571,0.636,0.056,0.149,0.089:
0000
0000
0000
0000
,
0000
0000
0000
0000
,
0000
0000
0000
0000
,
0000
0000
0000
0000
,
0200
0000
0000
0000
,
0302
0000
2003
0000
,
3010
0000
0000
0100
0000
0000
0001
0000
,
0020
0000
0230
0300
,
2002
0000
0000
0000
,
0000
0000
0000
3003
,
0001
0100
0010
1000
0000
1000
0100
1000
,
0010
0100
0010
0001
0010
0100
0010
1000
,
0001
0010
0100
0010
0000
0010
0001
0010
,
0100
1000
0100
0010
0100
0001
0100
0010
,
0100
1000
0001
0100
0000
0100
1000
0100
,
0001
0010
0100
1000
0010
0100
0001
1000
,
0100
0010
0010
0100
0000
1000
0001
1000
,
0010
0000
0200
0000
0310
0000
0200
0000
0310
1000
0000
1000
0010
0000
0100
0000
,
0001
0010
0001
0010
0100
1000
0100
1000
,
0001
0100
1000
0100
0001
0100
1000
0000
,
0100
0010
0100
0010
1000
0100
1000
0100
,
0010
0100
0001
0100
0010
0100
0001
0000
,
0100
1000
0100
1000
0001
0100
0001
0100
,
0010
0100
1000
0100
0010
0100
0001
1000
,
0100
0010
0010
0100
0000
1000
0100
1000
,
0100
0010
0001
0100
1000
0100
0001
0010
,
0100
0100
1000
1000
0000
0001
0100
0100
,
0000
0010
1000
1000
0001
0100
1000
0100
,
0001
0001
0010
0010
0000
0100
1000
1000
,
0000
0001
0100
0100
0010
0100
1000
0100
,
0010
0010
1000
1000
0000
0001
0010
0010
,
0000
0100
0010
0001
0010
1000
0010
0001
,
0010
0100
1000
0010
0000
0100
0001
1000
,
1001
0000
0000
0000
1001
0000
0000
0000
1000
0000
0000
0010
0000
0000
0100
0000
,
0001
0010
0100
0010
0000
0010
0001
0010
,
0100
1000
0010
0100
0001
0100
1000
0100
,
0001
0000
0000
1000
0000
0000
0100
0000
0000
0000
0010
0000
0100
0000
0000
0000
,
2002
0000
0000
3003
,
1000
0100
0000
0100
,
1000
0010
0000
0010
,
0100
0001
0100
0001
1000
0100
1000
0100
,
0010
0001
0010
0001
1000
0010
1000
0010
,
0100
0000
1000
0000
0100
0000
0001
0000
0100
0000
1000
0000
0100
0010
0100
0010
,
0000
1000
0000
0001
0010
0000
0001
0100
0000
0010
1000
0000
1001
0000
0000
0000
,
1000
0100
0010
0001
0000
0001
0100
0001
,
0010
0100
0010
1000
0010
0100
0010
0001
,
1000
0010
0100
0010
0000
0010
1000
0010
,
0100
0001
0100
0010
0100
1000
0100
0010
,
0100
0001
1000
0100
0000
0100
0001
0100
,
1000
0010
0100
0001
0010
0100
1000
0001
,
0100
0010
0010
0100
0000
0001
1000
0001
,
0010
0000
0200
0000
0310
0000
0200
0000
0310
0001
0000
0001
0010
0000
0100
0000
,
1000
0000
0000
0100
0000
0000
0010
0000
0000
0000
0001
0000
0010
0000
0001
0100
,
0001
0000
0100
0010
0100
0000
0010
1000
0010
0000
1000
0100
1000
0000
0100
0000
,
0010
0000
0000
0001
0000
0000
0100
0000
0020
0000
0000
0000
0030
0000
1000
0100
,
1000
0001
0100
0010
0000
0010
0100
0001
,
1000
0100
0001
0100
1000
0100
0010
0100
,
1000
0010
0001
0010
1000
0010
0100
0010
,
1000
1000
0001
0100
0100
1000
0100
0100
,
0001
0010
0100
1000
0001
0100
0010
1000
,
0001
0010
0000
0010
,
0100
1000
0001
0100
,
0010
1000
0000
1000
,
0100
0001
0100
0010
,
0001
0100
0000
0100
,
1000
0100
0001
0010
,
0100
1000
0001
0100
0000
0100
1000
0100
,
0001
0100
0010
1000
0100
0001
0100
1000
,
2002
3003
0000
0000
;

//---------------dance-single - ----------------
#NOTES:
     dance-single:
     :
     Medium:
     10:
     0.456,0.540,0.084,0.093,0.037:
0000
0000
0000
0000
,
0000
0000
0000
0000
,
0000
0000
0000
0000
,
0000
0000
0000
0000
,
1000
0000
0000
0000
,
0001
0000
0100
0000
,
0010
0000
0000
0100
0000
0000
0001
0000
,
1000
0000
0000
0001
0010
0000
0000
0000
,
0220
0000
0000
0000
,
0000
0000
0000
0330
,
1000
0000
0001
0100
0000
0100
0010
0000
,
0100
0000
0001
1000
0100
0000
0010
0000
,
0100
0000
1000
0001
0000
0001
0100
0000
,
0010
0000
0100
0001
0010
0000
0100
0000
,
1000
0000
0100
0001
0000
0001
0100
0000
,
1000
0000
0010
0100
0001
0000
0100
0000
,
1000
0000
0100
0010
0000
1000
0100
0000
,
0010
0000
0100
1000
0001
0100
0010
0000
,
0100
0001
0100
0000
0001
0100
0001
0000
,
1000
0100
0010
0100
1000
0000
0001
0000
,
0100
0010
0100
0000
0010
1000
0010
0000
,
0100
0010
0100
0001
0100
0000
0010
0000
,
1000
0100
1000
0000
0100
0001
0100
0000
,
0001
0010
0001
0000
0010
1000
0010
0000
,
1000
0100
0010
0001
,
0100
1000
0010
0001
,
1000
0100
0010
0000
0100
0010
0001
0000
,
0010
0001
0100
0000
0001
0100
0010
1000
,
0100
0010
0001
0000
0010
0001
0100
0000
,
0001
0100
0010
0000
0100
0010
1000
0100
,
0010
0001
0100
0000
0001
0100
0010
0000
,
0100
0010
1000
0000
0010
1000
0100
0010
,
0001
1000
0001
1000
,
1100
0101
0011
1010
,
1000
0000
0100
1000
0000
0100
1000
0000
,
0010
0100
0001
0010
0100
0000
1000
0100
,
0010
0000
0001
0000
0100
0001
1000
0000
,
2002
0000
0000
3003
,
0001
0100
1000
0100
,
0001
0010
1000
0010
,
0001
0100
1000
0000
0100
1000
0010
0000
,
1000
0010
0001
0000
0010
0001
0100
0000
,
0001
0100
0001
0100
1000
0100
1000
0100
,
0000
0100
0000
0000
0100
0000
0000
0100
0000
0000
0100
0000
1001
0000
0000
0000
,
0010
0001
0100
0000
0010
0000
0100
0001
,
1000
0100
0010
0000
0100
0000
1000
0000
,
0001
0000
0100
0010
1000
0000
0100
0000
,
0010
0100
1000
0100
0001
0000
0100
0000
,
0010
0000
0001
0100
0010
0000
0100
0000
,
1000
0100
0010
0100
0001
0000
1000
0000
,
0100
0010
0001
0000
0010
0100
1000
0000
,
0001
0100
1000
0100
0001
0000
1001
0000
,
1000
0000
0000
0100
0000
0000
0010
0000
0000
0000
0001
0000
1000
0000
0100
0000
,
2000
3020
0032
0203
,
1300
0000
0000
0001
0000
0000
0100
0000
0010
0000
0000
0000
0100
0000
0001
0000
,
1000
0000
0100
0010
0000
0100
0000
1000
,
0001
0100
0001
0100
0010
1000
0010
1000
,
0100
0010
0100
0010
0001
0100
0001
0100
,
0001
0000
0000
0001
0010
0000
0000
0010
0100
0000
0000
0100
1000
0000
0000
1000
,
0001
0100
0010
0100
1000
0100
0010
0100
,
0001
0000
1000
0100
0000
0100
0010
0000
,
0001
0100
0010
1000
,
0001
0000
0010
0100
0000
0100
1000
0000
,
0001
0100
0001
1000
,
0100
0000
0010
0100
0000
0100
1000
0000
,
0001
0100
0010
0100
,
0001
0000
0000
1000
0000
0000
0001
0000
,
0010
0000
0100
0000
,
2002
3003
0000
0000
;

//---------------dance-single - ----------------
#NOTES:
     dance-single:
     :
     Easy:
     6:
     0.309,0.413,0.168,0.028,0.000:
0000
0000
0000
0000
,
0000
0000
0000
0000
,
0000
0000
0000
0000
,
0000
0000
0000
0000
,
1000
0000
0000
0000
,
0100
0000
0000
0000
,
0010
0000
0000
0000
,
0001
0000
1000
0000
,
1001
0000
0000
0000
,
0000
0000
0000
0000
,
0010
0100
0010
0100
,
0001
0100
1000
0100
,
0001
1000
0001
1000
,
0100
0001
0100
1000
,
0010
0100
0010
0100
,
0010
0001
0010
0100
,
0010
1000
0001
0010
,
0110
0000
1001
0000
,
1000
0100
0010
0001
,
1000
0100
0010
0001
,
0001
0010
0100
1000
,
0001
0010
0100
1000
,
1000
0010
0100
0001
,
1000
0010
0100
0001
,
0001
0100
0010
1000
,
0100
0010
0001
1000
,
0001
0100
0001
0100
,
0010
0100
0100
0100
,
0010
1000
0010
1000
,
0100
0010
0100
0100
,
1000
0001
1000
0001
,
0100
0010
0100
0100
,
0001
0010
0100
1000
,
0001
0100
1000
0100
,
0001
1000
0100
0010
,
0100
1000
0001
0100
,
0110
0000
0110
0000
,
1001
0000
1001
0000
,
1000
0100
0000
0100
,
0000
0010
0000
0010
,
0001
0001
0001
0001
,
1000
1000
1000
1000
,
0001
1000
1001
1001
,
0200
0000
0000
0300
,
0001
0010
0100
1000
,
0100
0010
0001
0100
,
0010
1000
0010
0100
,
0001
0100
0010
1000
,
0100
0001
0100
1000
,
0100
0001
0100
1000
,
0001
0100
1000
0010
,
0001
0010
1000
0100
,
0001
0001
1000
1000
,
1001
0110
1001
0110
,
0001
0001
1000
1000
,
0110
1001
0110
1001
,
1000
0100
1000
0100
,
0010
0001
0010
0001
,
1000
0010
0001
0100
,
1000
0100
0001
0010
,
1000
0000
0000
0000
,
0001
0000
0000
0000
,
0100
0000
0000
0000
,
0010
0000
0000
0000
,
1000
0000
0100
0000
,
0010
0000
0001
0000
,
1000
0010
0100
0001
,
0010
0100
1000
0001
,
2002
3003
0000
0000
;

//---------------dance-double - ----------------
#NOTES:
     dance-double:
     :
     Hard:
     12:
     0.562,0.699,0.084,0.093,0.126:
00000000
00000000
00000000
00000000
,
00000000
00000000
00000000
00000000
,
00000000
00000000
00000000
00000000
,
00000000
00000000
00000000
00000000
,
00200000
00000000
00000000
00000000
,
00302000
00000000
00023000
00000000
,
00030020
00000000
00000000
00002030
00000000
00000000
00023000
00000000
,
02030000
00000000
03200000
00300000
,
10010000
00000000
00000000
00000000
,
00000000
00000000
00000000
00000000
,
00000001
00000010
00000100
00001000
00000000
00000010
00000100
00001000
,
00010000
00100000
00010000
00001000
00010000
01000000
00010000
00001000
,
00010000
01000000
10000000
00010000
00000000
01000000
00010000
00100000
,
00001000
01000000
00001000
00010000
00001000
00000100
00001000
00010000
,
00001000
00000010
00000001
00001000
00000000
00000001
00000100
00000010
,
00001000
00000100
00010000
00001000
00100000
00010000
01000000
00100000
,
10000000
01000000
00100000
00010000
00000000
01000000
00001000
00010000
,
00000100
00000000
00010000
00000000
00001000
00000000
01000000
00000000
00100000
10000000
00000000
10000000
00100000
00000000
01000000
00000000
,
00010000
00010000
00100000
00100000
00001000
00001000
00010000
00010000
,
00000100
00001000
00000010
00000100
00000001
00000010
00000100
00000000
,
00001000
00001000
00000100
00000100
00010000
00010000
00001000
00001000
,
01000000
01000000
00100000
00100000
10000000
01000000
00010000
00000000
,
00001000
00001000
00000010
00000010
00000001
00000001
00000100
00000100
,
00000010
00000010
00001000
00000100
00010000
00001000
00100000
00000000
,
00010000
01000000
10000000
01000000
00000000
00010000
00001000
00000010
,
00000001
00000010
00001000
00000001
00000010
00000100
00001000
00000001
,
00001000
00000000
00001000
00000000
00000000
00001000
00000100
00000000
00000000
00000000
00000100
00000000
00000000
00000100
00010000
00000000
,
00000000
00000000
00010000
00000000
00000000
00010000
00001000
00000000
00001000
00000000
01000000
00000000
00010000
00000000
01000000
00000000
,
00100000
00000000
00100000
00000000
00000000
00100000
10000000
00000000
00000000
00000000
10000000
00000000
00000000
10000000
01000000
00000000
,
00000000
00000000
01000000
00000000
00000000
01000000
00100000
00000000
00010000
00000000
00100000
00000000
00001000
00000000
00010000
00000000
,
00000010
00000000
00000010
00000000
00000000
00000010
00001000
00000000
00000000
00000000
00001000
00000000
00000000
00001000
00000100
00000000
,
00000000
00000000
00000100
00000000
00000000
00000100
00010000
00000000
00001000
00000000
01000000
00000000
10000000
00000000
01000000
00000000
,
00010000
00100000
01000000
10000000
00000000
00010000
01000000
00010000
,
01010000
00000000
00000000
00000000
00011000
00000000
00000000
00000000
00001100
00000000
00000000
00000100
00000000
00000000
00000010
00000000
,
00000001
00000100
00001000
00000000
00001000
00000100
00000001
00000000
,
00001000
00000100
00010000
00000000
00010000
00000100
00001000
00000000
,
00010000
00100000
10000000
00000000
10000000
00100000
00010000
00000000
,
10010000
00000000
10000000
10000000
,
01000000
00000000
00100000
00000000
,
01000000
00000000
00010000
00000000
,
00001000
00000010
00000001
00000010
00001000
00000010
00000001
00000010
,
00010000
00100000
10000000
00100000
00010000
00100000
10000000
00100000
,
00001000
00000100
00000001
00000100
00001000
00010000
01000000
10000000
,
00000000
00010000
00000000
00000000
01000000
00000000
00000000
00001000
00000000
00000000
00010000
00000000
00011000
00000000
00000000
00000000
,
00001000
00000100
00000001
00000100
00000010
00001000
00000100
00010000
,
00001000
01000000
00010000
00100000
01000000
10000000
10010000
00000000
,
10000000
01000000
00010000
01000000
00100000
00010000
01000000
00001000
,
00010000
00000100
00001000
00000010
00000100
00000001
00001001
00000000
,
00000010
00001000
00000100
00010000
00001000
00000100
00001000
00010000
,
00100000
10000000
00010000
10000000
01000000
00100000
00010000
01000000
,
00001000
00010000
00001000
00000100
00000000
00000001
00000010
00000001
,
00000100
00001000
00010000
00100000
10000000
00100000
00010000
00001000
,
00000100
00000000
00000000
00000001
00000000
00000000
00000010
00000000
00000000
00000000
00000100
00000000
00001000
00000000
00000000
00001000
,
00000100
00000000
00000000
00000100
00010000
00000000
00000000
00010000
01000000
00000000
00000000
01000000
10000000
00000000
00000000
10000000
,
00100000
00000000
00000000
01000000
00000000
00000000
00010000
00000000
00100000
00000000
00000000
00000000
00000000
00000000
00001000
00010000
,
00001000
00010000
00000100
00001000
00000000
00000010
00000100
00000001
,
00001000
00000100
00001000
00000001
00001000
00000010
00001000
00001000
,
00010000
01000000
00010000
10000000
00010000
00100000
00010000
00010000
,
00100000
00001000
00100000
00001000
00100000
00000000
00000010
00010000
00000010
00010000
00000010
00000000
00010000
00001000
00010000
00000000
,
00001000
00000100
00000001
00000010
00001000
00010000
01000000
10000000
,
00100000
00000000
01000000
00000000
00000000
00010000
01000000
00000000
,
00001000
00010000
00000100
00000010
,
00000001
00000000
00000100
00000000
00000000
00001000
00010000
00000000
,
00100000
01000000
00001000
00010000
,
00000100
00000000
00000010
00000000
00000000
00000100
00001000
00000000
,
00000100
00000000
00010000
00000000
00000000
00001000
01000000
00000000
,
00100000
10000000
01000000
00010000
00000000
00001000
00000010
00000001
,
00001000
00010000
00100000
10000000
00100000
00001000
00010000
00001000
,
02000200
03000300
00000000
00000000
;

//---------------dance-single - ----------------
#NOTES:
     dance-single:
     :
     Beginner:
     2:
     0.116,0.159,0.000,0.009,0.000:
0000
0000
0000
0000
,
0000
0000
0000
0000
,
0000
0000
0000
0000
,
0000
0000
0000
0000
,
0000
0000
0000
0000
,
0000
0000
0000
0000
,
0000
0000
0000
0000
,
0000
0000
0000
0000
,
0000
0000
0000
0000
,
0000
0000
0000
0000
,
1000
0000
0000
0000
,
0001
0000
0001
0000
,
0001
0000
0000
0000
,
0100
0000
0100
0000
,
0100
0000
0000
0000
,
0010
0000
0010
0000
,
0010
0000
0000
0000
,
1000
0000
1000
0000
,
1000
0000
0000
0000
,
0001
0000
0001
0000
,
0001
0000
0000
0000
,
0100
0000
0100
0000
,
0100
0000
0000
0000
,
0010
0000
0010
0000
,
0010
0000
0000
0000
,
1000
0000
1000
0000
,
1000
0000
0000
0001
,
0001
0000
0000
0010
,
0010
0000
0000
0100
,
0100
0000
0000
1000
,
1000
0000
0000
0001
,
0001
0000
0000
0100
,
0100
0000
0000
0010
,
0010
0000
0010
0000
,
0010
0000
0000
0000
,
0100
0000
0000
0000
,
0001
0000
0000
0000
,
0010
0000
0000
0000
,
0000
0100
0000
0000
,
0000
0100
0000
0000
,
0100
0000
0100
0000
,
0100
0000
0100
0000
,
0100
0100
0100
0100
,
0000
0000
0000
0000
,
1000
0000
0000
0000
,
0001
0000
0000
0000
,
0100
0000
0000
0000
,
0010
0000
0000
0000
,
0100
0000
0000
0000
,
0001
0000
0000
0000
,
1000
0000
1000
0000
,
0001
0000
0001
0000
,
0100
0000
0000
0000
,
0100
0000
0100
0000
,
0100
0000
0000
0000
,
0010
0000
0010
0000
,
0010
0000
0000
0000
,
1000
0000
0000
0000
,
0001
0000
0001
0000
,
1000
0000
1000
0000
,
0010
0000
0000
0000
,
0100
0000
0000
0000
,
0001
0000
0000
0000
,
1000
0000
0000
0000
,
0100
0000
0000
0000
,
0010
0000
0000
0000
,
0001
0000
0001
0000
,
0100
0000
0200
0000
,
0000
0300
0000
0000
;

//---------------dance-double - ----------------
#NOTES:
     dance-double:
     :
     Medium:
     10:
     0.472,0.540,0.037,0.298,0.009:
00000000
00000000
00000000
00000000
,
00000000
00000000
00000000
00000000
,
00000000
00000000
00000000
00000000
,
00000000
00000000
00000000
00000000
,
20000000
00000000
00000000
00000000
,
32000000
00000000
03200000
00000000
,
00302000
00000000
00000000
00023000
00000000
00000000
00030200
00000000
,
00002300
00000000
00003020
00000000
,
00000130
00000000
00000000
00000000
,
00000000
00000000
00000000
00000000
,
00000001
00000000
00001000
00000000
00000000
00000100
00001000
00000000
,
00000100
00010000
00001000
00000000
00010000
00001000
01000000
00000000
,
00010000
00000000
00100000
00000000
00000000
01000000
10000000
00000000
,
01000000
00100000
00001000
00000000
00100000
00010000
01000000
00100000
,
10000000
00000000
00010000
00000000
00000000
01000000
00010000
00000000
,
01000000
00001000
00010000
00000000
00001000
00010000
00000100
00000000
,
00001000
00000000
00000010
00000000
00000000
00000100
00000001
00000000
,
00000100
00000010
00010000
00000000
00000010
00001000
00000100
00000010
,
00000002
00000023
00000230
00002300
,
00003001
00000100
00001000
00010000
01000000
10000000
00010000
00000000
,
20000000
30200000
02300000
03020000
,
10030000
01000000
00010000
00001000
00000100
00000001
00001000
00000000
,
00000002
00000203
00000320
00002030
,
00003001
00000010
00001000
00010000
00100000
10000000
00010000
00000000
,
20000000
32000000
03200000
00320000
,
10030000
00100000
00010000
00001000
00000010
00000001
00001000
00000000
,
00000001
00001000
00000100
00000000
00000100
00001000
00000001
00000000
,
00000001
00000100
00001000
00000000
00010000
01000000
10000000
00000000
,
10000000
00100000
01000000
00000000
01000000
00100000
10000000
00000000
,
10000000
01000000
00010000
00000000
00001000
00000100
00000001
00000000
,
00000001
00001000
00000100
00000000
00000100
00001000
00000001
00000000
,
00000001
00000010
00001000
00000000
00010000
00100000
10000000
00000000
,
10000000
00010000
01000000
00000000
01000000
00010000
10000000
00000000
,
00100000
01000000
00010000
10010000
,
10000000
00000000
01000000
00000000
00100000
00010000
01000000
00000000
,
00010000
00000000
00100000
00000000
00001000
00010000
00000100
00001000
,
00000010
00000000
00000100
00000000
00000001
00000010
00000100
00000000
,
00001001
00000000
00000000
00000000
,
00000001
00000100
00000010
00001000
,
00010000
01000000
00100000
10000000
,
00010000
01000000
10000000
01000000
00010000
01000000
10000000
00000000
,
01000000
00010000
00100000
00001000
,
00010000
00000100
00001000
00000100
00010000
00000100
00001000
00000000
,
00000010
00000000
00000100
00000000
00000001
00001000
00000110
00000000
,
00000001
00000010
00000100
00010000
,
00001000
00010000
00001000
00100000
00010000
00100000
01000000
00000000
,
10000000
01000000
00100000
00001000
,
00010000
00001000
00010000
00000010
00001000
00000010
00000100
00000000
,
00000001
00000010
00000100
00010000
,
00001000
00100000
01000000
10000000
,
00010000
01000000
00100000
00000000
00100000
01000000
00010000
00000000
,
10000000
01000000
00010000
00001000
00000100
00000001
00001000
00000000
,
00000001
00000000
00000000
00000010
00000000
00000000
00000100
00000000
00000000
00000000
00001000
00000000
00000100
00000000
00000010
00000000
,
00000002
00000203
00000320
00020030
,
00031000
00000000
00000000
00010000
00000000
00000000
00001000
00000000
01000000
00000000
00000000
00000000
00100000
00000000
00000000
00000000
,
10000000
01000000
00100000
00010000
00000000
00010000
00100000
01000000
,
10000000
01000000
00100000
01000000
10000000
01000000
00010000
00000000
,
00001000
00000100
00000001
00000100
00000010
00000100
00000001
00000000
,
00001000
00000100
00010000
00001000
00010000
00000100
00001000
00000100
,
00010000
00001000
00010000
00001000
00020000
00000000
02030000
00000000
,
13000000
00100000
01000000
00010000
,
10000000
00000000
10000000
00000000
01000000
00100000
00010000
00000000
,
01000000
00001000
00010000
00000100
,
00001000
00000000
00001000
00000000
00000010
00000100
00000001
00000000
,
00000010
00000100
00001000
00000100
,
00010000
00001000
01000000
00010000
,
10000000
00000000
01000000
00100000
00000000
00100000
00001000
00000000
,
00010000
00000000
00000100
00000000
00001000
00000000
00000010
00000100
,
00002002
00003003
00000000
00000000
;

//---------------dance-double - ----------------
#NOTES:
     dance-double:
     :
     Easy:
     4:
     0.193,0.223,0.000,0.009,0.000: // measure 1
00000000
00000000
00000000
00000000
,  // measure 2
00000000
00000000
00000000
00000000
,  // measure 3
00000000
00000000
00000000
00000000
,  // measure 4
00000000
00000000
00000000
00000000
,  // measure 5
00001000
00000000
00000000
00000000
,  // measure 6
00010000
00000000
00001000
00000000
,  // measure 7
01000000
00000000
00010000
00000000
,  // measure 8
00100000
00000000
01000000
00000000
,  // measure 9
10000000
00000000
00000000
00000000
,  // measure 10
00000000
00000000
00000000
00000000
,  // measure 11
10000000
00000000
01000000
00000000
,  // measure 12
00010000
00001000
00000100
00000000
,  // measure 13
00000001
00000000
00000100
00000000
,  // measure 14
00001000
00010000
01000000
00000000
,  // measure 15
10000000
00000000
01000000
00000000
,  // measure 16
00010000
00001000
00000100
00000000
,  // measure 17
00000001
00000000
00000010
00000000
,  // measure 18
00001000
00010000
01000000
00000000
,  // measure 19
10000000
00000000
00100000
00000000
,  // measure 20
00010000
00001000
00000100
00000000
,  // measure 21
00000001
00000000
00000010
00000000
,  // measure 22
00001000
00010000
01000000
00000000
,  // measure 23
10000000
00000000
00100000
00000000
,  // measure 24
00010000
00001000
00000100
00000000
,  // measure 25
00000001
00000000
00000010
00000000
,  // measure 26
00001000
00010000
00100000
10000000
,  // measure 27
01000000
00000000
00010000
00000000
,  // measure 28
00001000
00000000
00000100
00000000
,  // measure 29
00001000
00000000
00010000
00000000
,  // measure 30
01000000
00000000
10000000
00000000
,  // measure 31
00100000
00000000
00010000
00000000
,  // measure 32
00001000
00000000
00000010
00000000
,  // measure 33
00000001
00000000
00000100
00000000
,  // measure 34
00001000
00000000
00010000
00000000
,  // measure 35
01000000
00000000
10000000
00000000
,  // measure 36
01000000
00000000
00010000
00000000
,  // measure 37
00001000
00000000
00000010
00000000
,  // measure 38
00000001
00000000
00000000
00000000
,  // measure 39
00000100
00000000
00001000
00000000
,  // measure 40
00010000
00000000
00100000
00000000
,  // measure 41
00010000
00000000
00001000
00000000
,  // measure 42
00000100
00000000
00000001
00000000
,  // measure 43
00000010
00000000
00001000
00000000
,  // measure 44
00010000
00000000
00001000
00000000
,  // measure 45
00010000
01000000
10000000
00000000
,  // measure 46
00100000
00000000
00010000
00000000
,  // measure 47
00001000
00000100
00000001
00000000
,  // measure 48
00000010
00000000
00001000
00000000
,  // measure 49
00010000
01000000
10000000
00000000
,  // measure 50
00100000
00000000
00010000
00000000
,  // measure 51
00001000
00000010
00000001
00000000
,  // measure 52
00000100
00000000
00001000
00000000
,  // measure 53
00010000
01000000
10000000
00000000
,  // measure 54
01000000
00000000
00010000
00000000
,  // measure 55
00001000
00000100
00000001
00000100
,  // measure 56
00001000
00000000
00000100
00000000
,  // measure 57
00000001
00000010
00001000
00000000
,  // measure 58
00010000
01000000
10000000
00000000
,  // measure 59
10000000
00100000
00010000
00000000
,  // measure 60
00001000
00000100
00000001
00000000
,  // measure 61
00000010
00000000
00001000
00000000
,  // measure 62
00010000
00000000
01000000
00000000
,  // measure 63
10000000
00000000
00100000
00000000
,  // measure 64
00010000
00000000
00001000
00000000
,  // measure 65
00000001
00000000
00000010
00000000
,  // measure 66
00001000
00000000
00010000
00000000
,  // measure 67
00100000
00000000
10000000
00000000
,  // measure 68
01000000
00000000
00010000
00000000
,  // measure 69
00002000
00003000
00000000
00000000
;
