#TITLE:Secret Weapon;
#SUBTITLE:;
#ARTIST:The Whip;
#TITLETRANSLIT:;
#SUBTITLETRANSLIT:;
#ARTISTTRANSLIT:;
#GENRE:;
#CREDIT:;
#MENUCOLOR:;
#METERTYPE:DDR;
#BANNER:Secret Weapon.png;
#BACKGROUND:Secret Weapon-bg.png;
#LYRICSPATH:;
#CDTITLE:cdtitle.png;
#MUSIC:Secret Weapon.mp3;
#OFFSET:-0.025;
#SAMPLESTART:59.064;
#SAMPLELENGTH:15.000;
#SELECTABLE:YES;
#LISTSORT:;
#BPMS:0.000=126.000;
#STOPS:;
#BGCHANGES:;
#ATTACKS:;

//---------------dance-single - ----------------
#NOTES:
     dance-single:
     :
     Hard:
     9:
     0.396,0.372,0.078,0.000,0.097:
0000
0000
0000
0000
,
0000
0000
0000
0000
,
0000
0000
0000
0000
,
0000
0000
0000
0000
,
0010
0010
0010
0100
0100
0100
0001
0000
,
0001
0001
0001
0001
,
1000
1000
1000
0100
0100
0100
0010
0000
,
0010
0010
0010
0010
,
0001
0001
0001
0010
0010
0010
0100
0000
,
0100
0100
0100
0100
,
1000
1000
1000
0010
0010
0010
0100
0000
,
0100
0100
0100
0100
,
0001
0100
1000
0100
0001
0010
0100
0000
,
1000
0100
0010
0000
0001
0000
0100
1000
,
0100
0010
0001
0010
0000
1000
0001
0000
,
0010
0100
0001
0100
,
1000
0000
0010
0100
1000
0100
0001
0010
,
0000
0100
0000
1000
0100
0000
0001
0100
,
1000
0010
0100
0001
0000
0010
1000
0000
,
0001
0000
0100
1000
0001
0000
0100
0010
,
0000
0100
0001
1000
0100
0000
0010
0100
,
0000
0001
0100
0010
1000
0000
0100
0010
,
0100
1000
0100
0001
0100
0000
0010
0100
,
0000
1000
0001
0000
0010
0100
0001
0010
,
0000
0100
1000
0100
0010
0000
0001
0100
,
0000
0010
1000
0001
0000
0010
0100
1000
,
0001
0100
1000
0100
0010
0000
1000
0100
,
0010
0000
0000
0010
0000
0000
0010
0000
0001
0000
0000
0001
0000
0000
0001
0000
,
0100
0000
0000
0100
0000
0000
0100
0000
1000
0000
0000
1000
0000
0000
1000
0000
,
0010
0001
0100
0001
0010
0100
1000
0100
,
0010
0001
0100
1000
0010
0001
0100
1000
,
0010
0001
0010
0100
1000
0010
0000
0010
,
0000
0010
0100
0001
0010
0100
0000
1000
,
0100
0001
0100
1000
0001
0000
0100
0010
,
0000
0010
0001
0000
0100
0010
1000
0000
,
1000
0100
0001
0100
1000
0010
0000
0010
,
0000
0010
0001
0100
0010
1000
0000
0100
,
0001
0010
0100
1000
0001
0000
0100
0010
,
0000
0100
0001
0000
1000
0100
0010
0001
,
0011
0000
0000
0010
0000
0000
0010
0000
0010
0000
0000
0000
1001
0000
0000
0000
,
0100
0000
0000
0100
0000
0000
0100
0000
0100
0000
0000
0000
1010
0000
0000
0000
,
0001
0000
0000
0001
0000
0000
0001
0000
0001
0000
1000
0000
0010
0000
0000
0000
,
0100
0000
0000
0100
0000
0000
0100
0000
0100
0000
0000
0000
1001
0000
0000
0000
,
0010
0000
0000
0010
0000
0000
0010
0000
0010
0000
0000
0000
1100
0000
0000
0000
,
0001
0000
0000
0001
0000
0000
0001
0000
0001
0000
0000
0000
1010
0000
0000
0000
,
0100
0000
0000
0100
0000
0000
0100
0000
0100
0000
0010
0000
0001
0000
0000
0000
,
1000
0000
0000
1000
0000
0000
1000
0000
1000
0000
0000
0000
0101
0000
0000
0000
,
1000
0000
0000
0100
0000
0000
0010
0000
0000
0001
0000
0000
0100
0000
0000
0000
,
0010
0000
0000
1000
0000
0000
0010
0000
0000
0100
0000
0000
0001
0000
0000
0000
,
1000
0000
0000
0001
0000
0000
0010
0000
0000
0001
0000
0000
0100
0000
0000
0000
,
0010
0000
0000
0100
0000
0000
1000
0000
0000
0001
0000
0000
0100
0000
0000
0000
,
1001
0000
0000
0000
;

//---------------dance-single - ----------------
#NOTES:
     dance-single:
     :
     Medium:
     7:
     0.323,0.347,0.136,0.058,0.078:
0000
0000
0000
0000
,
0000
0000
0000
0000
,
0000
0000
0000
0000
,
0000
0000
0000
0000
,
0000
0000
0100
0000
0000
0010
0000
0000
0001
0000
0000
1000
0000
0000
0010
0000
,
0000
0000
0100
0000
0000
0001
0000
0000
1000
0000
0000
0010
0000
0000
1000
0000
,
0000
0000
0100
0000
0000
0010
0000
0000
0100
0000
0000
1000
0000
0000
0001
0000
,
0000
0000
0100
0000
0000
0010
0000
0000
0100
0000
0000
0001
0000
0000
1000
0000
,
0000
0000
0100
0000
0000
0010
0000
0000
0001
0000
0000
1000
0000
0000
0010
0000
,
0000
0000
0100
0000
0000
1000
0000
0000
0100
0000
0000
0010
0000
0000
0001
0000
,
0000
0000
1000
0000
0000
0100
0000
0000
0001
0000
0000
0100
0000
0000
0010
0000
,
0000
0000
1000
0000
0000
0001
0000
0000
0010
0000
0000
0100
0000
0000
1000
0000
,
0000
0001
0100
0000
0010
0000
0100
0001
,
0000
1000
0000
0100
0000
0010
0100
0000
,
1000
0000
0100
0010
0000
0001
0100
0000
,
0010
0010
0010
0010
,
0100
0000
0001
0000
1000
0100
0010
0000
,
0001
0000
0100
0000
0001
0000
1000
0100
,
0010
0000
0010
0100
0000
0100
1000
0000
,
0001
0000
0001
0000
0001
0000
0100
0010
,
0000
0010
0100
0000
0001
0000
0100
0010
,
0000
0010
0100
0000
0001
0000
1000
0000
,
0100
0000
0010
0000
0100
1000
0001
0000
,
0100
0000
0010
0000
0100
0001
1000
0000
,
0100
0000
0010
0100
0000
0100
0010
0000
,
0100
0000
0010
0100
0000
0100
0010
0000
,
0001
0000
0100
0000
0010
0000
1000
0001
,
0100
0000
0100
0000
0010
0000
1000
0001
,
0100
0000
0100
0000
0010
0000
1000
0001
,
0100
0100
0100
0100
,
0100
0010
0100
0010
0100
0010
0100
0000
,
0001
0010
0001
0000
1000
0000
0100
0000
,
0010
0100
1000
0000
0010
0000
0100
0000
,
0001
0010
0100
0000
0100
0010
0001
0000
,
0100
0010
1000
0100
,
0010
0100
1000
0000
1000
0100
0010
0000
,
0001
0000
0100
0000
0010
1000
0100
0000
,
0100
1000
0010
0000
0100
0001
0010
0000
,
0010
0001
0100
0000
0100
0010
1000
0000
,
0100
0000
0000
0100
0100
0000
1001
0000
,
0010
0000
0000
0010
0010
0000
1001
0000
,
0100
0000
0000
0100
0100
0000
1010
0000
,
0100
0000
0000
0100
0100
0000
0011
0000
,
1000
0000
0000
1000
1000
0000
0011
0000
,
0100
0000
0000
0100
0100
0000
1010
0000
,
0001
0000
0000
0001
0001
0000
1010
0000
,
1100
0101
0011
1001
,
0220
0000
0000
0330
,
2002
0000
0000
3003
,
0200
0000
0000
0000
,
0020
0000
0000
0330
,
1001
0000
0000
0000
;

//---------------dance-single - ----------------
#NOTES:
     dance-single:
     :
     Easy:
     3:
     0.171,0.198,0.000,0.039,0.000:
0000
0000
0000
0000
,
0000
0000
0000
0000
,
0000
0000
0000
0000
,
0000
0000
0000
0000
,
1000
1000
0001
0001
,
0100
0000
0100
0000
,
0010
0010
0100
0100
,
0001
0000
1000
0000
,
0100
0100
0010
0010
,
0001
0000
1000
0000
,
0001
0001
0010
0010
,
0100
0000
0010
0000
,
0001
0100
0010
0000
,
0010
0000
0100
0001
,
1000
0000
1000
0000
,
1000
0100
0010
0000
,
0010
0100
1000
0000
,
0001
0000
0100
0000
,
0010
0100
0001
0000
,
1000
0000
0100
0010
,
0001
0000
0010
0100
,
1000
0000
0001
0000
,
0100
0000
0100
0000
,
0100
0000
0001
0001
,
0001
0000
1000
0000
,
0100
0000
0010
0100
,
1000
0000
1000
0000
,
0001
0001
0001
0000
,
1000
1000
1000
0000
,
0100
0010
0100
0010
,
0001
1000
0001
1000
,
0010
0010
0010
0000
,
0100
0000
0100
0000
,
0001
1000
0001
0000
,
1000
0000
1000
0000
,
0100
0010
0100
0000
,
1000
0000
1000
0000
,
0001
0001
0001
0000
,
0100
0000
0100
0000
,
0010
0000
0000
0100
,
0100
0000
0000
0001
,
0001
0000
0000
1000
,
1000
0000
0000
0100
,
0100
0000
0000
0010
,
0010
0000
0000
0001
,
1000
0000
0000
0100
,
0010
0000
0000
0001
,
0200
0000
0300
0000
,
0020
0000
0030
0000
,
2000
0000
3000
0000
,
0002
0000
0003
1000
,
0100
0000
0000
0000
;

//---------------dance-single - ----------------
#NOTES:
     dance-single:
     :
     Beginner:
     1:
     0.097,0.124,0.010,0.000,0.000:
0000
0000
0000
0000
,
0000
0000
0000
0000
,
0000
0000
0000
0000
,
0000
0000
0000
0000
,
1000
0000
1000
0000
,
1000
0000
1000
0000
,
0001
0000
0001
0000
,
0001
0000
0001
0000
,
1000
0000
1000
0000
,
1000
0000
1000
0000
,
0001
0000
0001
0000
,
0001
0000
0001
0000
,
0100
0000
0000
0000
,
0100
0000
0100
0000
,
0100
0000
0000
0000
,
0001
0000
0000
0000
,
1000
0000
0000
0000
,
0100
0000
0100
0000
,
0100
0000
0000
0000
,
0010
0000
0000
0000
,
0001
0000
0001
0000
,
0001
0000
0000
0000
,
1000
0000
1000
0000
,
1000
0000
0000
0000
,
0001
0000
0001
0000
,
0001
0000
0000
0000
,
1000
0000
1000
0000
,
1000
0000
0000
0000
,
0001
0000
0000
0000
,
0100
0000
0100
0000
,
0100
0000
0100
0000
,
0100
0000
0000
0000
,
0010
0000
0010
0000
,
0010
0000
0000
0000
,
1000
0000
1000
0000
,
1000
0000
0000
0000
,
0001
0000
0001
0000
,
0001
0000
0000
0000
,
0010
0000
0000
0000
,
0100
0000
0100
0000
,
0100
0000
0000
0000
,
0010
0000
0010
0000
,
0010
0000
0000
0000
,
0001
0000
0001
0000
,
0001
0000
0000
0000
,
1000
0000
1000
0000
,
1000
0000
0000
0000
,
0010
0000
0000
0000
,
0000
0000
0000
0000
,
0100
0000
0000
0000
,
0000
0000
0000
0000
,
1001
0000
0000
0000
;

//---------------dance-double - ----------------
#NOTES:
     dance-double:
     :
     Hard:
     10:
     0.373,0.372,0.010,0.000,0.107:
00000000
00000000
00000000
00000000
,
00000000
00000000
00000000
00000000
,
00000000
00000000
00000000
00000000
,
00000000
00000000
00000000
00000000
,
00000010
00001000
00000100
01000000
00010000
00100000
01000000
00000000
,
01000000
01000000
01000000
01000000
,
00100000
00010000
01000000
00000100
00001000
00000010
00000100
00000000
,
00000100
00000100
00000100
00000100
,
00000010
00001000
00000100
01000000
00010000
00100000
01000000
00000000
,
01000000
01000000
01000000
01000000
,
00100000
00010000
01000000
00000100
00001000
00000010
00000100
00000000
,
00000100
00000100
00000100
00000100
,
00000001
00000010
00000001
00000100
00000010
00000100
00000010
00010000
,
00000000
00001000
00000000
01000000
00000000
00001000
00100000
01000000
,
10000000
00000000
01000000
00010000
00000000
00001000
00000100
00000000
,
00000001
00000000
00000010
00000000
00000001
00000100
00000010
00000000
,
00001000
00000100
00010000
00001000
00100000
00010000
01000000
00100000
,
00000000
01000000
00000000
00010000
00000000
10000000
01000000
00100000
,
00001000
00000000
00010000
00000100
00000000
00001000
00000010
00000000
,
00000100
00000000
00000001
00000010
00000100
00000000
00000010
00000001
,
00000000
00000100
00000010
00001000
00000100
00000000
00010000
00001000
,
00000000
00100000
00010000
00000000
01000000
00000000
00010000
00000000
,
00100000
01000000
10000000
01000000
00010000
00000000
00001000
00000100
,
00000001
00000000
00000010
00000100
00001000
00000000
00000100
00010000
,
00001000
00000000
01000000
00010000
00100000
00000000
01000000
10000000
,
00010000
00000000
01000000
00000000
00100000
00000000
10000000
01000000
,
00010000
00001000
00000100
00000001
00000010
00000000
00000001
00000100
,
00000001
00000000
00000000
00000001
00000000
00000000
00000001
00000000
00001000
00000000
00000000
00001000
00000000
00000000
00001000
00000000
,
00010000
00000000
00000000
00010000
00000000
00000000
00010000
00000000
10000000
00000000
00000000
10000000
00000000
00000000
10000000
00000000
,
01000000
00000000
00000000
01000000
00000000
00000000
01000000
00000000
00100000
00000000
00000000
00100000
00000000
00000000
00100000
00000000
,
00001000
01000000
00001000
01000000
00000100
00010000
00000100
00010000
,
00000010
00001000
00000001
00000010
00000100
00001000
00000000
00000100
,
00000000
00010000
00001000
00100000
01000000
10000000
00000000
01000000
,
00100000
01000000
00100000
00001000
00100000
00001000
00000000
00010000
,
00000000
00000100
00001000
00000000
00000010
00000100
00000001
00000000
,
00000010
00000001
00000100
00001000
00010000
01000000
00000000
10000000
,
00000000
00100000
10000000
00010000
00001000
00000100
00000000
00000100
,
00000010
00000001
00000100
00001000
00010000
01000000
00000000
10000000
,
00000000
00010000
00000000
00001000
00000001
00000000
00000100
00000000
,
00000001
00000000
00000000
00000100
00000000
00000000
00001000
00000000
00010000
00000000
00000000
00000000
01000000
00000000
00000000
00000000
,
10000000
00000000
00000000
00100000
00000000
00000000
00010000
00000000
00001000
00000000
00000000
00000000
00000010
00000000
00000000
00000000
,
00000001
00000000
00000000
00000100
00000000
00000000
00001000
00000000
00010000
00000000
00000000
00000000
00100000
00000000
00000000
00000000
,
10000000
00000000
00000000
01000000
00000000
00000000
00010000
00000000
00001000
00000000
00000000
00000000
00000010
00000000
00000000
00000000
,
00000001
00000000
00000000
00000010
00000000
00000000
00001000
00000000
00010000
00000000
00000000
00000000
00100000
00000000
00000000
00000000
,
10000000
00000000
00000000
01000000
00000000
00000000
00010000
00000000
00001000
00000000
00000000
00000000
00000100
00000000
00000000
00000000
,
00000001
00000000
00000000
00000010
00000000
00000000
00001000
00000000
00010000
00000000
00000000
00000000
01000000
00000000
00000000
00000000
,
10000000
00000000
00000000
00100000
00000000
00000000
00010000
00000000
00001000
00000000
00000000
00000000
00000100
00000000
00000000
00000000
,
00000001
00000000
00000000
00000100
00000000
00000000
00001000
00000000
00000000
00010000
00000000
00000000
01000000
00000000
00000000
00000000
,
10000000
00000000
00000000
00100000
00000000
00000000
00010000
00000000
00000000
00001000
00000000
00000000
00000010
00000000
00000000
00000000
,
00000001
00000000
00000000
00000100
00000000
00000000
00001000
00000000
00000000
00010000
00000000
00000000
00100000
00000000
00000000
00000000
,
10000000
00000000
00000000
01000000
00000000
00000000
00010000
00000000
00000000
00001000
00000000
00000000
00000010
00000000
00000000
00000000
,
00001001
00000000
00000000
00000000
;

//---------------dance-double - ----------------
#NOTES:
     dance-double:
     :
     Medium:
     7:
     0.301,0.322,0.010,0.000,0.039: // measure 1
00000000
00000000
00000000
00000000
,  // measure 2
00000000
00000000
00000000
00000000
,  // measure 3
00000000
00000000
00000000
00000000
,  // measure 4
00000000
00000000
00000000
00000000
,  // measure 5
00010000
00001000
01000000
00000000
01000000
00001000
00010000
00000000
,  // measure 6
01000000
10000000
00100000
10000000
,  // measure 7
01000000
00010000
00001000
00000000
00001000
00010000
00000100
00000000
,  // measure 8
00000010
00000001
00000100
00000010
,  // measure 9
00010000
00000100
00001000
00000000
00001000
00000010
00010000
00000000
,  // measure 10
00000100
00010000
00001000
01000000
,  // measure 11
00010000
00100000
01000000
00000000
01000000
00100000
00001000
00000000
,  // measure 12
00010000
01000000
10000000
00100000
,  // measure 13
01000000
00010000
00100000
00000000
00001000
00000000
00010000
00000000
,  // measure 14
00000100
00001000
00000010
00000100
,  // measure 15
00000001
00000000
00000010
00000001
00000100
00000000
00000010
00000000
,  // measure 16
00000100
00001000
00010000
01000000
,  // measure 17
10000000
00000000
00100000
00000000
10000000
01000000
10000000
00000000
,  // measure 18
00100000
01000000
00010000
00100000
,  // measure 19
00001000
00010000
00000100
00001000
,  // measure 20
00000010
00000100
00001000
00010000
,  // measure 21
00100000
00000000
10000000
00010000
00100000
00000000
00010000
00000000
,  // measure 22
01000000
00000000
00001000
00010000
00000100
00000000
00001000
00000000
,  // measure 23
00000010
00000000
00000100
00000001
00000010
00000000
00000010
00000001
,  // measure 24
00000100
00000010
00001000
00000100
,  // measure 25
00010000
00001000
01000000
00010000
,  // measure 26
00100000
01000000
10000000
00000000
00100000
00000000
01000000
00000000
,  // measure 27
00010000
00100000
00001000
00010000
,  // measure 28
00000100
00001000
00000010
00000100
,  // measure 29
00000001
00000010
00000001
00001000
,  // measure 30
00010000
10000000
01000000
00100000
,  // measure 31
00010000
01000000
00010000
01000000
00100000
01000000
00100000
00000000
,  // measure 32
10000000
01000000
00100000
00000000
01000000
00000000
10000000
00000000
,  // measure 33
00010000
01000000
00001000
00010000
,  // measure 34
00000100
00001000
00000010
00000000
00000100
00000000
00000001
00000000
,  // measure 35
00000010
00000001
00000100
00001000
,  // measure 36
00010000
00001000
00010000
00000000
01000000
00000000
10000000
00000000
,  // measure 37
00100000
10000000
01000000
00010000
,  // measure 38
00001000
00010000
00001000
00000000
00010000
00000000
00000100
00000000
,  // measure 39
00001000
00000010
00000100
00000001
,  // measure 40
00000010
00000000
00000000
00000001
00000001
00000000
00000100
00000000
,  // measure 41
00000010
00000000
00000000
00001000
00001000
00000000
00000100
00000000
,  // measure 42
00010000
00000000
00000000
00001000
00001000
00000000
01000000
00000000
,  // measure 43
00010000
00000000
00000000
10000000
10000000
00000000
01000000
00000000
,  // measure 44
00010000
00000000
00000000
00001000
00001000
00000000
00000100
00000000
,  // measure 45
00000001
00000000
00000000
00000010
00000010
00000000
00001000
00000000
,  // measure 46
00010000
00000000
00000000
00100000
00100000
00000000
10000000
00000000
,  // measure 47
01000000
00000000
00000000
10000000
10000000
00000000
00100000
00000000
,  // measure 48
01000000
00000000
00000000
01000000
00000000
00000000
00010000
00000000
00000000
00010000
00000000
00000000
00100000
00000000
00000000
00000000
,  // measure 49
00001000
00000000
00000000
00001000
00000000
00000000
00010000
00000000
00000000
00010000
00000000
00000000
00000010
00000000
00000000
00000000
,  // measure 50
00001000
00000000
00000000
00001000
00000000
00000000
00000100
00000000
00000000
00000100
00000000
00000000
00000010
00000000
00000000
00000000
,  // measure 51
00000001
00000000
00000000
00000001
00000000
00000000
00000100
00000000
00000000
00000100
00000000
00000000
00001000
00000000
00000000
00000000
,  // measure 52
00011000
00000000
00000000
00000000
;

//---------------dance-double - ----------------
#NOTES:
     dance-double:
     :
     Easy:
     5:
     0.218,0.248,0.010,0.000,0.000: // measure 1
00000000
00000000
00000000
00000000
,  // measure 2
00000000
00000000
00000000
00000000
,  // measure 3
00000000
00000000
00000000
00000000
,  // measure 4
00000000
00000000
00000000
00000000
,  // measure 5
10000000
01000000
10000000
00000000
01000000
00000000
00010000
00000000
,  // measure 6
00001000
00000100
00000001
00000010
,  // measure 7
00000001
00000100
00000001
00000000
00000100
00000000
00001000
00000000
,  // measure 8
00010000
01000000
10000000
00100000
,  // measure 9
10000000
01000000
10000000
00000000
01000000
00000000
00010000
00000000
,  // measure 10
00001000
00000100
00000001
00000010
,  // measure 11
00000001
00000100
00000001
00000000
00000100
00000000
00001000
00000000
,  // measure 12
00010000
01000000
10000000
00100000
,  // measure 13
10000000
00010000
00100000
00001000
,  // measure 14
00010000
00000000
00000010
00000000
00001000
00000000
00000001
00000010
,  // measure 15
00000001
00001000
00000010
00010000
,  // measure 16
00001000
00100000
00010000
10000000
,  // measure 17
00100000
00000000
10000000
01000000
,  // measure 18
00010000
00001000
00000100
00000010
,  // measure 19
00001000
00000000
00000001
00000000
,  // measure 20
00000010
00000100
00010000
00001000
,  // measure 21
00100000
00000000
01000000
00000000
,  // measure 22
10000000
00000000
00010000
00000000
,  // measure 23
00001000
00000000
00000001
00000000
,  // measure 24
00000010
00000000
00000100
00000000
,  // measure 25
00010000
00000000
01000000
00000000
,  // measure 26
00100000
00000000
10000000
00000000
,  // measure 27
00010000
00000000
00100000
00000000
,  // measure 28
00000010
00001000
00000100
00001000
,  // measure 29
00000010
00000100
00000001
00000100
,  // measure 30
00000010
00010000
00001000
01000000
,  // measure 31
00010000
10000000
01000000
00100000
,  // measure 32
00010000
00000000
10000000
01000000
,  // measure 33
00010000
00000000
00001000
00000000
,  // measure 34
00000100
00000001
00000010
00000100
,  // measure 35
00000010
00000001
00000100
00000000
,  // measure 36
00000001
00000100
00001000
00000000
,  // measure 37
00010000
00000000
01000000
00000000
,  // measure 38
10000000
00100000
01000000
00010000
,  // measure 39
00100000
00000000
00001000
00000000
,  // measure 40
00000100
00000000
00000100
00000001
,  // measure 41
00000100
00000000
00000010
00010000
,  // measure 42
00001000
01000000
00010000
00100000
,  // measure 43
01000000
10000000
01000000
00000000
,  // measure 44
00010000
00001000
00000100
00000000
,  // measure 45
00000001
00000000
00000010
00001000
,  // measure 46
00010000
00000000
00100000
00000000
,  // measure 47
00010000
00000000
00000100
00000000
,  // measure 48
00000010
00000001
00000100
00000000
,  // measure 49
00001000
00010000
01000000
00000000
,  // measure 50
00100000
00010000
01000000
00000000
,  // measure 51
00100000
10000000
01000000
01000000
,  // measure 52
10010000
00000000
00000000
00000000
;
