#TITLE:Second Heaven (Samba, Samba, SomeBody MIX);
#SUBTITLE:;
#ARTIST:Remixed by DJ YOSHITAKA;
#TITLETRANSLIT:;
#SUBTITLETRANSLIT:;
#ARTISTTRANSLIT:;
#GENRE:;
#CREDIT:;
#MENUCOLOR:;
#METERTYPE:DDR;
#BANNER:Second Heaven (Samba, Samba, SomeBody MIX).png;
#BACKGROUND:Second Heaven (Samba, Samba, SomeBody MIX)-bg.png;
#LYRICSPATH:;
#CDTITLE:cdtitle.png;
#MUSIC:Second Heaven (Samba, Samba, SomeBody MIX).mp3;
#OFFSET:-0.028;
#SAMPLESTART:23.124;
#SAMPLELENGTH:15.000;
#SELECTABLE:YES;
#LISTSORT:;
#BPMS:0.000=135.000;
#STOPS:;
#BGCHANGES:;
#ATTACKS:;

//---------------dance-single - ----------------
#NOTES:
     dance-single:
     :
     Hard:
     12:
     0.507,0.544,0.235,0.034,0.469:
0000
0000
0000
0000
,
0000
0000
0000
0000
,
0000
0000
0000
0000
,
0000
0000
0000
0000
,
0000
0000
0000
0000
,
0001
0100
0001
0000
1000
0100
1000
0000
,
0001
0010
0100
0000
1000
0010
0100
0000
,
0001
0100
1000
0000
1000
0100
0001
0000
,
1000
0100
0001
0000
0001
0100
1000
0000
,
0010
0100
0001
0000
0010
0100
1000
0000
,
0010
1000
0100
0000
0001
0100
1000
0000
,
0101
0100
1100
1000
,
1010
0000
0000
0000
0011
0000
0000
0000
0100
0000
0000
0010
0000
0000
0100
0000
,
1001
0010
0100
1000
0100
0000
0001
0000
,
0100
1000
0010
0100
1000
0100
0001
0000
,
0010
0001
0100
1000
0100
0000
0010
0000
,
0001
0010
1000
0100
0010
0000
0001
0000
,
1000
0001
0100
1000
0100
0000
0010
0000
,
0001
0010
1000
0010
0100
0001
0010
0000
,
0100
1000
0100
0001
0100
0000
1000
0000
,
0010
0100
0001
0010
0100
0000
0001
0000
,
0100
0100
0200
0300
,
1000
0100
0001
0100
1000
0000
0010
0000
,
0100
0100
0200
0300
,
0001
0100
0010
0000
0100
0000
1001
0000
,
0010
0000
0010
0000
1000
0100
0010
0000
,
0001
0000
0001
0000
0100
0010
1000
0100
,
0010
0000
0010
0000
0100
1000
0010
0000
,
0100
0000
0100
0000
0001
0010
0100
0000
,
1000
0101
1000
0101
,
1000
0101
1000
0101
,
0001
1100
0001
1100
,
0001
1100
0001
1100
,
0101
0101
0000
0000
0010
0000
1000
0000
,
1100
1100
0000
0000
1000
0000
0001
0000
,
0011
0100
1010
0001
,
1100
0000
0000
0000
0101
0000
0000
0000
0010
0000
0000
0100
0000
0000
0010
0000
,
1000
0000
0100
0010
0000
0100
0000
1000
0000
0001
0000
0100
0000
0000
0000
0000
,
0010
0000
0100
0001
0000
1000
0000
0100
0000
0000
0010
0000
0100
0000
1000
0000
,
0001
0000
0100
0010
0000
0100
0000
0001
0000
1000
0000
0100
0000
0000
0010
0100
,
1000
0000
0001
0100
0000
1000
0000
0100
0000
0000
0000
0000
0010
0000
0000
0000
,
1100
0000
0000
1000
0100
0000
0010
0000
0001
0000
0100
0000
0010
0000
0000
0000
,
1010
0000
0000
0010
0100
0000
0001
0000
0010
0000
0100
0000
1000
0000
0000
0000
,
1100
0000
0000
1000
0100
0000
0010
0000
0001
0000
0000
0010
0001
0000
0100
0000
,
0101
0000
0000
0100
0010
0000
1000
0000
0100
0000
0000
1000
0001
0000
0100
0000
,
0110
0000
0000
0010
1000
0000
0000
0010
0100
0000
0000
0001
0100
0000
0000
0001
,
0010
0010
0100
0100
1000
1000
0001
0002
,
2000
0000
0000
3003
,
0010
0000
0000
0000
0000
0000
1000
0000
0000
0001
0000
0000
0000
0000
0000
0010
0000
0000
0000
0000
0000
0100
0000
0000
1000
0000
0000
0000
0001
0000
0000
0000
1000
0000
0000
0000
0001
0000
0000
0000
0000
0000
0000
0000
0000
0000
0000
0000
,
0010
0000
0100
1000
0000
0100
0000
0001
0000
0100
0000
0010
0000
0000
0000
0000
,
0001
0000
0100
0010
0000
0100
0000
0001
0000
0000
1000
0000
0100
0000
0001
0000
,
0100
0000
0010
0001
0000
0100
0000
0010
0000
1000
0000
0100
0000
0000
1000
0010
,
0100
0000
0001
0100
0000
0001
0000
0010
0000
0000
0100
0000
0100
0000
0100
0000
,
1000
0000
0010
0100
0000
0010
0000
1000
0000
0001
0000
0010
0000
0000
0000
0000
,
0100
0000
1000
0001
0000
0100
0000
0001
0000
0000
1000
0000
0010
0000
0100
0000
,
0001
0000
0010
0100
0000
1000
0000
0100
0000
0010
0000
0001
0000
0000
0100
0010
,
1000
0000
0010
0100
0000
0001
0000
0010
0000
0000
0100
0000
1000
0000
0100
0000
,
0001
0000
0100
1000
0000
0100
0000
0010
0000
1000
0000
0010
0000
0001
0100
0001
,
1000
0000
0010
0100
0000
0001
0000
0010
0000
0100
1000
0000
0001
0000
0100
0000
,
0010
0000
1000
0100
0000
0010
0000
0100
0000
1000
0000
0001
0000
0010
0100
0010
,
0001
0000
1000
0010
0000
0100
0000
0001
0000
0000
1000
0000
1000
0000
1000
0000
,
0001
0000
0010
0100
0000
0010
0000
0001
0000
0100
0000
0010
0000
1000
0010
1000
,
0100
0000
0010
0100
0000
1000
0000
0001
0000
0100
0010
0000
0100
0000
0001
0000
,
1000
0000
0100
0001
0000
0100
0000
1000
0000
0010
0000
0100
0000
0001
0100
0001
,
0010
0000
0000
0000
0000
0000
0100
0000
0000
1000
0000
0000
0000
0000
0000
0001
0000
0000
0000
0000
0000
0100
0000
0000
0010
0000
0000
0000
1000
0000
0000
0000
0010
0000
0000
0000
0100
0000
0000
0000
0000
0000
0000
0000
0000
0000
0000
0000
,
1001
0000
0000
0000
;

//---------------dance-single - ----------------
#NOTES:
     dance-single:
     :
     Medium:
     8:
     0.375,0.381,0.126,0.276,0.008:
0000
0000
0000
0000
,
0000
0000
0000
0000
,
0000
0000
0000
0000
,
0000
0000
0000
0000
,
0000
0000
0000
0000
,
0010
0010
1000
1000
,
0100
0100
0001
0001
,
0010
0010
0001
0001
,
0100
0100
1000
1000
,
0010
0100
0001
0100
,
0010
1000
0100
1000
,
0001
0010
0100
1000
,
0001
0100
0020
2030
,
3001
0100
0001
0000
1000
0000
0010
0000
,
0100
0001
0100
0000
0010
0000
1000
0000
,
0100
0010
0100
0000
1000
0000
0001
0000
,
0100
0001
0100
0000
0010
0000
1000
0000
,
0001
0010
0001
0000
1000
0000
0010
0000
,
0100
0001
0100
0000
0010
0000
1000
0000
,
0100
0010
0100
0000
1000
0001
1000
0000
,
0010
0100
0010
0000
1000
0000
0001
0000
,
1000
0001
0200
0300
,
0010
1000
0001
0010
,
0100
1000
0020
0030
,
0100
0100
0110
1001
,
0002
0000
1000
0000
0103
0100
0010
0000
,
2000
0000
0001
0000
3100
0100
0010
0000
,
0001
0000
1000
0000
0001
0100
0010
0000
,
1000
0100
0010
0000
0100
0000
1001
0000
,
0020
0130
0020
0130
,
0020
1030
0020
1030
,
0200
0301
0200
0301
,
0200
0310
0200
0310
,
0100
0100
0000
0000
0100
0000
1000
0000
,
0010
0010
0000
0000
0100
0000
0001
0000
,
0101
0000
1100
0000
,
1001
1001
0010
0100
,
0001
0000
0001
0000
1000
0100
0001
0000
,
0100
1000
0001
0100
,
0010
0000
0010
0000
1000
0100
0010
0000
,
0100
1000
0002
0003
,
2000
0100
0100
3100
,
0002
0100
0100
0103
,
2000
0010
0100
3010
,
0002
0010
0100
0013
,
2000
3100
0020
0031
,
0200
0310
2000
3001
,
2002
0000
0000
3003
,
0010
0100
2002
3003
,
0010
0000
0100
0000
0001
0100
0010
0000
,
1000
0000
0100
0000
0010
0100
1000
0100
,
0010
0000
0001
0000
0100
0010
1000
0000
,
0001
1000
2002
3003
,
0010
0000
0100
0000
0001
0010
0100
0000
,
1000
0000
0001
0000
0100
0001
0010
0100
,
1000
0000
0001
0000
0100
0010
0100
0000
,
0001
1000
2002
3003
,
0010
0100
0001
0100
0010
0000
1000
0000
,
0100
0010
0001
0010
0100
0000
1000
0000
,
0001
1000
0100
0000
1000
0001
0100
0000
,
0010
0100
2002
3003
,
0001
0100
0001
0000
1000
0100
1000
0000
,
0001
0010
0100
1000
0001
0100
0010
0000
,
1000
0101
0001
1100
,
0010
0000
0000
0100
0000
0000
0001
1000
0001
1000
0000
0000
,
0110
0000
0000
0000
;

//---------------dance-single - ----------------
#NOTES:
     dance-single:
     :
     Easy:
     5:
     0.230,0.245,0.017,0.151,0.000:
0000
0000
0000
0000
,
0000
0000
0000
0000
,
0000
0000
0000
0000
,
0000
0000
0000
0000
,
0000
0000
0000
0000
,
2000
3000
0002
0003
,
2000
3000
0002
0003
,
2000
3000
0002
0003
,
2000
3000
0002
0003
,
0200
0300
0020
0030
,
0200
0300
0020
0030
,
0200
0300
0020
0030
,
0200
0300
0020
0030
,
1000
1000
1000
0000
,
0001
0100
0010
1000
,
0100
0100
0100
0000
,
0010
0001
0100
0000
,
0010
1000
0100
0000
,
0010
0001
0100
0001
,
0010
0100
1000
0000
,
0001
0100
0010
0000
,
1000
0001
1000
0000
,
0010
0100
0010
0000
,
1000
0001
1000
0000
,
0100
0100
0000
0000
,
1000
0001
1000
0000
,
0100
0010
0100
0000
,
1000
0001
1000
0000
,
0010
0010
0000
0000
,
1000
0100
1000
0100
,
1000
0100
1000
0100
,
0010
0001
0010
0001
,
0010
0001
0010
0001
,
2000
3000
0001
1000
,
0002
0003
1000
0001
,
1000
0000
0001
0000
,
0100
0100
0010
0010
,
1000
0000
0100
0100
,
0100
0000
0010
0000
,
0001
0000
1000
1000
,
1000
0001
0100
0010
,
0100
0000
0000
0000
,
0010
0000
0000
0000
,
1000
0000
0000
0000
,
0001
0000
0000
0000
,
0010
0000
0100
0000
,
1000
0000
0001
0000
,
1001
0000
0000
0000
,
0010
1000
0100
0010
,
0001
1000
0001
1000
,
0010
0100
0010
0000
,
1000
0001
1000
0001
,
0010
0100
0010
0000
,
0001
0100
0010
1000
,
0100
0010
0001
0000
,
1000
0010
0100
0001
,
0010
0100
1000
0000
,
0001
0000
0001
0000
,
0100
0001
0100
0001
,
0010
0000
0010
0000
,
0100
1000
0100
1000
,
0010
0100
0001
0010
,
0100
1000
0001
0100
,
0010
0100
0001
1000
,
0001
0000
1000
0000
,
1001
0000
0000
0000
;

//---------------dance-single - ----------------
#NOTES:
     dance-single:
     :
     Beginner:
     2:
     0.085,0.109,0.008,0.000,0.000:
0000
0000
0000
0000
,
0000
0000
0000
0000
,
0000
0000
0000
0000
,
0000
0000
0000
0000
,
0000
0000
0000
0000
,
1000
0000
0000
0000
,
0001
0000
0000
0000
,
1000
0000
0000
0000
,
0001
0000
0000
0000
,
1000
0000
0000
0000
,
0001
0000
0000
0000
,
1000
0000
0000
0000
,
0001
0000
0001
0000
,
0001
0000
0000
0000
,
1000
0000
0000
0000
,
0001
0000
0000
0000
,
1000
0000
1000
0000
,
1000
0000
0000
0000
,
0001
0000
0000
0000
,
1000
0000
0000
0000
,
0001
0000
0001
0000
,
0001
0000
0000
0000
,
1000
0000
0000
0000
,
0001
0000
0000
0000
,
1000
0000
0000
0000
,
0100
0000
0000
0000
,
1000
0000
0000
0000
,
0001
0000
0000
0000
,
0100
0000
0000
0000
,
0001
0000
0000
0000
,
1000
0000
0000
0000
,
0001
0000
0000
0000
,
1000
0000
0000
0000
,
0001
0000
0001
0000
,
0001
0000
0000
0000
,
1000
0000
1000
0000
,
1000
0000
0000
0000
,
0001
0000
0000
0000
,
0100
0000
0000
0000
,
1000
0000
0000
0000
,
0100
0000
0000
0000
,
0001
0000
0000
0000
,
1000
0000
0000
0000
,
0001
0000
0000
0000
,
1000
0000
0000
0000
,
0100
0000
0100
0000
,
0100
0000
0100
0000
,
0100
0000
0000
0000
,
0000
0000
0000
0000
,
0001
0000
0000
0000
,
1000
0000
0000
0000
,
0001
0000
0000
0000
,
1000
0000
1000
0000
,
1000
0000
0000
0000
,
0001
0000
0000
0000
,
1000
0000
0000
0000
,
0001
0000
0001
0000
,
0001
0000
0000
0000
,
1000
0000
0000
0000
,
0001
0000
0000
0000
,
0100
0000
0100
0000
,
0100
0000
0000
0000
,
1000
0000
0000
0000
,
0100
0000
0000
0000
,
0001
0000
0000
0000
,
1001
0000
0000
0000
;

//---------------dance-double - ----------------
#NOTES:
     dance-double:
     :
     Hard:
     11:
     0.462,0.490,0.243,0.042,0.172:
00000000
00000000
00000000
00000000
,
00000000
00000000
00000000
00000000
,
00000000
00000000
00000000
00000000
,
00000000
00000000
00000000
00000000
,
00000000
00000000
00000000
00000000
,
00010000
00000000
01100000
00000000
00010000
00001000
00000100
00000000
,
00001000
00000000
00000110
00000000
00001000
00010000
01000000
00000000
,
00010000
00001000
00000010
00000000
00001000
00010000
00100000
00000000
,
10000000
01000000
00010000
00000000
00001000
00000100
00000001
00000000
,
00000100
00000000
00011000
00000000
00100000
00001000
01000000
00000000
,
00100000
00000000
00011000
00000000
00000010
00010000
00000100
00000000
,
00001000
00000100
00000001
00000000
00000001
00000100
00001000
00000000
,
00010000
00100000
10000000
00000000
10000000
00100000
00010000
00000000
,
01000000
00100000
10000000
01000000
00010000
00000000
00001000
00000000
,
00010000
00000010
00001000
00000100
00000010
00000001
00000100
00000000
,
00000010
00001000
00000100
00010000
01000000
00000000
00100000
00000000
,
00010000
01000000
00001000
00010000
00000100
00000000
00001001
00000000
,
00000100
00000010
00000001
00000100
00001000
00000000
00010000
00000000
,
00001000
00100000
00010000
01000000
00100000
10000000
01000000
00000000
,
00100000
00010000
01000000
00001000
00000100
00000000
00000010
00000000
,
00001000
00000100
00010000
00001000
01000000
00000000
10010000
00000000
,
00100000
00000000
00100000
00000000
00200000
00000000
00300000
01000000
,
00000000
00001000
00000000
00010000
00000000
00000010
00001000
00000000
,
00000101
00000000
00001100
00000000
00002002
00000000
00003003
00000100
,
00000000
00010000
00000000
00000000
00000000
00000000
00000000
00000000
,
00011000
01000000
10000000
00100000
,
00011000
00000100
00000001
00000010
,
00011000
01000000
00011000
00000010
,
00001000
00010000
01000000
00100000
,
00010000
10000000
01000000
00000000
10000000
01000000
00010000
00000000
,
01000000
00010000
00001000
00000000
00010000
00001000
00000010
00000000
,
00001000
00000010
00000001
00000000
00000010
00000001
00000100
00000000
,
00000001
00000100
00001000
00000000
00000100
00001000
00010000
00000000
,
00001000
01001000
00000000
00000000
00000000
00000000
00000000
00000000
,
00010000
00010100
00000000
00000000
00000000
00000000
00000000
00000000
,
01100000
00000000
00000110
00000000
,
00011000
00000000
00000000
00000000
00011000
00000000
00000000
00000000
00010000
00000000
00000000
00001000
00000000
00000000
01000000
00000000
,
00100000
10000000
01000000
10000000
00100000
01000000
00010000
00000000
,
00100000
00001000
00010000
00000100
00001000
00000010
00010000
00001000
,
00000010
00000000
00000100
00000000
00001000
00000000
00000010
00000000
00000100
00000000
00000001
00000000
00001000
00000000
00000000
00000010
,
00000100
00000010
00001000
00000100
00020000
00000000
00031000
00000000
,
00011000
00000000
00010000
01000000
10000000
00100000
00010000
00000000
,
00011000
00000000
00001000
00000100
00000001
00000010
00001000
00000000
,
00011000
00000000
00010000
00100000
10000000
01000000
00010000
00000000
,
00011000
00000000
00001000
00000010
00000001
00000100
00001000
00000000
,
00011000
00010000
01010000
01000000
,
11000000
01000000
10000000
01000000
00100000
00010000
00100000
00010000
,
00000020
00000000
00000000
00000030
,
00000001
00000100
00001000
00000100
00000001
00000000
00001001
00000000
,
00001000
00000100
00010000
00001000
00010000
01000000
10000000
00000000
,
00010000
01000000
00001000
00010000
00001000
00000100
00000010
00001000
,
00000001
00000000
00000010
00000000
00001000
00000000
00010000
00000000
00001000
00000000
00000010
00000000
00000001
00000000
00000000
00000001
,
00001000
00000100
00010000
00001000
01000000
00000000
01010000
00000000
,
00010000
01000000
00001000
00010000
00001000
00000100
00000001
00000000
,
00001000
00000100
00010000
00001000
00010000
01000000
00100000
00010000
,
10000000
00000000
00100000
00000000
00010000
00000000
00001000
00000000
00010000
00000000
00100000
00000000
10000000
00000000
00000000
10000000
,
00010000
00000000
01000000
00000000
00001000
00000000
00010000
00000000
00000100
00000000
00000000
00000100
00000000
00000000
00000100
00000000
,
00000010
00000000
00000001
00000010
00000000
00000100
00000000
00001000
00000000
00000100
00000000
00010000
00000000
00000000
00000000
00000000
,
00001000
00000000
01000000
00010000
00000000
01000000
00000000
00100000
00000000
00000000
10000000
00000000
00010000
00000000
00100000
00000000
,
01000000
00000000
10000000
01000000
00000000
00100000
00000000
00010000
00000000
01000000
00000000
00001000
00000000
00000000
00010000
00000100
,
00010000
00000000
00000100
00010000
00000000
00001000
00000000
01000000
00000000
00000000
00000000
00000000
00000000
00000000
00000000
00000000
,
00100000
00000000
10000000
00100000
00000000
01000000
00000000
00010000
00000000
01000000
00000000
00001000
00000000
00000000
00000000
00000000
,
00010000
00000000
00000100
00001000
00000000
00000100
00000000
00000010
00000000
00000000
00000001
00000000
00001000
00000000
00000010
00000000
,
00000100
00000000
00000001
00000100
00000000
00000010
00000000
00001000
00000000
00000100
00000000
00010000
00000000
00000000
00001000
01000000
,
00001000
00000000
00000000
00000000
00000000
00000000
01000000
00000000
00000000
00001000
00000000
00000000
00000000
00000000
00000000
00010000
00000000
00000000
00000000
00000000
00000000
00000100
00000000
00000000
00010000
00000000
00000000
00000000
00001000
00000000
00000000
00000000
00010000
00000000
00000000
00000000
00001000
00000000
00000000
00000000
00000000
00000000
00000000
00000000
00000000
00000000
00000000
00000000
,
00011000
00000000
00000000
00000000
;

//---------------dance-double - ----------------
#NOTES:
     dance-double:
     :
     Medium:
     8:
     0.341,0.381,0.050,0.008,0.004: // measure 1
00000000
00000000
00000000
00000000
,  // measure 2
00000000
00000000
00000000
00000000
,  // measure 3
00000000
00000000
00000000
00000000
,  // measure 4
00000000
00000000
00000000
00000000
,  // measure 5
00000000
00000000
00000000
00000000
,  // measure 6
10000000
00000000
01000000
00000000
00100000
00010000
01000000
00000000
,  // measure 7
00001000
00000000
00010000
00000000
00000100
00001000
00000010
00000000
,  // measure 8
00000100
00000000
00000001
00000000
00000010
00000100
00001000
00000000
,  // measure 9
00000100
00000000
00010000
00000000
00001000
01000000
00010000
00000000
,  // measure 10
10000000
00000000
01000000
00000000
00010000
00001000
00010000
00000000
,  // measure 11
00001000
00000000
00000100
00000000
00000001
00001000
00000001
00000000
,  // measure 12
00000010
00000100
00010000
00001000
,  // measure 13
01000000
00000000
00000000
00000000
00100000
00000000
00000000
00000000
10000000
00000000
00000000
10000000
00000000
00000000
10000000
00000000
,  // measure 14
00010000
00000000
00100000
00000000
01000000
10000000
01000000
00000000
,  // measure 15
00100000
00000000
00010000
00000000
01000000
00001000
00010000
00000000
,  // measure 16
00001000
00000000
00010000
00000000
00000100
00001000
00000010
00000000
,  // measure 17
00000100
00000000
00000001
00000000
00000010
00000100
00001000
00000000
,  // measure 18
00000100
00000000
00010000
00000000
00001000
01000000
00010000
00000000
,  // measure 19
00100000
00000000
01000000
00000000
10000000
00010000
01000000
00000000
,  // measure 20
00010000
00000000
00100000
00000000
00001000
00010000
00000100
00000000
,  // measure 21
00001000
00000010
00000100
00000100
,  // measure 22
00000001
00000000
00001000
00000000
00000001
00000000
00000000
00001000
,  // measure 23
00000000
00000100
00000000
00010000
00000000
00001000
00010000
00000000
,  // measure 24
00001000
00000000
01000000
00000000
00001000
00000000
00000000
00100000
,  // measure 25
00000000
00100000
00000000
00000000
00000000
00000000
00000000
00000000
,  // measure 26
01000000
00000000
10000000
00000000
00010000
00000000
00000000
01000000
,  // measure 27
00000000
00001000
00000000
00010000
00000000
00000100
00001000
00000000
,  // measure 28
00000010
00000000
00000100
00000000
00000001
00000000
00000000
00001000
,  // measure 29
00000000
00001000
00000000
00000000
00000000
00000000
00000000
00000000
,  // measure 30
00000010
00001000
00000100
00000000
00000100
00001000
00000010
00000000
,  // measure 31
00000010
00001000
00000100
00000000
00000100
00010000
00001000
00000000
,  // measure 32
00100000
00010000
01000000
00000000
01000000
00010000
00100000
00000000
,  // measure 33
00100000
00010000
01000000
00000000
01000000
00001000
00010000
00000000
,  // measure 34
01000000
01000000
00000000
00000000
10000000
00000000
00010000
00000000
,  // measure 35
01000000
01000000
00000000
00000000
00010000
00000000
00100000
00000000
,  // measure 36
00001000
00010000
00000100
00001000
,  // measure 37
00001100
00000101
00000011
00001010
,  // measure 38
00001000
00000000
00001000
00000000
00000001
00000010
00000100
00000000
,  // measure 39
00001000
00000000
00001000
00000000
00000010
00000100
00001000
00000000
,  // measure 40
00000100
00000010
00001000
00000100
,  // measure 41
00010000
00001000
01000000
00000000
00010000
00000000
00100000
00000000
,  // measure 42
01000000
00000000
01000000
00000000
10000000
00100000
01000000
00000000
,  // measure 43
00100000
00000000
00100000
00000000
01000000
00010000
00100000
00000000
,  // measure 44
00001000
00000000
00001000
00000000
00010000
00000100
00001000
00000000
,  // measure 45
00000010
00000000
00000010
00000000
00000100
00000001
00000010
00000000
,  // measure 46
00000100
00001000
00000100
00010000
,  // measure 47
00001000
01000000
00010000
01000000
00100000
01000000
10000000
01000000
,  // measure 48
00200000
00000000
00000000
00300000
,  // measure 49
01000000
00000000
00010000
00000000
10000000
01000000
00100000
00000000
,  // measure 50
00010000
00000000
01000000
00000000
00010000
00100000
00001000
00000000
,  // measure 51
00010000
00000000
00000100
00000000
00001000
00000010
00000100
00000000
,  // measure 52
00000001
00000000
00000010
00000000
00000100
00001000
00000001
00000000
,  // measure 53
00000100
00001000
00010000
01000000
,  // measure 54
10000000
00000000
00100000
00000000
01000000
00010000
00100000
00000000
,  // measure 55
00001000
00000000
00010000
00000000
00000100
00010000
00001000
00000000
,  // measure 56
00010000
00000000
01000000
00000000
10000000
00010000
01000000
00000000
,  // measure 57
00001000
00010000
00001000
00000100
,  // measure 58
00000010
00000000
00001000
00000000
00000100
00001000
00000001
00000000
,  // measure 59
00000100
00000000
00000010
00000000
00001000
00000100
00010000
00000000
,  // measure 60
00001000
00000000
01000000
00000000
00010000
01000000
10000000
00000000
,  // measure 61
01000000
00100000
10000000
01000000
,  // measure 62
00100000
00000000
00010000
00000000
01000000
00010000
00100000
00000000
,  // measure 63
00001000
00000000
00010000
00000000
00000100
00001000
00000010
00000000
,  // measure 64
00000100
00000100
00000001
00000001
,  // measure 65
00001000
00000000
00000100
00000000
00000010
00000001
00001001
00000000
,  // measure 66
00000110
00000000
00000000
00000000
;

//---------------dance-double - ----------------
#NOTES:
     dance-double:
     :
     Easy:
     4:
     0.196,0.245,0.000,0.000,0.000: // measure 1
00000000
00000000
00000000
00000000
,  // measure 2
00000000
00000000
00000000
00000000
,  // measure 3
00000000
00000000
00000000
00000000
,  // measure 4
00000000
00000000
00000000
00000000
,  // measure 5
00000000
00000000
00000000
00000000
,  // measure 6
00000001
00001000
00000001
00001000
,  // measure 7
00000010
00000100
00000010
00000000
,  // measure 8
00001000
00000100
00001000
00000100
,  // measure 9
00010000
00001000
00010000
00000000
,  // measure 10
01000000
00100000
01000000
00100000
,  // measure 11
00010000
10000000
00010000
00000000
,  // measure 12
10000000
01000000
00010000
00001000
,  // measure 13
00000100
00000001
00000010
00000000
,  // measure 14
00000100
00000000
00000100
00000000
,  // measure 15
00001000
00000100
00010000
00000100
,  // measure 16
00001000
00000000
00001000
00000000
,  // measure 17
00000010
00000100
00000001
00000100
,  // measure 18
00000010
00000000
00001000
00000000
,  // measure 19
00000001
00000100
00000001
00000100
,  // measure 20
00001000
00000000
00010000
00000000
,  // measure 21
01000000
10000000
01000000
10000000
,  // measure 22
00010000
00000000
10000000
00000000
,  // measure 23
01000000
00000000
01000000
00000000
,  // measure 24
00100000
00000000
00100000
00000000
,  // measure 25
00010000
00000000
00000000
00000000
,  // measure 26
10000000
00000000
01000000
00000000
,  // measure 27
00010000
00000000
00001000
00000000
,  // measure 28
00000100
00000000
00000001
00000000
,  // measure 29
00001000
00000000
00000000
00000000
,  // measure 30
00000001
00001000
00000001
00001000
,  // measure 31
00000001
00001000
00000001
00001000
,  // measure 32
00000100
00010000
00000100
00010000
,  // measure 33
00000100
00010000
00000100
00010000
,  // measure 34
00001000
00000000
00001000
00000000
,  // measure 35
01000000
00000000
01000000
00000000
,  // measure 36
00100000
00000000
00100000
00000000
,  // measure 37
10000000
00010000
10000000
00010000
,  // measure 38
00100000
00000000
01000000
00000000
,  // measure 39
10000000
01000000
00010000
00000000
,  // measure 40
00001000
00000000
00000100
00000000
,  // measure 41
00000001
00000100
00000010
00000000
,  // measure 42
00001000
00000000
00000100
00000000
,  // measure 43
00010000
00000000
00001000
00000000
,  // measure 44
00100000
00000000
00010000
00000000
,  // measure 45
01000000
00000000
00100000
00000000
,  // measure 46
10000000
00000000
10000000
00000000
,  // measure 47
01000000
01000000
01000000
01000000
,  // measure 48
01000000
00000000
00000000
00000000
,  // measure 49
10000000
00000000
00010000
00000000
,  // measure 50
01000000
00001000
00010000
00000000
,  // measure 51
00000100
00000000
00001000
00000010
,  // measure 52
00000100
00000000
00000001
00000000
,  // measure 53
00000010
00000000
00001000
00010000
,  // measure 54
01000000
00000000
10000000
00000000
,  // measure 55
00100000
00000000
00010000
00001000
,  // measure 56
00000100
00000000
00000001
00000000
,  // measure 57
00000100
00000000
00001000
00010000
,  // measure 58
01000000
00000000
10000000
00000000
,  // measure 59
01000000
00000000
00010000
00001000
,  // measure 60
00000100
00000001
00000010
00000000
,  // measure 61
00000001
00000000
00000100
00001000
,  // measure 62
00010000
00100000
10000000
00000000
,  // measure 63
01000000
00000000
00010000
00001000
,  // measure 64
00000100
00000000
00000001
00000000
,  // measure 65
00000010
00001000
00010000
00100000
,  // measure 66
10000000
00000000
00000000
00000000
;
